夏福特[简繁字幕].Shaft.2019.2160p.UHD.BluRay.2160p.x265.10bit.HDR-MiniHD 21.61GB

版主小s 3月前 162

✔资源类型:BD-4K   ✔电影年份:2019   ✔电影地区:欧美   ✔电影分类:喜剧

◎译  名 夏福特 / 辣手刑警 2:勉强父子档(港) / 新杀戮战警(台) / 杀戮战警2 / 铁杆神探2 / 夏福特之子 / Shaft 2 / Son of Shaft
◎片  名 Shaft
◎年  代 2019
◎产  地 美国
◎类  别 喜剧 / 动作 / 犯罪
◎语  言 英语
◎上映日期 2019-06-14(美国)
◎IMDb链接 https://www.imdb.com/title/tt4463894/
◎豆瓣评分 6.8/10 (12447人评价)
◎豆瓣链接 https://movie.douban.com/subject/27116384/
◎片  长 111分钟
◎导  演 蒂姆·斯托瑞 Tim Story (id:1032396)
◎编  剧 肯尼亚·巴里斯 Kenya Barris (id:1023656)
       亚历克斯·巴诺 Alex Barnow (id:1418177)
       欧内斯特·泰迪曼 Ernest Tidyman (id:1014704)
◎演  员 塞缪尔·杰克逊 Samuel L. Jackson (id:1054408)
       杰西·厄舍 Jessie Usher (id:1199074)
       理查德·朗德特里 Richard Roundtree (id:1010679)
       雷吉娜·赫尔 Regina Hall (id:1036471)
       亚历山德拉·希普 Alexandra Shipp (id:1346503)
       马特·劳里亚 Matt Lauria (id:1325262)
       提图斯·维里沃 Titus Welliver (id:1165630)
       马索·曼恩 Method Man (id:1002776)
       伊萨赫·德·班克尔 Isaach De Bankolé (id:1022827)
       阿万·乔贾 Avan Jogia (id:1004655)
       劳伦·维勒斯 Lauren Vélez (id:1166181)
       伊恩·卡塞尔伯里 Ian Casselberry (id:1387744)
       西尔维娅·杰弗里斯 Sylvia Jefferies (id:1204638)
       迈克·顿斯顿 Mike Dunston (id:1411287)
       查尔斯·格林 Charles Green (id:1097930)
       艾德丽安·C·摩尔 Adrienne C. Moore (id:1368089)
       乔恩·亚瑟 Jon Arthur (id:1382884)
       肖恩·贝克 Sean Baker (id:1402582)
       蒂莫西·卡尔 Timothy Carr (id:1392730)
       大卫·邓斯顿 David Dunston (id:1393128)
       何塞·阿尔弗雷多·费尔南德斯 José Alfredo Fernandez (id:1411163)
       安东尼·B·哈里斯 Anthony B. Harris (id:1266890)
       德梅特里·兰德尔 Demetri Landell (id:1392766)
       汉斯·马雷罗 Hans Marrero (id:1378743)
       布赖希亚·马歇尔 Brayhia Marshall (id:1413570)
       肖恩·麦克米伦 Shaun McMillan (id:1392740)
       本杰明·韦弗 Benjamin Weaver (id:1392735)
       贾斯汀·贾木什 Justin Carmouche (id:1425052)
       詹姆斯·威廉·巴拉德 James William Ballard (id:1434106)
       约翰·戴维斯 John Davis (id:1281912)
       蒂姆·斯托瑞 Tim Story (id:1032396)
       克里斯托弗·伦内茨 Christopher Lennertz (id:1016820)
       威恩·托马斯 Wynn Thomas (id:1299163)

◎简  介
  杰西·厄舍加盟[杀戮战警]续作[夏福特之子](Son of Shaft,暂译),塞缪尔·杰克逊同时回归。本片由蒂姆·斯托瑞([佐州自救兄弟])执导,肯尼亚·巴里斯编剧。厄舍扮演杰克逊的儿子,他同时也是一名联邦调查局工作人员,更是网络专家。
  1. ##### MediaInfo ######
  2. General
  3. Unique ID                                : 97056754353901558537679227908780590668 (0x490473718F1506E77F151DD89EEA064C)
  4. Complete name                            : Shaft.2019.2160p.UHD.BluRay.2160p.x265.10bit.HDR-MiniHD.mkv
  5. Format                                   : Matroska
  6. Format version                           : Version 4
  7. File size                                : 21.6 GiB
  8. Duration                                 : 1 h 51 min
  9. Overall bit rate mode                    : Variable
  10. Overall bit rate                         : 27.7 Mb/s
  11. Encoded date                             : UTC 2022-05-27 14:31:46
  12. Writing application                      : mkvmerge v66.0.0 ('Josie') 64-bit
  13. Writing library                          : libebml v1.4.2 + libmatroska v1.6.4
  14. Video
  15. ID                                       : 1
  16. Format                                   : HEVC
  17. Format/Info                              : High Efficiency Video Coding
  18. Format profile                           : Main 10@L5.1@High
  19. HDR format                               : SMPTE ST 2086, HDR10 compatible
  20. Codec ID                                 : V_MPEGH/ISO/HEVC
  21. Duration                                 : 1 h 51 min
  22. Bit rate                                 : 24.0 Mb/s
  23. Width                                    : 3 840 pixels
  24. Height                                   : 1 608 pixels
  25. Display aspect ratio                     : 2.40:1
  26. Frame rate mode                          : Constant
  27. Frame rate                               : 23.976 (24000/1001/53354) FPS
  28. Color space                              : YUV
  29. Chroma subsampling                       : 4:2:0
  30. Bit depth                                : 10 bits
  31. Bits/(Pixel*Frame)                       : 0.162
  32. Stream size                              : 18.7 GiB (87%)
  33. Writing library                          : x265 3.3+3-g8f8e332f1+29:[Windows][#Erg`Djh#][@Yuuki] made by @Dongfangbubai
  34. Encoding settings                        : rc=crf / crf=18.0000 / qcomp=0.70 / qpstep=4 / stats-write=0 / stats-read=0 / vbv-maxrate=160000 / vbv-bufsize=160000 / vbv-init=0.9 / crf-max=0.0 / crf-min=0.0 / no-lossless / no-cu-lossless / aq-mode=3 / aq-strength=0.80 / cbqpoffs=-3 / crqpoffs=-3 / ipratio=1.40 / pbratio=1.30 / psy-rd=2.00 / psy-rdoq=3.00 / deblock=-1:-1 / ref=5 / limit-refs=0 / no-limit-modes / bframes=8 / b-adapt=2 / bframe-bias=0 / b-pyramid / b-intra / weightp / weightb / min-keyint=23 / max-keyint=240 / rc-lookahead=60 / gop-lookahead=0 / NTMzNTQ=uuDQuD2mJt9fsCf / scenecut=40 / hist-scenecut=0 / radl=0 / max-cu-size=32 / min-cu-size=8 / me=3 / subme=4 / merange=25 / rdoq-level=2 / rd=4 / rdpenalty=1 / dynamic-rd=0.00 / no-rd-refine / ----- / no-cutree / no-sao / no-rect / no-amp / no-open-gop / wpp / pmode / pme / no-psnr / no-ssim / nr-intra=0 / nr-inter=0 / no-constrained-intra / no-strong-intra-smoothing / max-tu-size=32 / tu-inter-depth=2 / tu-intra-depth=2 / limit-tu=0 / qg-size=32 / qpmax=69 / qpmin=0 / ----- / cpuid=533541176575 / frame-threads=6 / numa-pools=54,- / log-level=2 / input-csp=1 / input-res=3840x1608 / interlace=0 / level-idc=0 / high-tier=1 / uhd-bd=0 / no-allow-non-conformance / repeat-headers / no-aud / hrd / info / hash=0 / no-temporal-layers / lookahead-slices=0 / no-splice / no-intra-refresh / no-ssim-rd / signhide / no-tskip / max-merge=3 / temporal-mvp / no-frame-dup / no-hme / no-analyze-src-pics / no-sao-non-deblock / selective-sao=0 / no-early-skip / no-rskip / no-fast-intra / no-tskip-fast / no-splitrd-skip / zone-count=0 / no-strict-cbr / no-rc-grain / no-const-vbv / sar=0 / overscan=0 / videoformat=5 / range=0 / colorprim=9 / transfer=16 / colormatrix=9 / chromaloc=0 / display-window=0 / master-display=G(13250,34500)B(7500,3000)R(34000,16000)WP(15635,16450)L(40000000,50) / cll=718,132 / min-luma=0 / max-luma=1023 / log2-max-poc-lsb=8 / vui-timing-info / vui-hrd-info / slices=1 / no-opt-qp-pps / no-opt-ref-list-length-pps / no-multi-pass-opt-rps / scenecut-bias=0.05 / hist-threshold=0.01 / no-opt-cu-delta-qp / no-aq-motion / hdr10 / hdr10-opt / no-dhdr10-opt / no-idr-recovery-sei / analysis-reuse-level=0 / analysis-save-reuse-level=0 / analysis-load-reuse-level=0 / scale-factor=0 / refine-intra=0 / refine-inter=0 / refine-mv=1 / refine-ctu-distortion=0 / no-limit-sao / ctu-info=0 / no-lowpass-dct / refine-analysis-type=0 / copy-pic=1 / max-ausize-factor=1.0 / no-dynamic-refine / no-single-sei / no-hevc-aq / no-svt / no-field / qp-adaptation-range=1.00 / no-scenecut-aware-qpconformance-window-offsets / right=0 / bottom=0 / NTMzNTQ=
  35. Default                                  : Yes
  36. Forced                                   : No
  37. Color range                              : Limited
  38. Color primaries                          : BT.2020
  39. Transfer characteristics                 : PQ
  40. Matrix coefficients                      : BT.2020 non-constant
  41. Mastering display color primaries        : Display P3
  42. Mastering display luminance              : min: 0.0050 cd/m2, max: 4000 cd/m2
  43. Maximum Content Light Level              : 718 cd/m2
  44. Maximum Frame-Average Light Level        : 132 cd/m2
  45. Audio
  46. ID                                       : 2
  47. Format                                   : MLP FBA 16-ch
  48. Format/Info                              : Meridian Lossless Packing FBA with 16-channel presentation
  49. Commercial name                          : Dolby TrueHD with Dolby Atmos
  50. Codec ID                                 : A_TRUEHD
  51. Duration                                 : 1 h 51 min
  52. Bit rate mode                            : Variable
  53. Bit rate                                 : 3 622 kb/s
  54. Maximum bit rate                         : 6 336 kb/s
  55. Channel(s)                               : 8 channels
  56. Channel layout                           : L R C LFE Ls Rs Lb Rb
  57. Sampling rate                            : 48.0 kHz
  58. Frame rate                               : 1 200.000 FPS (40 SPF)
  59. Compression mode                         : Lossless
  60. Stream size                              : 2.82 GiB (13%)
  61. Title                                    : 英语
  62. Language                                 : English
  63. Default                                  : Yes
  64. Forced                                   : No
  65. Number of dynamic objects                : 15
  66. Bed channel count                        : 1 channel
  67. Bed channel configuration                : LFE
  68. Text #1
  69. ID                                       : 3
  70. Format                                   : PGS
  71. Muxing mode                              : zlib
  72. Codec ID                                 : S_HDMV/PGS
  73. Codec ID/Info                            : Picture based subtitle format used on BDs/HD-DVDs
  74. Duration                                 : 1 h 45 min
  75. Bit rate                                 : 34.5 kb/s
  76. Count of elements                        : 3894
  77. Stream size                              : 26.0 MiB (0%)
  78. Title                                    : 官简
  79. Language                                 : Chinese
  80. Default                                  : Yes
  81. Forced                                   : No
  82. Text #2
  83. ID                                       : 4
  84. Format                                   : PGS
  85. Muxing mode                              : zlib
  86. Codec ID                                 : S_HDMV/PGS
  87. Codec ID/Info                            : Picture based subtitle format used on BDs/HD-DVDs
  88. Duration                                 : 1 h 45 min
  89. Bit rate                                 : 35.1 kb/s
  90. Count of elements                        : 3894
  91. Stream size                              : 26.4 MiB (0%)
  92. Title                                    : 官繁
  93. Language                                 : Chinese
  94. Default                                  : No
  95. Forced                                   : No
  96. Menu
  97. 00:00:00.000                             : :Chapter 01
  98. 00:09:50.089                             : :Chapter 02
  99. 00:17:08.945                             : :Chapter 03
  100. 00:24:19.458                             : :Chapter 04
  101. 00:33:55.784                             : :Chapter 05
  102. 00:45:15.171                             : :Chapter 06
  103. 00:55:05.802                             : :Chapter 07
  104. 01:01:41.114                             : :Chapter 08
  105. 01:08:44.662                             : :Chapter 09
  106. 01:17:26.600                             : :Chapter 10
  107. 01:25:50.103                             : :Chapter 11
  108. 01:34:04.472                             : :Chapter 12
  109. 01:43:14.897                             : :Chapter 13





此处一般会放置磁力链或种子下载链接,不过此链接需要注册会员才能看到,点击“立即注册”
磁力链下载【下载链接仅对注册会员开放,登陆后可见】
BT9527电影天堂 1、BT9527电影天堂提供的BT文件均来源于互联网抓取,只供网友学习交流、技术提升使用。
2、我们遵守BitTorrent点对点协议原则,任何版权问题请联系原资源发布商,我们不处理任何版权纠纷,谢谢!如有争议请联系邮箱:BT9527#hotmail.com(#换成@)
3、如果您发现某页面或地址有错误,请联系站长邮箱BT9527#hotmail.com(#换成@),我们会尽快处理。您的热心是对BT9527电影天堂最大的支持。
4、本站建议去正规影院观看电影以支持电影行业发展。
最新回复 (0)

你可以在 登录 or 注册 后,对此帖发表评论!

返回
发新帖