X[简英字幕].X.2022.BluRay.1080p.x265.10bit.DDP5.1-MiniHD 6.84GB

版主小s 3月前 386

✔资源类型:暂未分类   ✔电影年份:2022   ✔电影地区:欧美   ✔电影分类:恐怖

◎译  名 X
◎年  代 2022
◎产  地 美国 / 加拿大
◎类  别 恐怖
◎语  言 英语
◎上映日期 2022-03-13(西南偏南电影节) / 2022-03-18(美国)
◎IMDb链接 https://www.imdb.com/title/tt13560574/
◎豆瓣评分 5.8/10 (19644人评价)
◎豆瓣链接 https://movie.douban.com/subject/35240920/
◎片  长 105分钟
◎导  演 缇·威斯特 Ti West (id:1027452)
◎编  剧 缇·威斯特 Ti West (id:1027452)
◎演  员 米娅·高斯 Mia Goth (id:1333367)
       珍娜·奥尔特加 Jenna Ortega (id:1437862)
       布兰特妮·斯诺 Brittany Snow (id:1031845)
       卡迪小子 Kid Cudi (id:1273118)
       马丁·亨德森 Martin Henderson (id:1027267)
       欧文·坎贝尔 Owen Campbell (id:1313218)
       史蒂芬·乌瑞 Stephen Ure (id:1155436)
       詹姆斯·盖林 James Gaylyn (id:1411070)
       西蒙·普拉斯特 Simon Prast (id:1469211)
       吉奥夫·多兰 Geoff Dolan (id:1083161)
       马修·塞维尔 Matthew Saville (id:1431282)
       布莱恩妮·斯基林顿 Bryony Skillington (id:1469212)
       泰勒·贝茨 Tyler Bates (id:1278075)
       切尔西·沃尔夫 Chelsea Wolfe (id:1470697)
       艾略特·罗基特 Eliot Rockett (id:1470696)
       缇·威斯特 Ti West (id:1027452)

◎简  介
  麦克西恩(米娅·高斯 Mia Goth 饰)是一个做梦都想要出名的女孩,可现实是,她沉浸于毒品带来的幻觉和快感之中,并且即将出演一部由她的男友(马丁·亨德森 Martin Henderson 饰)指导的色情片。为了拍摄,麦克西恩和男友、摄影RJ(欧文·坎贝尔 Owen Campbell 饰)、场务洛林(珍娜·奥尔特加 Jenna Ortega 饰),以及另外的一对主演杰克森(卡迪小子 Kid Cudi 饰)、波比(布兰特妮·斯诺 Brittany Snow 饰)驱车来到了一幢地处偏远的宅子处。                                    
                                宅子的所有者是名叫霍华德(史蒂芬·乌瑞 Stephen Ure 饰)的老人,他对于这帮年轻人的到来似乎并不欢迎。尽管如此,影片还是按照计划开拍了,在此过程中,年轻的肉体和浓烈的荷尔蒙似乎唤醒了深藏在霍华德妻子体内的某种欲望。
  1. ##### MediaInfo ######
  2. General
  3. Unique ID                                : 293028115672601178933890891884875195854 (0xDC7329895AE9B13AE39B622B8EF7A5CE)
  4. Complete name                            : X.2022.BluRay.1080p.x265.10bit.DDP5.1-MiniHD.mkv
  5. Format                                   : Matroska
  6. Format version                           : Version 4
  7. File size                                : 6.84 GiB
  8. Duration                                 : 1 h 46 min
  9. Overall bit rate                         : 9 209 kb/s
  10. Encoded date                             : UTC 2022-06-10 16:49:44
  11. Writing application                      : mkvmerge v68.0.0 ('The Curtain') 64-bit
  12. Writing library                          : libebml v1.4.2 + libmatroska v1.6.4
  13. Video
  14. ID                                       : 1
  15. Format                                   : HEVC
  16. Format/Info                              : High Efficiency Video Coding
  17. Format profile                           : Main 10@L5@High
  18. Codec ID                                 : V_MPEGH/ISO/HEVC
  19. Duration                                 : 1 h 46 min
  20. Bit rate                                 : 8 157 kb/s
  21. Width                                    : 1 920 pixels
  22. Height                                   : 1 012 pixels
  23. Display aspect ratio                     : 1.897
  24. Frame rate mode                          : Constant
  25. Frame rate                               : 23.976 (24000/1001/53354) FPS
  26. Color space                              : YUV
  27. Chroma subsampling                       : 4:2:0
  28. Bit depth                                : 10 bits
  29. Bits/(Pixel*Frame)                       : 0.175
  30. Stream size                              : 6.06 GiB (89%)
  31. Writing library                          : x265 3.5+20-17839cc0d:[Windows][GCC 11.2.0][64 bit] 10bit
  32. Encoding settings                        : cpuid=533541111039 / frame-threads=5 / numa-pools=24,24 / wpp / no-pmode / no-pme / no-psnr / no-ssim / log-level=2 / input-csp=1 / input-res=1920x1012 / interlace=0 / total-frames=152977 / level-idc=0 / high-tier=1 / uhd-bd=0 / ref=5 / no-allow-non-conformance / no-repeat-headers / annexb / no-aud / no-eob / no-eos / no-hrd / info / hash=0 / no-temporal-layers / no-open-gop / min-keyint=23 / keyint=250 / gop-lookahead=0 / bframes=9 / b-adapt=2 / b-pyramid / bframe-bias=0 / rc-lookahead=60 / lookahead-slices=0 / NTMzNTQ=uuDQuD2mJt9fsCf / scenecut=40 / no-hist-scenecut / radl=0 / no-splice / no-intra-refresh / ctu=32 / min-cu-size=8 / no-rect / no-amp / max-tu-size=32 / tu-inter-depth=4 / tu-intra-depth=4 / limit-tu=0 / rdoq-level=2 / dynamic-rd=0.00 / no-ssim-rd / signhide / no-tskip / nr-intra=0 / nr-inter=0 / no-constrained-intra / no-strong-intra-smoothing / max-merge=5 / limit-refs=0 / no-limit-modes / me=3 / subme=5 / merange=57 / temporal-mvp / no-frame-dup / no-hme / weightp / weightb / no-analyze-src-pics / deblock=-1:-1 / no-sao / no-sao-non-deblock / rd=4 / selective-sao=0 / no-early-skip / no-rskip / no-fast-intra / no-tskip-fast / no-cu-lossless / b-intra / no-splitrd-skip / rdpenalty=0 / psy-rd=2.00 / psy-rdoq=5.00 / no-rd-refine / no-lossless / cbqpoffs=0 / crqpoffs=0 / rc=crf / crf=21.5 / qcomp=0.70 / qpstep=4 / stats-write=0 / stats-read=0 / vbv-maxrate=100000 / vbv-bufsize=100000 / vbv-init=0.9 / min-vbv-fullness=50.0 / max-vbv-fullness=80.0 / crf-max=0.0 / crf-min=0.0 / ipratio=1.40 / pbratio=1.30 / aq-mode=1 / aq-strength=0.90 / no-cutree / zone-count=0 / no-strict-cbr / qg-size=32 / no-rc-grain / qpmax=69 / qpmin=0 / no-const-vbv / sar=0 / overscan=0 / videoformat=5 / range=0 / colorprim=1 / transfer=1 / colormatrix=1 / chromaloc=0 / display-window=0 / cll=0,0 / min-luma=0 / max-luma=1023 / log2-max-poc-lsb=8 / vui-timing-info / vui-hrd-info / slices=1 / no-opt-qp-pps / no-opt-ref-list-length-pps / no-multi-pass-opt-rps / scenecut-bias=0.05 / hist-threshold=0.03 / no-opt-cu-delta-qp / no-aq-motion / no-hdr10 / no-hdr10-opt / no-dhdr10-opt / no-idr-recovery-sei / analysis-reuse-level=0 / analysis-save-reuse-level=0 / analysis-load-reuse-level=0 / scale-factor=0 / refine-intra=0 / refine-inter=0 / refine-mv=1 / refine-ctu-distortion=0 / no-limit-sao / ctu-info=0 / no-lowpass-dct / refine-analysis-type=0 / copy-pic=1 / max-ausize-factor=1.0 / no-dynamic-refine / no-single-sei / no-hevc-aq / no-svt / no-field / qp-adaptation-range=1.00 / scenecut-aware-qp=0conformance-window-offsets / right=0 / bottom=0 / NTMzNTQ= / decoder-max-rate=0 / no-vbv-live-multi-pass
  33. Default                                  : Yes
  34. Forced                                   : No
  35. Color range                              : Limited
  36. Color primaries                          : BT.709
  37. Transfer characteristics                 : BT.709
  38. Matrix coefficients                      : BT.709
  39. Audio
  40. ID                                       : 2
  41. Format                                   : E-AC-3
  42. Format/Info                              : Enhanced AC-3
  43. Commercial name                          : Dolby Digital Plus
  44. Codec ID                                 : A_EAC3
  45. Duration                                 : 1 h 46 min
  46. Bit rate mode                            : Constant
  47. Bit rate                                 : 1 024 kb/s
  48. Channel(s)                               : 6 channels
  49. Channel layout                           : L R C LFE Ls Rs
  50. Sampling rate                            : 48.0 kHz
  51. Frame rate                               : 31.250 FPS (1536 SPF)
  52. Compression mode                         : Lossy
  53. Stream size                              : 779 MiB (11%)
  54. Language                                 : English
  55. Service kind                             : Complete Main
  56. Default                                  : Yes
  57. Forced                                   : No
  58. Text #1
  59. ID                                       : 3
  60. ID in the original source medium         : 4610 (0x1202)
  61. Format                                   : PGS
  62. Muxing mode                              : zlib
  63. Codec ID                                 : S_HDMV/PGS
  64. Codec ID/Info                            : Picture based subtitle format used on BDs/HD-DVDs
  65. Duration                                 : 1 h 38 min
  66. Bit rate                                 : 23.5 kb/s
  67. Count of elements                        : 1286
  68. Stream size                              : 16.6 MiB (0%)
  69. Title                                    : chs
  70. Language                                 : Chinese
  71. Default                                  : Yes
  72. Forced                                   : No
  73. Original source medium                   : Blu-ray
  74. Text #2
  75. ID                                       : 4
  76. ID in the original source medium         : 4608 (0x1200)
  77. Format                                   : PGS
  78. Muxing mode                              : zlib
  79. Codec ID                                 : S_HDMV/PGS
  80. Codec ID/Info                            : Picture based subtitle format used on BDs/HD-DVDs
  81. Duration                                 : 1 h 43 min
  82. Bit rate                                 : 25.2 kb/s
  83. Count of elements                        : 2026
  84. Stream size                              : 18.7 MiB (0%)
  85. Language                                 : English
  86. Default                                  : No
  87. Forced                                   : No
  88. Original source medium                   : Blu-ray
  89. Menu
  90. 00:00:00.000                             : Chapter01
  91. 00:04:41.447                             : Chapter02
  92. 00:12:51.645                             : Chapter03
  93. 00:22:53.330                             : Chapter04
  94. 00:28:03.139                             : Chapter05
  95. 00:34:36.324                             : Chapter06
  96. 00:41:08.299                             : Chapter07
  97. 00:44:42.012                             : Chapter08
  98. 00:52:38.989                             : Chapter09
  99. 00:56:59.541                             : Chapter10
  100. 01:02:38.296                             : Chapter11
  101. 01:08:46.413                             : Chapter12
  102. 01:15:00.537                             : Chapter13
  103. 01:22:18.892                             : Chapter14
  104. 01:32:12.860                             : Chapter15
  105. 01:38:23.022                             : Chapter16





此处一般会放置磁力链或种子下载链接,不过此链接需要注册会员才能看到,点击“立即注册”
磁力链下载【下载链接仅对注册会员开放,登陆后可见】
BT9527电影天堂 1、BT9527电影天堂提供的BT文件均来源于互联网抓取,只供网友学习交流、技术提升使用。
2、我们遵守BitTorrent点对点协议原则,任何版权问题请联系原资源发布商,我们不处理任何版权纠纷,谢谢!如有争议请联系邮箱:BT9527#hotmail.com(#换成@)
3、如果您发现某页面或地址有错误,请联系站长邮箱BT9527#hotmail.com(#换成@),我们会尽快处理。您的热心是对BT9527电影天堂最大的支持。
4、本站建议去正规影院观看电影以支持电影行业发展。
最新回复 (1)

你可以在 登录 or 注册 后,对此帖发表评论!

返回
发新帖