恋爱诊疗中[简体字幕].Heart.Attack.2015.BluRay.1080p.x265.10bit.DDP5.1-MiniHD 7.31GB

版主小s 3月前 220

✔资源类型:暂未分类   ✔电影年份:2015   ✔电影地区:泰国   ✔电影分类:剧情

◎译  名 恋爱诊疗中 / 恋爱病发(港) / 自由人……勿病勿息,勿爱医生 / Heart Attack / Freelance / Freelance: Ham puay... Ham phak... Ham rak mor
◎片  名 ????????..???????? ??????? ??????????
◎年  代 2015
◎产  地 泰国
◎类  别 剧情 / 喜剧 / 爱情
◎语  言 泰语
◎上映日期 2015-09-03(泰国)
◎IMDb链接 https://www.imdb.com/title/tt4964598/
◎豆瓣评分 7.6/10 (9443人评价)
◎豆瓣链接 https://movie.douban.com/subject/26381195/
◎片  长 130分钟
◎导  演 纳瓦彭·坦荣瓜塔纳利 Nawapol Thamrongrattanarit (id:1320145)
◎编  剧 纳瓦彭·坦荣瓜塔纳利 Nawapol Thamrongrattanarit (id:1320145)
◎演  员 桑尼·苏瓦美塔农 Sunny Suwanmethanont (id:1309896)
       黛薇卡·霍内 Davika Hoorne (id:1316776)
       班庄·比辛达拿刚 Banjong Pisanthanakun (id:1275003)
       瓦尔蕾特·瓦帖儿 Violette Wautier (id:1345611)
       埃迪森·特斯利卡森 Adisorn Trisirikasem (id:1307707)
       诺塔彭·邦帕卡布 Nottapon Boonprakob (id:1337586)
       Torpong Chantabubpha Torpong Chantabubpha (id:1439689)
       维苏特·普沃莱拉克斯 Visute Poolvoralaks (id:1294719)

◎简  介
  30岁的阿翁(桑尼·苏瓦美塔农 Sunny Suwanmethanont 饰)是一名修图师,非常敬业的他几乎将所有的精力都投入到了工作之中,因为过度疲劳导致抵抗力下降,阿翁患上了皮肤病。无奈之下,阿翁只得来到皮肤科就诊,在这里,阿翁邂逅了名为阿燕(黛薇卡·霍内 Davi ka Hoorne 饰)的女医生。                                    
                                温柔美丽的阿燕很快就吸引了阿翁的注意,令这个单纯的男孩迅速坠入情网之中。在阿燕的要求下,阿翁积极治疗,推掉了大部分工作,学习如何自我放松。虽然阿翁的健康渐渐的恢复了,但他也因此失去了再见到阿燕的机会。更糟的是,阿翁在工作上的懈怠令他失业了。为了发泄内心里的失落,阿翁决定重新做回工作狂。

◎获奖情况 (共15项)
  第25届泰国电影金天鹅奖 (2016)
  最佳影片
  最佳导演
   └──纳瓦彭·坦荣瓜塔纳利 (id:1320145)
  最佳男主角
   └──桑尼·苏瓦美塔农 (id:1309896)
  最佳女主角
   └──黛薇卡·霍内 (id:1316776)
  最佳男配角(提名)
   └──Torpong Chantabubpha (id:1439689)
  最佳女配角
   └──瓦尔蕾特·瓦帖儿 (id:1345611)
  最佳剧本
   └──纳瓦彭·坦荣瓜塔纳利 (id:1320145)
  最佳摄影(提名)
  最佳剪辑
  最佳音效(提名)
  最佳配乐
  最佳艺术指导(提名)
  最佳服装设计(提名)
  最佳化妆(提名)

  第4届豆瓣电影年度榜单 (2017)
  评分最高的爱情片(提名)

  1. ##### MediaInfo ######
  2. General
  3. Unique ID                                : 34801434537153687268285891384508012202 (0x1A2E83326E76E15495AA16191F01D6AA)
  4. Complete name                            : Heart.Attack.2015.BluRay.1080p.x265.10bit.DDP5.1-MiniHD.mkv
  5. Format                                   : Matroska
  6. Format version                           : Version 4
  7. File size                                : 7.31 GiB
  8. Duration                                 : 2 h 12 min
  9. Overall bit rate                         : 7 925 kb/s
  10. Encoded date                             : UTC 2022-06-14 14:00:59
  11. Writing application                      : mkvmerge v68.0.0 ('The Curtain') 64-bit
  12. Writing library                          : libebml v1.4.2 + libmatroska v1.6.4
  13. Video
  14. ID                                       : 1
  15. Format                                   : HEVC
  16. Format/Info                              : High Efficiency Video Coding
  17. Format profile                           : Main 10@L5@High
  18. Codec ID                                 : V_MPEGH/ISO/HEVC
  19. Duration                                 : 2 h 12 min
  20. Bit rate                                 : 6 888 kb/s
  21. Width                                    : 1 920 pixels
  22. Height                                   : 1 080 pixels
  23. Display aspect ratio                     : 16:9
  24. Frame rate mode                          : Constant
  25. Frame rate                               : 24.000 FPS
  26. Color space                              : YUV
  27. Chroma subsampling                       : 4:2:0
  28. Bit depth                                : 10 bits
  29. Bits/(Pixel*Frame)                       : 0.138
  30. Stream size                              : 6.35 GiB (87%)
  31. Writing library                          : x265 3.5+20-17839cc0d:[Windows][GCC 11.2.0][64 bit] 10bit
  32. Encoding settings                        : cpuid=533541111039 / frame-threads=5 / numa-pools=24,24 / wpp / no-pmode / no-pme / no-psnr / no-ssim / log-level=2 / input-csp=1 / input-res=1920x1080 / interlace=0 / total-frames=190127 / level-idc=0 / high-tier=1 / uhd-bd=0 / ref=5 / no-allow-non-conformance / no-repeat-headers / annexb / no-aud / no-eob / no-eos / no-hrd / info / hash=0 / no-temporal-layers / no-open-gop / min-keyint=24 / keyint=250 / gop-lookahead=0 / bframes=9 / b-adapt=2 / b-pyramid / bframe-bias=0 / rc-lookahead=60 / lookahead-slices=0 / NTMzNTQ=uuDQuD2mJt9fsCf / scenecut=40 / no-hist-scenecut / radl=0 / no-splice / no-intra-refresh / ctu=32 / min-cu-size=8 / no-rect / no-amp / max-tu-size=32 / tu-inter-depth=4 / tu-intra-depth=4 / limit-tu=0 / rdoq-level=2 / dynamic-rd=0.00 / no-ssim-rd / signhide / no-tskip / nr-intra=0 / nr-inter=0 / no-constrained-intra / no-strong-intra-smoothing / max-merge=5 / limit-refs=0 / no-limit-modes / me=3 / subme=5 / merange=57 / temporal-mvp / no-frame-dup / no-hme / weightp / weightb / no-analyze-src-pics / deblock=-1:-1 / no-sao / no-sao-non-deblock / rd=4 / selective-sao=0 / no-early-skip / no-rskip / no-fast-intra / no-tskip-fast / no-cu-lossless / b-intra / no-splitrd-skip / rdpenalty=0 / psy-rd=2.00 / psy-rdoq=5.00 / no-rd-refine / no-lossless / cbqpoffs=0 / crqpoffs=0 / rc=crf / crf=21.5 / qcomp=0.70 / qpstep=4 / stats-write=0 / stats-read=0 / vbv-maxrate=100000 / vbv-bufsize=100000 / vbv-init=0.9 / min-vbv-fullness=50.0 / max-vbv-fullness=80.0 / crf-max=0.0 / crf-min=0.0 / ipratio=1.40 / pbratio=1.30 / aq-mode=1 / aq-strength=0.90 / no-cutree / zone-count=0 / no-strict-cbr / qg-size=32 / no-rc-grain / qpmax=69 / qpmin=0 / no-const-vbv / sar=0 / overscan=0 / videoformat=5 / range=0 / colorprim=1 / transfer=1 / colormatrix=1 / chromaloc=0 / display-window=0 / cll=0,0 / min-luma=0 / max-luma=1023 / log2-max-poc-lsb=8 / vui-timing-info / vui-hrd-info / slices=1 / no-opt-qp-pps / no-opt-ref-list-length-pps / no-multi-pass-opt-rps / scenecut-bias=0.05 / hist-threshold=0.03 / no-opt-cu-delta-qp / no-aq-motion / no-hdr10 / no-hdr10-opt / no-dhdr10-opt / no-idr-recovery-sei / analysis-reuse-level=0 / analysis-save-reuse-level=0 / analysis-load-reuse-level=0 / scale-factor=0 / refine-intra=0 / refine-inter=0 / refine-mv=1 / refine-ctu-distortion=0 / no-limit-sao / ctu-info=0 / no-lowpass-dct / refine-analysis-type=0 / copy-pic=1 / max-ausize-factor=1.0 / no-dynamic-refine / no-single-sei / no-hevc-aq / no-svt / no-field / qp-adaptation-range=1.00 / scenecut-aware-qp=0conformance-window-offsets / right=0 / bottom=0 / NTMzNTQ= / decoder-max-rate=0 / no-vbv-live-multi-pass
  33. Default                                  : Yes
  34. Forced                                   : No
  35. Color range                              : Limited
  36. Color primaries                          : BT.709
  37. Transfer characteristics                 : BT.709
  38. Matrix coefficients                      : BT.709
  39. Audio
  40. ID                                       : 2
  41. Format                                   : E-AC-3
  42. Format/Info                              : Enhanced AC-3
  43. Commercial name                          : Dolby Digital Plus
  44. Codec ID                                 : A_EAC3
  45. Duration                                 : 2 h 12 min
  46. Bit rate mode                            : Constant
  47. Bit rate                                 : 1 024 kb/s
  48. Channel(s)                               : 6 channels
  49. Channel layout                           : L R C LFE Ls Rs
  50. Sampling rate                            : 48.0 kHz
  51. Frame rate                               : 31.250 FPS (1536 SPF)
  52. Compression mode                         : Lossy
  53. Stream size                              : 967 MiB (13%)
  54. Language                                 : Thai
  55. Service kind                             : Complete Main
  56. Default                                  : Yes
  57. Forced                                   : No
  58. Text
  59. ID                                       : 3
  60. ID in the original source medium         : 4610 (0x1202)
  61. Format                                   : PGS
  62. Muxing mode                              : zlib
  63. Codec ID                                 : S_HDMV/PGS
  64. Codec ID/Info                            : Picture based subtitle format used on BDs/HD-DVDs
  65. Duration                                 : 2 h 4 min
  66. Bit rate                                 : 21.3 kb/s
  67. Count of elements                        : 3166
  68. Stream size                              : 19.0 MiB (0%)
  69. Title                                    : chs
  70. Language                                 : Chinese
  71. Default                                  : Yes
  72. Forced                                   : No
  73. Original source medium                   : Blu-ray
  74. Menu
  75. 00:00:00.000                             : en:Chapter01
  76. 00:10:04.708                             : en:Chapter02
  77. 00:20:37.083                             : en:Chapter03
  78. 00:33:24.416                             : en:Chapter04
  79. 00:44:59.541                             : en:Chapter05
  80. 00:53:12.708                             : en:Chapter06
  81. 01:04:16.041                             : en:Chapter07
  82. 01:18:50.125                             : en:Chapter08
  83. 01:27:02.333                             : en:Chapter09
  84. 01:41:39.625                             : en:Chapter10
  85. 01:53:03.458                             : en:Chapter11
  86. 02:01:02.958                             : en:Chapter12





此处一般会放置磁力链或种子下载链接,不过此链接需要注册会员才能看到,点击“立即注册”
磁力链下载【下载链接仅对注册会员开放,登陆后可见】
BT9527电影天堂 1、BT9527电影天堂提供的BT文件均来源于互联网抓取,只供网友学习交流、技术提升使用。
2、我们遵守BitTorrent点对点协议原则,任何版权问题请联系原资源发布商,我们不处理任何版权纠纷,谢谢!如有争议请联系邮箱:BT9527#hotmail.com(#换成@)
3、如果您发现某页面或地址有错误,请联系站长邮箱BT9527#hotmail.com(#换成@),我们会尽快处理。您的热心是对BT9527电影天堂最大的支持。
4、本站建议去正规影院观看电影以支持电影行业发展。
最新回复 (0)

你可以在 登录 or 注册 后,对此帖发表评论!

返回