怪兽电力公司[国英多音轨/简繁字幕].Monsters.Inc.2001.UHD.BluRay.2160p.x265.HDR.TrueHD.7.1.RERIP-MiniHD 13.41GB

版主小s 3月前 179

✔资源类型:BD-4K   ✔电影年份:更 早   ✔电影地区:欧美   ✔电影分类:喜剧

◎译  名 怪兽电力公司 / 怪兽公司(港) / 怪物公司
◎片  名 Monsters, Inc.
◎年  代 2001
◎产  地 美国
◎类  别 喜剧 / 动画 / 儿童 / 奇幻 / 冒险
◎语  言 英语
◎上映日期 2001-11-02(美国) / 2012-12-19(美国)
◎IMDb链接 https://www.imdb.com/title/tt0198781/
◎豆瓣评分 8.8/10 (605375人评价)
◎豆瓣链接 https://movie.douban.com/subject/1291579/
◎片  长 92分钟
◎导  演 彼特·道格特 Pete Docter (id:1022803)
       大卫·西尔弗曼 David Silverman (id:1032493)
       李·昂克里奇 Lee Unkrich (id:1022678)
◎编  剧 安德鲁·斯坦顿 Andrew Stanton (id:1036450)
       丹尼尔·吉尔森 Daniel Gerson (id:1284753)
       罗伯特·L·贝尔德 Robert L. Baird (id:1277721)
       瑞特·里斯 Rhett Reese (id:1327382)
       乔纳森·罗伯特  Jonathan Roberts (id:1171775)
       彼特·道格特 Pete Docter (id:1022803)
       杰夫·皮金 Jeff Pidgeon (id:1358669)
       吉尔·卡尔顿 Jill Culton (id:1358670)
       拉夫·埃格尔斯顿 Ralph Eggleston (id:1028474)
◎演  员 约翰·古德曼 John Goodman (id:1017898)
       比利·克里斯托 Billy Crystal (id:1031893)
       玛丽·吉布斯 Mary Gibbs (id:1093841)
       史蒂夫·布西密 Steve Buscemi (id:1054409)
       詹姆斯·柯本 James Coburn (id:1049562)
       詹妮弗·提莉 Jennifer Tilly (id:1049519)
       鲍勃·彼德森 Bob Peterson (id:1294383)
       约翰·拉岑贝格 John Ratzenberger (id:1002680)
       弗兰克·奥兹 Frank Oz (id:1019054)
       丹尼尔·吉尔森 Daniel Gerson (id:1284753)
       邦尼·亨特 Bonnie Hunt (id:1049523)
       杰克·安杰尔 Jack Angel (id:1040769)
       塞缪尔·洛德·布莱克 Samuel Lord Black (id:1065559)
       史蒂夫·萨斯坎德 Steve Susskind (id:1153427)
       李·昂克里奇 Lee Unkrich (id:1022678)
       李立宏 Lihong Li (id:1320458)
       王伟忠 Wei-zhong Wang (id:1315938)
       华莱士·肖恩 Wallace Shawn (id:1040504)
       黄子佼 Mickey Huang (id:1317127)
       胡立成 Licheng Hu (id:1331134)
       雪莉·琳恩 Sherry Lynn (id:1348618)
       比尔·法玛尔 Bill Farmer (id:1283454)
       达拉·K·安德森 Darla K. Anderson (id:1277201)
       Karen Dufilho Karen Dufilho (id:1282785)
       兰迪·纽曼 Randy Newman (id:1036596)
       Jim Stewart Jim Stewart (id:1298439)
       露丝·兰伯特 Ruth Lambert (id:1289321)
       Matthew Jon Beck Matthew Jon Beck (id:1302105)
       哈雷·杰斯普 Harley Jessup (id:1287721)
       安德鲁·吉梅内斯 Andrew Jimenez (id:1305449)
       埃本·奥斯特比 Eben Ostby (id:1293696)
       Nigel Hardwidge Nigel Hardwidge (id:1286029)
       Bill Wise Bill Wise (id:1301108)
       Michael Fu Michael Fu (id:1284282)
       Michael Krummhoefener Michael Krummhoefener (id:1289059)
       Konishi Sonoko Konishi Sonoko (id:1298062)
       Paul Aichele Paul Aichele (id:1276882)
       Steve May Steve May (id:1291355)
       Michael Fong Michael Fong (id:1283935)
       Christine Waggoner Christine Waggoner (id:1300240)
       Carmen Ngai Carmen Ngai (id:1305326)
       Martin Nguyen Martin Nguyen (id:1310200)
       Bill Sheffler Bill Sheffler (id:1310169)

◎简  介
  我们不知道,在那样的世界里住着那样一群怪物。他们长相滑稽,却必须装作狰狞。因为,在夜深的时候,他们要悄悄的出现在孩子的衣橱里,吓唬刚刚甜美睡去的宝宝。一切,只因为他们是怪物电力公司的员工,而孩子的尖叫,则是怪物王国发电的全部能量。怪物们害怕孩子,却又必须让孩子尖叫。在怪物的国度里,他们都是为全民造福的英雄。                                       
                                    毛怪苏利文(约翰?古德曼)是怪物公司最出色的员工,业绩总是摇摇领先,他吓哭的小孩儿不计其数。他与搭档大眼怪麦克(比利?克里斯托)很受大家的爱戴。一次偶然,毛怪不小心把一个两岁的小女孩阿布(玛丽?吉布斯)带回了怪物世界,引起了极大的恐慌,调皮可爱的阿布把这些可怕的怪物吓的人仰马翻。警方在追捕阿布,而坏蛋亨利(詹姆斯?柯博)也计划利用阿布进行他改革工厂的邪恶计划。                                       
                                    另一方面,在与阿布相处的过程中,毛怪渐渐对她产生莫名的情愫,甚至因此被放逐野外。可是一...

◎获奖情况 (共12项)
  第74届奥斯卡金像奖 (2002)
  最佳动画长片(提名)
  最佳音效剪辑
  最佳原创配乐(提名)
   └──兰迪·纽曼 (id:1036596)
  最佳原创歌曲
   └──兰迪·纽曼 (id:1036596)

  第30届动画安妮奖 (2003)
  最佳动画长片(提名)
  最佳导演(提名)
  最佳编剧(提名)
  最佳配乐(提名)
   └──兰迪·纽曼 (id:1036596)
  最佳艺术指导(提名)
   └──哈雷·杰斯普 (id:1287721)
  最佳动画角色(提名)
   └──瑞奇·尼尔瓦 (id:1293176)
  最佳角色设计(提名)
   └──瑞奇·尼尔瓦 (id:1293176)

  第27届报知映画赏 (2002)
  海外作品奖
   └──彼特·道格特 (id:1022803)

  1. ##### MediaInfo ######
  2. General
  3. Unique ID                                : 252413138330311588790275626875557832679 (0xBDE5008CAFD33FC936EB206AE544E7E7)
  4. Complete name                            : Monsters.Inc.2001.UHD.BluRay.2160p.x265.HDR.TrueHD.7.1.RERIP-MiniHD.mkv
  5. Format                                   : Matroska
  6. Format version                           : Version 4
  7. File size                                : 13.4 GiB
  8. Duration                                 : 1 h 32 min
  9. Overall bit rate mode                    : Variable
  10. Overall bit rate                         : 20.7 Mb/s
  11. Movie name                               : Monsters.Inc.2001.UHD.BluRay.2160p.x265.HDR.TrueHD.7.1.RERIP.mUHD-FRDS
  12. Encoded date                             : UTC 2022-06-05 14:58:00
  13. Writing application                      : mkvmerge v66.0.0 ('Josie') 64-bit
  14. Writing library                          : libebml v1.4.2 + libmatroska v1.6.4
  15. Video
  16. ID                                       : 1
  17. Format                                   : HEVC
  18. Format/Info                              : High Efficiency Video Coding
  19. Format profile                           : Main 10@L5.1@High
  20. HDR format                               : SMPTE ST 2086, HDR10 compatible
  21. Codec ID                                 : V_MPEGH/ISO/HEVC
  22. Duration                                 : 1 h 32 min
  23. Bit rate                                 : 13.2 Mb/s
  24. Width                                    : 3 840 pixels
  25. Height                                   : 2 076 pixels
  26. Display aspect ratio                     : 1.85:1
  27. Frame rate mode                          : Constant
  28. Frame rate                               : 23.976 (24000/1001/53354) FPS
  29. Color space                              : YUV
  30. Chroma subsampling                       : 4:2:0 (Type 2)
  31. Bit depth                                : 10 bits
  32. Bits/(Pixel*Frame)                       : 0.069
  33. Stream size                              : 8.52 GiB (64%)
  34. Writing library                          : x265 3.5+29-3415705dd:[Windows][MSVC 1930][64 bit] 10bit
  35. Encoding settings                        : cpuid=533541111039 / frame-threads=6 / numa-pools=32 / wpp / pmode / no-pme / no-psnr / no-ssim / log-level=2 / input-csp=1 / input-res=3840x2076 / interlace=0 / total-frames=133345 / level-idc=51 / high-tier=1 / uhd-bd=0 / ref=5 / no-allow-non-conformance / repeat-headers / annexb / aud / no-eob / no-eos / hrd / info / hash=0 / no-temporal-layers / no-open-gop / min-keyint=1 / keyint=250 / gop-lookahead=0 / bframes=8 / b-adapt=2 / b-pyramid / bframe-bias=0 / rc-lookahead=100 / lookahead-slices=0 / NTMzNTQ=uuDQuD2mJt9fsCf / scenecut=40 / no-hist-scenecut / radl=0 / no-splice / no-intra-refresh / ctu=64 / min-cu-size=8 / no-rect / no-amp / max-tu-size=32 / tu-inter-depth=4 / tu-intra-depth=4 / limit-tu=0 / rdoq-level=2 / dynamic-rd=0.00 / no-ssim-rd / signhide / no-tskip / nr-intra=0 / nr-inter=0 / no-constrained-intra / no-strong-intra-smoothing / max-merge=5 / limit-refs=0 / no-limit-modes / me=3 / subme=7 / merange=57 / temporal-mvp / no-frame-dup / no-hme / weightp / weightb / no-analyze-src-pics / deblock=-3:-3 / no-sao / no-sao-non-deblock / rd=4 / selective-sao=0 / no-early-skip / no-rskip / no-fast-intra / no-tskip-fast / no-cu-lossless / b-intra / no-splitrd-skip / rdpenalty=0 / psy-rd=1.25 / psy-rdoq=1.00 / no-rd-refine / no-lossless / cbqpoffs=0 / crqpoffs=0 / rc=crf / crf=19.0 / qcomp=0.60 / qpstep=4 / stats-write=0 / stats-read=0 / vbv-maxrate=160000 / vbv-bufsize=160000 / vbv-init=0.9 / min-vbv-fullness=50.0 / max-vbv-fullness=80.0 / crf-max=0.0 / crf-min=0.0 / ipratio=1.30 / pbratio=1.20 / aq-mode=1 / aq-strength=1.00 / no-cutree / zone-count=0 / no-strict-cbr / qg-size=8 / no-rc-grain / qpmax=69 / qpmin=0 / no-const-vbv / sar=0 / overscan=0 / videoformat=5 / range=0 / colorprim=9 / transfer=16 / colormatrix=9 / chromaloc=1 / chromaloc-top=2 / chromaloc-bottom=2 / display-window=0 / master-display=G(13250,34500)B(7500,3000)R(34000,16000)WP(15635,16450)L(10000000,0) / cll=0,0 / min-luma=0 / max-luma=1023 / log2-max-poc-lsb=8 / vui-timing-info / vui-hrd-info / slices=1 / no-opt-qp-pps / no-opt-ref-list-length-pps / no-multi-pass-opt-rps / scenecut-bias=0.05 / hist-threshold=0.03 / no-opt-cu-delta-qp / no-aq-motion / hdr10 / hdr10-opt / no-dhdr10-opt / no-idr-recovery-sei / analysis-reuse-level=0 / analysis-save-reuse-level=0 / analysis-load-reuse-level=0 / scale-factor=0 / refine-intra=0 / refine-inter=0 / refine-mv=1 / refine-ctu-distortion=0 / no-limit-sao / ctu-info=0 / no-lowpass-dct / refine-analysis-type=0 / copy-pic=1 / max-ausize-factor=1.0 / no-dynamic-refine / no-single-sei / no-hevc-aq / no-svt / no-field / qp-adaptation-range=1.00 / scenecut-aware-qp=0conformance-window-offsets / right=0 / bottom=0 / NTMzNTQ= / decoder-max-rate=0 / no-vbv-live-multi-pass
  36. Default                                  : Yes
  37. Forced                                   : No
  38. Color range                              : Limited
  39. Color primaries                          : BT.2020
  40. Transfer characteristics                 : PQ
  41. Matrix coefficients                      : BT.2020 non-constant
  42. Mastering display color primaries        : Display P3
  43. Mastering display luminance              : min: 0.0000 cd/m2, max: 1000 cd/m2
  44. Audio #1
  45. ID                                       : 2
  46. Format                                   : MLP FBA 16-ch
  47. Format/Info                              : Meridian Lossless Packing FBA with 16-channel presentation
  48. Commercial name                          : Dolby TrueHD with Dolby Atmos
  49. Codec ID                                 : A_TRUEHD
  50. Duration                                 : 1 h 32 min
  51. Bit rate mode                            : Variable
  52. Bit rate                                 : 6 905 kb/s
  53. Maximum bit rate                         : 8 211 kb/s
  54. Channel(s)                               : 8 channels
  55. Channel layout                           : L R C LFE Ls Rs Lb Rb
  56. Sampling rate                            : 48.0 kHz
  57. Frame rate                               : 1 200.000 FPS (40 SPF)
  58. Compression mode                         : Lossless
  59. Stream size                              : 4.45 GiB (33%)
  60. Title                                    : English
  61. Language                                 : English
  62. Default                                  : Yes
  63. Forced                                   : No
  64. Number of dynamic objects                : 13
  65. Bed channel count                        : 1 channel
  66. Bed channel configuration                : LFE
  67. Audio #2
  68. ID                                       : 3
  69. Format                                   : AC-3
  70. Format/Info                              : Audio Coding 3
  71. Commercial name                          : Dolby Digital
  72. Codec ID                                 : A_AC3
  73. Duration                                 : 1 h 32 min
  74. Bit rate mode                            : Constant
  75. Bit rate                                 : 320 kb/s
  76. Channel(s)                               : 2 channels
  77. Channel layout                           : L R
  78. Sampling rate                            : 48.0 kHz
  79. Frame rate                               : 31.250 FPS (1536 SPF)
  80. Compression mode                         : Lossy
  81. Stream size                              : 211 MiB (2%)
  82. Title                                    : English Descriptive track
  83. Language                                 : English
  84. Service kind                             : Complete Main
  85. Default                                  : No
  86. Forced                                   : No
  87. Audio #3
  88. ID                                       : 4
  89. Format                                   : AC-3
  90. Format/Info                              : Audio Coding 3
  91. Commercial name                          : Dolby Digital
  92. Codec ID                                 : A_AC3
  93. Duration                                 : 1 h 32 min
  94. Bit rate mode                            : Constant
  95. Bit rate                                 : 256 kb/s
  96. Channel(s)                               : 2 channels
  97. Channel layout                           : L R
  98. Sampling rate                            : 48.0 kHz
  99. Frame rate                               : 31.250 FPS (1536 SPF)
  100. Compression mode                         : Lossy
  101. Stream size                              : 169 MiB (1%)
  102. Title                                    : 国配
  103. Language                                 : Chinese
  104. Service kind                             : Complete Main
  105. Default                                  : No
  106. Forced                                   : No
  107. Text #1
  108. ID                                       : 5
  109. Format                                   : PGS
  110. Muxing mode                              : zlib
  111. Codec ID                                 : S_HDMV/PGS
  112. Codec ID/Info                            : Picture based subtitle format used on BDs/HD-DVDs
  113. Duration                                 : 1 h 23 min
  114. Bit rate                                 : 40.0 kb/s
  115. Count of elements                        : 1637
  116. Stream size                              : 23.9 MiB (0%)
  117. Title                                    : CHS&ENG
  118. Language                                 : Chinese
  119. Default                                  : Yes
  120. Forced                                   : No
  121. Text #2
  122. ID                                       : 6
  123. Format                                   : PGS
  124. Muxing mode                              : zlib
  125. Codec ID                                 : S_HDMV/PGS
  126. Codec ID/Info                            : Picture based subtitle format used on BDs/HD-DVDs
  127. Duration                                 : 1 h 23 min
  128. Bit rate                                 : 26.6 kb/s
  129. Count of elements                        : 2344
  130. Stream size                              : 15.9 MiB (0%)
  131. Title                                    : CHS
  132. Language                                 : Chinese
  133. Default                                  : No
  134. Forced                                   : No
  135. Text #3
  136. ID                                       : 7
  137. Format                                   : PGS
  138. Muxing mode                              : zlib
  139. Codec ID                                 : S_HDMV/PGS
  140. Codec ID/Info                            : Picture based subtitle format used on BDs/HD-DVDs
  141. Duration                                 : 1 h 23 min
  142. Bit rate                                 : 27.7 kb/s
  143. Count of elements                        : 2344
  144. Stream size                              : 16.6 MiB (0%)
  145. Title                                    : CHT
  146. Language                                 : Chinese
  147. Default                                  : No
  148. Forced                                   : No
  149. Menu
  150. 00:00:00.000                             : en:Chapter 1
  151. 00:01:33.760                             : en:Chapter 2
  152. 00:03:08.271                             : en:Chapter 3
  153. 00:04:51.791                             : en:Chapter 4
  154. 00:07:17.604                             : en:Chapter 5
  155. 00:09:12.177                             : en:Chapter 6
  156. 00:10:44.268                             : en:Chapter 7
  157. 00:11:54.464                             : en:Chapter 8
  158. 00:17:26.462                             : en:Chapter 9
  159. 00:20:06.747                             : en:Chapter 10
  160. 00:22:04.448                             : en:Chapter 11
  161. 00:25:49.089                             : en:Chapter 12
  162. 00:28:35.630                             : en:Chapter 13
  163. 00:31:07.157                             : en:Chapter 14
  164. 00:34:50.630                             : en:Chapter 15
  165. 00:36:56.297                             : en:Chapter 16
  166. 00:38:50.953                             : en:Chapter 17
  167. 00:40:28.551                             : en:Chapter 18
  168. 00:43:34.945                             : en:Chapter 19
  169. 00:45:30.394                             : en:Chapter 20
  170. 00:48:08.093                             : en:Chapter 21
  171. 00:50:37.826                             : en:Chapter 22
  172. 00:54:41.945                             : en:Chapter 23
  173. 00:57:30.113                             : en:Chapter 24
  174. 01:03:42.693                             : en:Chapter 25
  175. 01:06:25.690                             : en:Chapter 26
  176. 01:07:27.043                             : en:Chapter 27
  177. 01:13:52.803                             : en:Chapter 28
  178. 01:17:50.249                             : en:Chapter 29
  179. 01:21:25.589                             : en:Chapter 30
  180. 01:24:08.626                             : en:Chapter 31
  181. 01:25:06.893                             : en:Chapter 32
  182. 01:32:09.607                             : en:Chapter 33





此处一般会放置磁力链或种子下载链接,不过此链接需要注册会员才能看到,点击“立即注册”
磁力链下载【下载链接仅对注册会员开放,登陆后可见】
BT9527电影天堂 1、BT9527电影天堂提供的BT文件均来源于互联网抓取,只供网友学习交流、技术提升使用。
2、我们遵守BitTorrent点对点协议原则,任何版权问题请联系原资源发布商,我们不处理任何版权纠纷,谢谢!如有争议请联系邮箱:BT9527#hotmail.com(#换成@)
3、如果您发现某页面或地址有错误,请联系站长邮箱BT9527#hotmail.com(#换成@),我们会尽快处理。您的热心是对BT9527电影天堂最大的支持。
4、本站建议去正规影院观看电影以支持电影行业发展。
最新回复 (0)

你可以在 登录 or 注册 后,对此帖发表评论!

返回