散步的侵略者[简体字幕].Before.We.Vanis.2017.BluRay.1080p.x265.10bit.DDP7.1-MiniHD 8.94GB

版主小s 7天前 143

✔资源类型:暂未分类   ✔电影年份:2017   ✔电影地区:日本   ✔电影分类:剧情

◎译  名 散步的侵略者 / 来自星凶的爱(港) / Before We Vanish
◎片  名 散歩する侵略者
◎年  代 2017
◎产  地 日本
◎类  别 剧情 / 科幻
◎语  言 日语
◎上映日期 2017-05-21(戛纳电影节) / 2017-09-09(日本)
◎IMDb链接 https://www.imdb.com/title/tt5999530/
◎豆瓣评分 6.2/10 (6854人评价)
◎豆瓣链接 https://movie.douban.com/subject/26870196/
◎片  长 129分钟
◎导  演 黑泽清 Kiyoshi Kurosawa (id:1010731)
◎编  剧 黑泽清 Kiyoshi Kurosawa (id:1010731)
       田中幸子 Sachiko Tanaka (id:1312648)
       前川知大 Tomohiro Maekawa (id:1364557)
◎演  员 长泽雅美 Masami Nagasawa (id:1018667)
       松田龙平 Ry?hei Matsuda (id:1045454)
       高杉真宙 Mahiro Takasugi (id:1317846)
       恒松祐里 Yuri Tsunematsu (id:1352330)
       长谷川博己 Hiroki Hasegawa (id:1275145)
       前田敦子 Atsuko Maeda (id:1275297)
       满岛真之介 Shin'nosuke Mitsushima (id:1316112)
       儿岛一哉 Kazuya Kojima (id:1275385)
       光石研 Ken Mitsuishi (id:1029037)
       东出昌大 Masahiro Higashide (id:1324960)
       笹野高史 Takashi Sasano (id:1012794)

◎简  介
  在设计公司上班的加濑鸣海(长泽雅美 饰)早就和丈夫真治(松田龙平 饰)的爱情走向破裂,可是在丈夫走失再回来的时候,她却发现对方似乎丧失了记忆,对周遭一切都懵懂无知。与此同时,城市内姓立花的人家发生血腥的杀人案,作为重要嫌疑人的学生妹立花明(恒松佑里 饰)则下落不明。周刊记者樱井(长谷川博己 饰)受命前往案发现场,却遇到了举止怪异的青年天野(高杉真宙 饰)。天野自称来自外星,他和包括立花在内的同类们正筹划入侵地球。半信半疑的樱井随其踏上寻找立花的旅途,而另一边的鸣海也对丈夫的真实身份产生了质疑……                                    
                                本片根据劇団イキウメ的负责人前川知大2005年首演的舞台剧、并于2007年出版的小说改编。

◎获奖情况 (共3项)
  第70届戛纳电影节 (2017)
  一种关注单元 一种关注大奖(提名)
   └──黑泽清 (id:1010731)

  第41届日本电影学院奖 (2018)
  最佳导演(提名)
   └──黑泽清 (id:1010731)
  最佳女主角(提名)
   └──长泽雅美 (id:1018667)

  1. ##### MediaInfo ######
  2. General
  3. Unique ID                                : 302474243839735864701389527206642072982 (0xE38E6B9CD2C291FCA3AF574B4E143D96)
  4. Complete name                            : Before.We.Vanis.2017.BluRay.1080p.x265.10bit.DDP7.1-MiniHD.mkv
  5. Format                                   : Matroska
  6. Format version                           : Version 4
  7. File size                                : 8.93 GiB
  8. Duration                                 : 2 h 10 min
  9. Overall bit rate                         : 9 829 kb/s
  10. Encoded date                             : UTC 2022-06-13 11:59:26
  11. Writing application                      : mkvmerge v68.0.0 ('The Curtain') 64-bit
  12. Writing library                          : libebml v1.4.2 + libmatroska v1.6.4
  13. Video
  14. ID                                       : 1
  15. Format                                   : HEVC
  16. Format/Info                              : High Efficiency Video Coding
  17. Format profile                           : Main 10@L5@High
  18. Codec ID                                 : V_MPEGH/ISO/HEVC
  19. Duration                                 : 2 h 10 min
  20. Bit rate                                 : 8 277 kb/s
  21. Width                                    : 1 920 pixels
  22. Height                                   : 804 pixels
  23. Display aspect ratio                     : 2.40:1
  24. Frame rate mode                          : Constant
  25. Frame rate                               : 23.976 (24000/1001/53354) FPS
  26. Color space                              : YUV
  27. Chroma subsampling                       : 4:2:0
  28. Bit depth                                : 10 bits
  29. Bits/(Pixel*Frame)                       : 0.224
  30. Stream size                              : 7.52 GiB (84%)
  31. Writing library                          : x265 3.5+20-17839cc0d:[Windows][GCC 11.2.0][64 bit] 10bit
  32. Encoding settings                        : cpuid=533541111039 / frame-threads=5 / numa-pools=24,24 / wpp / no-pmode / no-pme / no-psnr / no-ssim / log-level=2 / input-csp=1 / input-res=1920x804 / interlace=0 / total-frames=187215 / level-idc=0 / high-tier=1 / uhd-bd=0 / ref=5 / no-allow-non-conformance / no-repeat-headers / annexb / no-aud / no-eob / no-eos / no-hrd / info / hash=0 / no-temporal-layers / no-open-gop / min-keyint=23 / keyint=250 / gop-lookahead=0 / bframes=9 / b-adapt=2 / b-pyramid / bframe-bias=0 / rc-lookahead=60 / lookahead-slices=0 / NTMzNTQ=uuDQuD2mJt9fsCf / scenecut=40 / no-hist-scenecut / radl=0 / no-splice / no-intra-refresh / ctu=32 / min-cu-size=8 / no-rect / no-amp / max-tu-size=32 / tu-inter-depth=4 / tu-intra-depth=4 / limit-tu=0 / rdoq-level=2 / dynamic-rd=0.00 / no-ssim-rd / signhide / no-tskip / nr-intra=0 / nr-inter=0 / no-constrained-intra / no-strong-intra-smoothing / max-merge=5 / limit-refs=0 / no-limit-modes / me=3 / subme=5 / merange=57 / temporal-mvp / no-frame-dup / no-hme / weightp / weightb / no-analyze-src-pics / deblock=-1:-1 / no-sao / no-sao-non-deblock / rd=4 / selective-sao=0 / no-early-skip / no-rskip / no-fast-intra / no-tskip-fast / no-cu-lossless / b-intra / no-splitrd-skip / rdpenalty=0 / psy-rd=2.00 / psy-rdoq=5.00 / no-rd-refine / no-lossless / cbqpoffs=0 / crqpoffs=0 / rc=crf / crf=20.0 / qcomp=0.70 / qpstep=4 / stats-write=0 / stats-read=0 / vbv-maxrate=100000 / vbv-bufsize=100000 / vbv-init=0.9 / min-vbv-fullness=50.0 / max-vbv-fullness=80.0 / crf-max=0.0 / crf-min=0.0 / ipratio=1.40 / pbratio=1.30 / aq-mode=1 / aq-strength=0.90 / no-cutree / zone-count=0 / no-strict-cbr / qg-size=32 / no-rc-grain / qpmax=69 / qpmin=0 / no-const-vbv / sar=0 / overscan=0 / videoformat=5 / range=0 / colorprim=1 / transfer=1 / colormatrix=1 / chromaloc=0 / display-window=0 / cll=0,0 / min-luma=0 / max-luma=1023 / log2-max-poc-lsb=8 / vui-timing-info / vui-hrd-info / slices=1 / no-opt-qp-pps / no-opt-ref-list-length-pps / no-multi-pass-opt-rps / scenecut-bias=0.05 / hist-threshold=0.03 / no-opt-cu-delta-qp / no-aq-motion / no-hdr10 / no-hdr10-opt / no-dhdr10-opt / no-idr-recovery-sei / analysis-reuse-level=0 / analysis-save-reuse-level=0 / analysis-load-reuse-level=0 / scale-factor=0 / refine-intra=0 / refine-inter=0 / refine-mv=1 / refine-ctu-distortion=0 / no-limit-sao / ctu-info=0 / no-lowpass-dct / refine-analysis-type=0 / copy-pic=1 / max-ausize-factor=1.0 / no-dynamic-refine / no-single-sei / no-hevc-aq / no-svt / no-field / qp-adaptation-range=1.00 / scenecut-aware-qp=0conformance-window-offsets / right=0 / bottom=0 / NTMzNTQ= / decoder-max-rate=0 / no-vbv-live-multi-pass
  33. Default                                  : Yes
  34. Forced                                   : No
  35. Color range                              : Limited
  36. Color primaries                          : BT.709
  37. Transfer characteristics                 : BT.709
  38. Matrix coefficients                      : BT.709
  39. Audio
  40. ID                                       : 2
  41. Format                                   : E-AC-3
  42. Format/Info                              : Enhanced AC-3
  43. Commercial name                          : Dolby Digital Plus
  44. Format profile                           : Blu-ray Disc
  45. Codec ID                                 : A_EAC3
  46. Duration                                 : 2 h 10 min
  47. Bit rate mode                            : Constant
  48. Bit rate                                 : 1 536 kb/s
  49. Channel(s)                               : 8 channels
  50. Channel layout                           : L R C LFE Ls Rs Lb Rb
  51. Sampling rate                            : 48.0 kHz
  52. Frame rate                               : 31.250 FPS (1536 SPF)
  53. Compression mode                         : Lossy
  54. Stream size                              : 1.40 GiB (16%)
  55. Language                                 : Japanese
  56. Service kind                             : Complete Main
  57. Default                                  : Yes
  58. Forced                                   : No
  59. Text
  60. ID                                       : 3
  61. Format                                   : PGS
  62. Muxing mode                              : zlib
  63. Codec ID                                 : S_HDMV/PGS
  64. Codec ID/Info                            : Picture based subtitle format used on BDs/HD-DVDs
  65. Duration                                 : 2 h 6 min
  66. Bit rate                                 : 22.2 kb/s
  67. Count of elements                        : 2682
  68. Stream size                              : 20.0 MiB (0%)
  69. Title                                    : chs
  70. Language                                 : Chinese
  71. Default                                  : Yes
  72. Forced                                   : No
  73. Menu
  74. 00:00:00.000                             : en:Chapter01
  75. 00:11:43.661                             : en:Chapter02
  76. 00:23:28.198                             : en:Chapter03
  77. 00:32:48.508                             : en:Chapter04
  78. 00:41:36.785                             : en:Chapter05
  79. 00:51:04.060                             : en:Chapter06
  80. 01:04:33.286                             : en:Chapter07
  81. 01:14:18.412                             : en:Chapter08
  82. 01:25:49.936                             : en:Chapter09
  83. 01:36:12.850                             : en:Chapter10
  84. 01:50:18.069                             : en:Chapter11
  85. 01:59:47.430                             : en:Chapter12





此处一般会放置磁力链或种子下载链接,不过此链接需要注册会员才能看到,点击“立即注册”
磁力链下载【下载链接仅对注册会员开放,登陆后可见】
BT9527电影天堂 1、BT9527电影天堂提供的BT文件均来源于互联网抓取,只供网友学习交流、技术提升使用。
2、我们遵守BitTorrent点对点协议原则,任何版权问题请联系原资源发布商,我们不处理任何版权纠纷,谢谢!如有争议请联系邮箱:BT9527#hotmail.com(#换成@)
3、如果您发现某页面或地址有错误,请联系站长邮箱BT9527#hotmail.com(#换成@),我们会尽快处理。您的热心是对BT9527电影天堂最大的支持。
4、本站建议去正规影院观看电影以支持电影行业发展。
最新回复 (0)

你可以在 登录 or 注册 后,对此帖发表评论!

返回
发新帖