回归之路[简繁英字幕].The.Way.Back.2020.BluRay.1080p.x265.10bit.DDP7.1.REPACK-MiniHD 12.38GB

版主小s 13天前 61

✔资源类型:暂未分类   ✔电影年份:2020   ✔电影地区:欧美   ✔电影分类:剧情

◎译  名 回归之路 / 归来之路 / 归途 / 托兰斯教练 / Torrance / The Has-Been
◎片  名 The Way Back
◎年  代 2020
◎产  地 美国
◎类  别 剧情 / 运动
◎语  言 英语
◎上映日期 2020-03-06(美国网络)
◎IMDb链接 https://www.imdb.com/title/tt8544498/
◎豆瓣评分 6.7/10 (6234人评价)
◎豆瓣链接 https://movie.douban.com/subject/30345227/
◎片  长 108分钟
◎导  演 加文·欧康诺 Gavin O'Connor (id:1293387)
◎编  剧 布拉德·英格尔斯比 Brad Ingelsby (id:1331231)
       加文·欧康诺 Gavin O'Connor (id:1293387)
◎演  员 本·阿弗莱克 Ben Affleck (id:1054417)
       詹妮娜·加万卡 Janina Gavankar (id:1036555)
       麦可拉·沃金丝 Michaela Watkins (id:1185170)
       瑞秋·卡帕尼 Rachael Carpani (id:1071733)
       艾尔·马德里加尔 Al Madrigal (id:1433413)
       海耶斯·麦克阿瑟 Hayes MacArthur (id:1325467)
       阿夫拉姆·D·于斯特 Da'Vinchi (id:1433411)
       泰勒·奥马利 Tyler O'Malley (id:1433414)
       马修·格拉夫 Matthew Glave (id:1091703)
       托德·斯塔什维克 Todd Stashwick (id:1027940)
       玛琳娜·福特 Marlene Forte (id:1333494)
       英卡·基特 Inka Kyt? (id:1433412)
       格林·特鲁曼 Glynn Turman (id:1007099)
       梅尔文·格雷格 Melvin Gregg (id:1401103)
       TK·卡特 T.K. Carter (id:1078388)
       卢卡斯·盖奇 Lukas Gage (id:1418564)
       杰雷米·拉特福德 Jeremy Ratchford (id:1143827)
       小索尔·韦雷斯 Sal Velez Jr. (id:1415021)
       克里斯·布鲁诺 Chris Bruno (id:1032251)
       克里斯汀·霍恩 Christine Horn (id:1387434)
       布兰登·威尔逊 Brandon Wilson (id:1176674)
       艾德琳·冈野 Edelyn Okano (id:1185808)
       尼科·戴维 Nico David (id:1382890)
       汤姆·阿齐迪肯 Tom Archdeacon (id:1000291)
       杰·阿布多 Jay Abdo (id:1357264)
       查德·芒廷 Chad Mountain (id:1196933)
       谢伊·朗德特里 Shay Roundtree (id:1214623)
       曼尼·斯特里茨 Manny Streetz (id:1402167)
       桑蒂尔·亚历克西斯·瓦奎兹 Shantiel Alexis Vazquez (id:1272290)
       小阿曼多·杜邦 Armando DuBon Jr. (id:1407373)
       丹·格伦伯格 Dan Gruenberg (id:1408269)
       布莱恩·纳什 Bryan Nash (id:1134128)
       威尔·罗普 Will Ropp (id:1435673)
       本·阿弗莱克 Ben Affleck (id:1054417)
       罗伯·西蒙森 Rob Simonsen (id:1033218)
       辛迪·埃文斯 Cindy Evans (id:1427039)

◎简  介
  一个曾经的篮球明星在与酒瘾作斗争时失去了妻子与家庭,为了能够找回自我选择回到母校为一支高中篮球队做教练,同时也要继续防止自己再次被酒瘾控制。

◎获奖情况 (共1项)
  第26届美国评论家选择电影奖 (2021)
  最佳男主角(提名)
   └──本·阿弗莱克 (id:1054417)

  1. ##### MediaInfo ######
  2. General
  3. Unique ID                                : 198705515668031123016769287519454764532 (0x957D4A4F658B38F4D8EBC3155B5E1DF4)
  4. Complete name                            : The.Way.Back.2020.BluRay.1080p.x265.10bit.DDP7.1.REPACK-MiniHD.mkv
  5. Format                                   : Matroska
  6. Format version                           : Version 4
  7. File size                                : 12.4 GiB
  8. Duration                                 : 1 h 48 min
  9. Overall bit rate                         : 16.3 Mb/s
  10. Movie name                               : The.Way.Back.2020.BluRay.1080p.x265.10bit.DDP7.1.REPACK.MNHD-FRDS
  11. Encoded date                             : UTC 2022-06-04 19:04:14
  12. Writing application                      : mkvmerge v66.0.0 ('Josie') 64-bit
  13. Writing library                          : libebml v1.4.2 + libmatroska v1.6.4
  14. Attachments                              : 文泉驿微米黑.ttf
  15. Video
  16. ID                                       : 1
  17. Format                                   : HEVC
  18. Format/Info                              : High Efficiency Video Coding
  19. Format profile                           : Main 10@L5.1@High
  20. Codec ID                                 : V_MPEGH/ISO/HEVC
  21. Duration                                 : 1 h 48 min
  22. Bit rate                                 : 14.8 Mb/s
  23. Width                                    : 1 920 pixels
  24. Height                                   : 804 pixels
  25. Display aspect ratio                     : 2.40:1
  26. Frame rate mode                          : Constant
  27. Frame rate                               : 23.976 (24000/1001/53354) FPS
  28. Color space                              : YUV
  29. Chroma subsampling                       : 4:2:0
  30. Bit depth                                : 10 bits
  31. Bits/(Pixel*Frame)                       : 0.399
  32. Stream size                              : 11.2 GiB (90%)
  33. Writing library                          : x265 3.5+29-3415705dd:[Windows][MSVC 1930][64 bit] 10bit
  34. Encoding settings                        : cpuid=533541111039 / frame-threads=5 / numa-pools=32 / wpp / pmode / no-pme / no-psnr / no-ssim / log-level=2 / input-csp=1 / input-res=1920x804 / interlace=0 / total-frames=155998 / level-idc=0 / high-tier=1 / uhd-bd=0 / ref=6 / no-allow-non-conformance / no-repeat-headers / annexb / no-aud / no-eob / no-eos / no-hrd / info / hash=0 / no-temporal-layers / no-open-gop / min-keyint=1 / keyint=250 / gop-lookahead=0 / bframes=8 / b-adapt=2 / b-pyramid / bframe-bias=0 / rc-lookahead=100 / lookahead-slices=0 / NTMzNTQ=uuDQuD2mJt9fsCf / scenecut=40 / no-hist-scenecut / radl=0 / no-splice / no-intra-refresh / ctu=32 / min-cu-size=8 / no-rect / no-amp / max-tu-size=32 / tu-inter-depth=4 / tu-intra-depth=4 / limit-tu=0 / rdoq-level=2 / dynamic-rd=0.00 / no-ssim-rd / signhide / tskip / nr-intra=0 / nr-inter=0 / no-constrained-intra / no-strong-intra-smoothing / max-merge=5 / limit-refs=0 / no-limit-modes / me=3 / subme=7 / merange=57 / temporal-mvp / no-frame-dup / no-hme / weightp / weightb / no-analyze-src-pics / deblock=-3:-3 / no-sao / no-sao-non-deblock / rd=4 / selective-sao=0 / no-early-skip / no-rskip / no-fast-intra / no-tskip-fast / no-cu-lossless / b-intra / no-splitrd-skip / rdpenalty=0 / psy-rd=1.50 / psy-rdoq=1.00 / no-rd-refine / no-lossless / cbqpoffs=-2 / crqpoffs=-2 / rc=crf / crf=19.0 / qcomp=0.65 / qpstep=4 / stats-write=0 / stats-read=0 / vbv-maxrate=160000 / vbv-bufsize=160000 / vbv-init=0.9 / min-vbv-fullness=50.0 / max-vbv-fullness=80.0 / crf-max=0.0 / crf-min=0.0 / ipratio=1.30 / pbratio=1.20 / aq-mode=1 / aq-strength=1.00 / no-cutree / zone-count=0 / no-strict-cbr / qg-size=8 / no-rc-grain / qpmax=69 / qpmin=0 / no-const-vbv / sar=0 / overscan=0 / videoformat=5 / range=0 / colorprim=1 / transfer=1 / colormatrix=1 / chromaloc=0 / display-window=0 / cll=0,0 / min-luma=0 / max-luma=1023 / log2-max-poc-lsb=8 / vui-timing-info / vui-hrd-info / slices=1 / no-opt-qp-pps / no-opt-ref-list-length-pps / no-multi-pass-opt-rps / scenecut-bias=0.05 / hist-threshold=0.03 / no-opt-cu-delta-qp / no-aq-motion / no-hdr10 / no-hdr10-opt / no-dhdr10-opt / no-idr-recovery-sei / analysis-reuse-level=0 / analysis-save-reuse-level=0 / analysis-load-reuse-level=0 / scale-factor=0 / refine-intra=0 / refine-inter=0 / refine-mv=1 / refine-ctu-distortion=0 / no-limit-sao / ctu-info=0 / no-lowpass-dct / refine-analysis-type=0 / copy-pic=1 / max-ausize-factor=1.0 / no-dynamic-refine / no-single-sei / no-hevc-aq / no-svt / no-field / qp-adaptation-range=1.00 / scenecut-aware-qp=0conformance-window-offsets / right=0 / bottom=0 / NTMzNTQ= / decoder-max-rate=0 / no-vbv-live-multi-pass
  35. Default                                  : Yes
  36. Forced                                   : No
  37. Color range                              : Limited
  38. Color primaries                          : BT.709
  39. Transfer characteristics                 : BT.709
  40. Matrix coefficients                      : BT.709
  41. Audio
  42. ID                                       : 2
  43. Format                                   : E-AC-3
  44. Format/Info                              : Enhanced AC-3
  45. Commercial name                          : Dolby Digital Plus
  46. Format profile                           : Blu-ray Disc
  47. Codec ID                                 : A_EAC3
  48. Duration                                 : 1 h 48 min
  49. Bit rate mode                            : Constant
  50. Bit rate                                 : 1 536 kb/s
  51. Channel(s)                               : 8 channels
  52. Channel layout                           : L R C LFE Ls Rs Lb Rb
  53. Sampling rate                            : 48.0 kHz
  54. Frame rate                               : 31.250 FPS (1536 SPF)
  55. Compression mode                         : Lossy
  56. Stream size                              : 1.16 GiB (9%)
  57. Language                                 : English
  58. Service kind                             : Complete Main
  59. Default                                  : Yes
  60. Forced                                   : No
  61. Text #1
  62. ID                                       : 3
  63. Format                                   : UTF-8
  64. Codec ID                                 : S_TEXT/UTF8
  65. Codec ID/Info                            : UTF-8 Plain Text
  66. Duration                                 : 1 h 39 min
  67. Bit rate                                 : 64 b/s
  68. Count of elements                        : 1770
  69. Stream size                              : 46.9 KiB (0%)
  70. Title                                    : CHS
  71. Language                                 : Chinese
  72. Default                                  : Yes
  73. Forced                                   : No
  74. Text #2
  75. ID                                       : 4
  76. Format                                   : UTF-8
  77. Codec ID                                 : S_TEXT/UTF8
  78. Codec ID/Info                            : UTF-8 Plain Text
  79. Duration                                 : 1 h 39 min
  80. Bit rate                                 : 64 b/s
  81. Count of elements                        : 1770
  82. Stream size                              : 46.9 KiB (0%)
  83. Title                                    : CHT
  84. Language                                 : Chinese
  85. Default                                  : No
  86. Forced                                   : No
  87. Text #3
  88. ID                                       : 5
  89. Format                                   : ASS
  90. Codec ID                                 : S_TEXT/ASS
  91. Codec ID/Info                            : Advanced Sub Station Alpha
  92. Duration                                 : 1 h 39 min
  93. Bit rate                                 : 256 b/s
  94. Count of elements                        : 1745
  95. Compression mode                         : Lossless
  96. Stream size                              : 187 KiB (0%)
  97. Title                                    : CHS&ENG-ASS
  98. Language                                 : Chinese
  99. Default                                  : No
  100. Forced                                   : No
  101. Text #4
  102. ID                                       : 6
  103. Format                                   : ASS
  104. Codec ID                                 : S_TEXT/ASS
  105. Codec ID/Info                            : Advanced Sub Station Alpha
  106. Duration                                 : 1 h 39 min
  107. Bit rate                                 : 132 b/s
  108. Count of elements                        : 1745
  109. Compression mode                         : Lossless
  110. Stream size                              : 96.6 KiB (0%)
  111. Title                                    : CHS
  112. Language                                 : Chinese
  113. Default                                  : No
  114. Forced                                   : No
  115. Text #5
  116. ID                                       : 7
  117. Format                                   : ASS
  118. Codec ID                                 : S_TEXT/ASS
  119. Codec ID/Info                            : Advanced Sub Station Alpha
  120. Duration                                 : 1 h 39 min
  121. Bit rate                                 : 132 b/s
  122. Count of elements                        : 1745
  123. Compression mode                         : Lossless
  124. Stream size                              : 96.6 KiB (0%)
  125. Title                                    : CHT
  126. Language                                 : Chinese
  127. Default                                  : No
  128. Forced                                   : No
  129. Text #6
  130. ID                                       : 8
  131. Format                                   : PGS
  132. Muxing mode                              : zlib
  133. Codec ID                                 : S_HDMV/PGS
  134. Codec ID/Info                            : Picture based subtitle format used on BDs/HD-DVDs
  135. Duration                                 : 1 h 40 min
  136. Bit rate                                 : 48.5 kb/s
  137. Count of elements                        : 3422
  138. Stream size                              : 34.8 MiB (0%)
  139. Language                                 : English
  140. Default                                  : No
  141. Forced                                   : No
  142. Menu
  143. 00:00:00.000                             : en:Chapter 01
  144. 00:09:40.371                             : en:Chapter 02
  145. 00:15:53.786                             : en:Chapter 03
  146. 00:24:44.817                             : en:Chapter 04
  147. 00:31:35.102                             : en:Chapter 05
  148. 00:37:54.898                             : en:Chapter 06
  149. 00:45:01.073                             : en:Chapter 07
  150. 00:54:15.419                             : en:Chapter 08
  151. 01:04:14.851                             : en:Chapter 09
  152. 01:09:06.142                             : en:Chapter 10
  153. 01:17:57.464                             : en:Chapter 11
  154. 01:27:57.189                             : en:Chapter 12
  155. 01:33:17.509                             : en:Chapter 13
  156. 01:42:39.403                             : en:Chapter 14
  157. 01:48:26.166                             : en:Chapter 15





此处一般会放置磁力链或种子下载链接,不过此链接需要注册会员才能看到,点击“立即注册”
磁力链下载【下载链接仅对注册会员开放,登陆后可见】
BT9527电影天堂 1、BT9527电影天堂提供的BT文件均来源于互联网抓取,只供网友学习交流、技术提升使用。
2、我们遵守BitTorrent点对点协议原则,任何版权问题请联系原资源发布商,我们不处理任何版权纠纷,谢谢!如有争议请联系邮箱:BT9527#hotmail.com(#换成@)
3、如果您发现某页面或地址有错误,请联系站长邮箱BT9527#hotmail.com(#换成@),我们会尽快处理。您的热心是对BT9527电影天堂最大的支持。
4、本站建议去正规影院观看电影以支持电影行业发展。
最新回复 (0)

你可以在 登录 or 注册 后,对此帖发表评论!

返回
发新帖