北欧人[杜比视界版本][简繁英字幕].The.Northman.2022.UHD.BluRay.2160p.x265.DV.HDR.TrueHD.Atmos-MiniHD 27.45GB

版主小s 11天前 59

✔资源类型:BD-4K   ✔电影年份:2022   ✔电影地区:欧美   ✔电影分类:剧情

◎译  名 北欧人 / 北方人(台)
◎片  名 The Northman
◎年  代 2022
◎产  地 美国
◎类  别 剧情
◎语  言 英语
◎上映日期 2022-04-15(英国) / 2022-04-22(美国) / 2022-05-13(美国网络)
◎IMDb链接 https://www.imdb.com/title/tt11138512/
◎豆瓣评分 6.4/10 (16529人评价)
◎豆瓣链接 https://movie.douban.com/subject/34861178/
◎片  长 137分钟
◎导  演 罗伯特·艾格斯 Robert Eggers (id:1351393)
◎编  剧 罗伯特·艾格斯 Robert Eggers (id:1351393)
       秀恩·西古尔德森 Sjón Sigurdsson (id:1052018)
◎演  员 亚历山大·斯卡斯加德 Alexander Skarsg?rd (id:1049485)
       妮可·基德曼 Nicole Kidman (id:1054442)
       克拉斯·邦 Claes Bang (id:1067129)
       伊桑·霍克 Ethan Hawke (id:1018984)
       安雅·泰勒-乔伊 Anya Taylor-Joy (id:1354934)
       古斯塔夫·林德 Gustav Lindh (id:1413706)
       艾略特·罗斯 Elliott Rose (id:1470646)
       威廉·达福 Willem Dafoe (id:1010539)
       菲尔·马丁 Phill Martin (id:1470647)
       埃尔达·斯卡 Eldar Skar (id:1360101)
       欧文·弗热瑞 Olwen Fouéré (id:1355887)
       埃德加·阿布拉姆 Edgar Abram (id:1470650)
       杰克·加斯曼 Jack Gassmann (id:1470651)
       英格瓦·埃盖特·西古德松 Ingvar Eggert Siguresson (id:1041279)
       奥斯卡·诺瓦克 Oscar Novak (id:1470648)
       杰克·沃尔什 Jack Walsh (id:1363036)
       比约克 Bj?rk (id:1054628)
       伊恩·怀特 Ian Whyte (id:1183951)
       凯蒂·帕廷森 Katie Pattinson (id:1470649)
       凯特·迪基 Kate Dickie (id:1282399)
       谢默斯·奥哈拉 Seamus O'Hara (id:1453625)
       塔格·墨菲 Tadhg Murphy (id:1308673)
       哈弗波·朱利尔斯·比昂森 Haftór Júlíus Bj?rnsson (id:1347773)
       拉尔夫·伊内森 Ralph Ineson (id:1108378)
       默里·麦克阿瑟 Murray McArthur (id:1117558)
       乔恩·坎普林 Jon Campling (id:1218535)
       迈克尔·舍费尔 Michael Schaefer (id:1355118)
       露易丝·福特 Louise Ford (id:1450155)
        Linda Muir (id:1471352)

◎简  介
  一名年轻的维京王子,为了遭到谋杀的父亲,踏上一场冒险的复仇之路。
  1. ##### MediaInfo ######
  2. General
  3. Unique ID                                : 331828546975708862555258976457578024187 (0xF9A3DA7F207BF9D1736EFE442FAC8CFB)
  4. Complete name                            : The.Northman.2022.UHD.BluRay.2160p.x265.DV.HDR.TrueHD.Atmos-MiniHD.mkv
  5. Format                                   : Matroska
  6. Format version                           : Version 4
  7. File size                                : 27.4 GiB
  8. Duration                                 : 2 h 16 min
  9. Overall bit rate mode                    : Variable
  10. Overall bit rate                         : 28.7 Mb/s
  11. Movie name                               : The Northman 2022 UHD BluRay 2160p - FRDS
  12. Encoded date                             : UTC 2022-06-16 14:41:26
  13. Writing application                      : mkvmerge v68.0.0 ('The Curtain') 64-bit
  14. Writing library                          : libebml v1.4.2 + libmatroska v1.6.4
  15. Cover                                    : Yes
  16. Attachments                              : cover.jpg
  17. Video
  18. ID                                       : 1
  19. Format                                   : HEVC
  20. Format/Info                              : High Efficiency Video Coding
  21. Format profile                           : Main 10@L5.1@High
  22. HDR format                               : SMPTE ST 2086, HDR10 compatible
  23. Codec ID                                 : V_MPEGH/ISO/HEVC
  24. Duration                                 : 2 h 16 min
  25. Bit rate                                 : 23.1 Mb/s
  26. Width                                    : 3 840 pixels
  27. Height                                   : 1 920 pixels
  28. Display aspect ratio                     : 2.000
  29. Frame rate mode                          : Constant
  30. Frame rate                               : 23.976 (24000/1001/53354) FPS
  31. Color space                              : YUV
  32. Chroma subsampling                       : 4:2:0
  33. Bit depth                                : 10 bits
  34. Bits/(Pixel*Frame)                       : 0.130
  35. Stream size                              : 22.1 GiB (80%)
  36. Writing library                          : x265 3.3+3-g8f8e332f1+29:[Windows][#Erg`Djh#][@Yuuki] made by @Dongfangbubai
  37. Encoding settings                        : rc=crf / crf=18.0000 / qcomp=0.70 / qpstep=4 / stats-write=0 / stats-read=0 / vbv-maxrate=160000 / vbv-bufsize=160000 / vbv-init=0.9 / crf-max=0.0 / crf-min=0.0 / no-lossless / no-cu-lossless / aq-mode=3 / aq-strength=0.80 / cbqpoffs=-3 / crqpoffs=-3 / ipratio=1.40 / pbratio=1.30 / psy-rd=2.00 / psy-rdoq=3.00 / deblock=-1:-1 / ref=5 / limit-refs=0 / no-limit-modes / bframes=8 / b-adapt=2 / bframe-bias=0 / b-pyramid / b-intra / weightp / weightb / min-keyint=23 / max-keyint=240 / rc-lookahead=60 / gop-lookahead=0 / NTMzNTQ=uuDQuD2mJt9fsCf / scenecut=40 / hist-scenecut=0 / radl=0 / max-cu-size=32 / min-cu-size=8 / me=3 / subme=4 / merange=25 / rdoq-level=2 / rd=4 / rdpenalty=1 / dynamic-rd=0.00 / no-rd-refine / ----- / no-cutree / no-sao / rect / no-amp / no-open-gop / wpp / pmode / pme / no-psnr / no-ssim / nr-intra=0 / nr-inter=0 / no-constrained-intra / no-strong-intra-smoothing / max-tu-size=32 / tu-inter-depth=2 / tu-intra-depth=2 / limit-tu=0 / qg-size=32 / qpmax=69 / qpmin=0 / ----- / cpuid=533541176575 / frame-threads=6 / numa-pools=54,- / log-level=2 / input-csp=1 / input-res=3840x1920 / interlace=0 / level-idc=0 / high-tier=1 / uhd-bd=0 / no-allow-non-conformance / repeat-headers / aud / hrd / info / hash=0 / no-temporal-layers / lookahead-slices=0 / no-splice / no-intra-refresh / no-ssim-rd / signhide / no-tskip / max-merge=3 / temporal-mvp / no-frame-dup / no-hme / no-analyze-src-pics / no-sao-non-deblock / selective-sao=0 / no-early-skip / no-rskip / no-fast-intra / no-tskip-fast / no-splitrd-skip / zone-count=0 / no-strict-cbr / no-rc-grain / no-const-vbv / sar=0 / overscan=0 / videoformat=5 / range=0 / colorprim=9 / transfer=16 / colormatrix=9 / chromaloc=0 / display-window=0 / master-display=G(13250,34500)B(7500,3000)R(34000,16000)WP(15635,16450)L(10000000,1) / cll=1000,81 / min-luma=0 / max-luma=1023 / log2-max-poc-lsb=8 / vui-timing-info / vui-hrd-info / slices=1 / no-opt-qp-pps / no-opt-ref-list-length-pps / no-multi-pass-opt-rps / scenecut-bias=0.05 / hist-threshold=0.01 / no-opt-cu-delta-qp / no-aq-motion / hdr10 / hdr10-opt / no-dhdr10-opt / no-idr-recovery-sei / analysis-reuse-level=0 / analysis-save-reuse-level=0 / analysis-load-reuse-level=0 / scale-factor=0 / refine-intra=0 / refine-inter=0 / refine-mv=1 / refine-ctu-distortion=0 / no-limit-sao / ctu-info=0 / no-lowpass-dct / refine-analysis-type=0 / copy-pic=1 / max-ausize-factor=1.0 / no-dynamic-refine / no-single-sei / no-hevc-aq / no-svt / no-field / qp-adaptation-range=1.00 / no-scenecut-aware-qpconformance-window-offsets / right=0 / bottom=0 / NTMzNTQ=
  38. Default                                  : Yes
  39. Forced                                   : No
  40. Color range                              : Limited
  41. Color primaries                          : BT.2020
  42. Transfer characteristics                 : PQ
  43. Matrix coefficients                      : BT.2020 non-constant
  44. Mastering display color primaries        : Display P3
  45. Mastering display luminance              : min: 0.0001 cd/m2, max: 1000 cd/m2
  46. Maximum Content Light Level              : 1000 cd/m2
  47. Maximum Frame-Average Light Level        : 81 cd/m2
  48. Audio #1
  49. ID                                       : 2
  50. ID in the original source medium         : 4352 (0x1100)
  51. Format                                   : MLP FBA 16-ch
  52. Format/Info                              : Meridian Lossless Packing FBA with 16-channel presentation
  53. Commercial name                          : Dolby TrueHD with Dolby Atmos
  54. Codec ID                                 : A_TRUEHD
  55. Duration                                 : 2 h 16 min
  56. Bit rate mode                            : Variable
  57. Bit rate                                 : 4 847 kb/s
  58. Maximum bit rate                         : 7 383 kb/s
  59. Channel(s)                               : 8 channels
  60. Channel layout                           : L R C LFE Ls Rs Lb Rb
  61. Sampling rate                            : 48.0 kHz
  62. Frame rate                               : 1 200.000 FPS (40 SPF)
  63. Compression mode                         : Lossless
  64. Stream size                              : 4.63 GiB (17%)
  65. Language                                 : English
  66. Default                                  : Yes
  67. Forced                                   : No
  68. Original source medium                   : Blu-ray
  69. Number of dynamic objects                : 11
  70. Bed channel count                        : 1 channel
  71. Bed channel configuration                : LFE
  72. Audio #2
  73. ID                                       : 3
  74. ID in the original source medium         : 4352 (0x1100)
  75. Format                                   : AC-3
  76. Format/Info                              : Audio Coding 3
  77. Commercial name                          : Dolby Digital
  78. Codec ID                                 : A_AC3
  79. Duration                                 : 2 h 16 min
  80. Bit rate mode                            : Constant
  81. Bit rate                                 : 448 kb/s
  82. Channel(s)                               : 6 channels
  83. Channel layout                           : L R C LFE Ls Rs
  84. Sampling rate                            : 48.0 kHz
  85. Frame rate                               : 31.250 FPS (1536 SPF)
  86. Compression mode                         : Lossy
  87. Stream size                              : 439 MiB (2%)
  88. Language                                 : English
  89. Service kind                             : Complete Main
  90. Default                                  : No
  91. Forced                                   : No
  92. Original source medium                   : Blu-ray
  93. Audio #3
  94. ID                                       : 4
  95. ID in the original source medium         : 4355 (0x1103)
  96. Format                                   : AC-3
  97. Format/Info                              : Audio Coding 3
  98. Commercial name                          : Dolby Digital
  99. Codec ID                                 : A_AC3
  100. Duration                                 : 2 h 16 min
  101. Bit rate mode                            : Constant
  102. Bit rate                                 : 192 kb/s
  103. Channel(s)                               : 2 channels
  104. Channel layout                           : L R
  105. Sampling rate                            : 48.0 kHz
  106. Frame rate                               : 31.250 FPS (1536 SPF)
  107. Compression mode                         : Lossy
  108. Stream size                              : 188 MiB (1%)
  109. Title                                    : Commentary by director and cowriter Robert Eggers
  110. Language                                 : English
  111. Service kind                             : Complete Main
  112. Default                                  : No
  113. Forced                                   : No
  114. Original source medium                   : Blu-ray
  115. Text #1
  116. ID                                       : 5
  117. ID in the original source medium         : 4768 (0x12A0)
  118. Format                                   : PGS
  119. Muxing mode                              : zlib
  120. Codec ID                                 : S_HDMV/PGS
  121. Codec ID/Info                            : Picture based subtitle format used on BDs/HD-DVDs
  122. Duration                                 : 2 h 7 min
  123. Bit rate                                 : 30.2 kb/s
  124. Count of elements                        : 3098
  125. Stream size                              : 27.7 MiB (0%)
  126. Language                                 : English
  127. Default                                  : No
  128. Forced                                   : No
  129. Original source medium                   : Blu-ray
  130. Text #2
  131. ID                                       : 6
  132. ID in the original source medium         : 4769 (0x12A1)
  133. Format                                   : PGS
  134. Muxing mode                              : zlib
  135. Codec ID                                 : S_HDMV/PGS
  136. Codec ID/Info                            : Picture based subtitle format used on BDs/HD-DVDs
  137. Duration                                 : 2 h 16 min
  138. Bit rate                                 : 17.9 kb/s
  139. Count of elements                        : 2020
  140. Stream size                              : 17.4 MiB (0%)
  141. Language                                 : Spanish
  142. Default                                  : No
  143. Forced                                   : No
  144. Original source medium                   : Blu-ray
  145. Text #3
  146. ID                                       : 7
  147. ID in the original source medium         : 4770 (0x12A2)
  148. Format                                   : PGS
  149. Muxing mode                              : zlib
  150. Codec ID                                 : S_HDMV/PGS
  151. Codec ID/Info                            : Picture based subtitle format used on BDs/HD-DVDs
  152. Duration                                 : 2 h 16 min
  153. Bit rate                                 : 17.4 kb/s
  154. Count of elements                        : 1996
  155. Stream size                              : 17.0 MiB (0%)
  156. Language                                 : French
  157. Default                                  : No
  158. Forced                                   : No
  159. Original source medium                   : Blu-ray
  160. Text #4
  161. ID                                       : 8
  162. ID in the original source medium         : 4771 (0x12A3)
  163. Format                                   : PGS
  164. Muxing mode                              : zlib
  165. Codec ID                                 : S_HDMV/PGS
  166. Codec ID/Info                            : Picture based subtitle format used on BDs/HD-DVDs
  167. Duration                                 : 2 h 15 min
  168. Bit rate                                 : 1 037 b/s
  169. Count of elements                        : 82
  170. Stream size                              : 1.01 MiB (0%)
  171. Language                                 : Spanish
  172. Default                                  : No
  173. Forced                                   : No
  174. Original source medium                   : Blu-ray
  175. Text #5
  176. ID                                       : 9
  177. ID in the original source medium         : 4772 (0x12A4)
  178. Format                                   : PGS
  179. Muxing mode                              : zlib
  180. Codec ID                                 : S_HDMV/PGS
  181. Codec ID/Info                            : Picture based subtitle format used on BDs/HD-DVDs
  182. Duration                                 : 2 h 15 min
  183. Bit rate                                 : 1 161 b/s
  184. Count of elements                        : 122
  185. Stream size                              : 1.13 MiB (0%)
  186. Language                                 : French
  187. Default                                  : No
  188. Forced                                   : No
  189. Original source medium                   : Blu-ray
  190. Text #6
  191. ID                                       : 10
  192. ID in the original source medium         : 4773 (0x12A5)
  193. Format                                   : PGS
  194. Muxing mode                              : zlib
  195. Codec ID                                 : S_HDMV/PGS
  196. Codec ID/Info                            : Picture based subtitle format used on BDs/HD-DVDs
  197. Duration                                 : 2 h 7 min
  198. Bit rate                                 : 16.2 kb/s
  199. Count of elements                        : 1512
  200. Stream size                              : 14.8 MiB (0%)
  201. Title                                    : CHS
  202. Language                                 : Chinese
  203. Default                                  : No
  204. Forced                                   : No
  205. Original source medium                   : Blu-ray
  206. Text #7
  207. ID                                       : 11
  208. ID in the original source medium         : 4774 (0x12A6)
  209. Format                                   : PGS
  210. Muxing mode                              : zlib
  211. Codec ID                                 : S_HDMV/PGS
  212. Codec ID/Info                            : Picture based subtitle format used on BDs/HD-DVDs
  213. Duration                                 : 2 h 7 min
  214. Bit rate                                 : 16.9 kb/s
  215. Count of elements                        : 1512
  216. Stream size                              : 15.4 MiB (0%)
  217. Title                                    : CHT
  218. Language                                 : Chinese
  219. Default                                  : No
  220. Forced                                   : No
  221. Original source medium                   : Blu-ray
  222. Text #8
  223. ID                                       : 12
  224. ID in the original source medium         : 4775 (0x12A7)
  225. Format                                   : PGS
  226. Muxing mode                              : zlib
  227. Codec ID                                 : S_HDMV/PGS
  228. Codec ID/Info                            : Picture based subtitle format used on BDs/HD-DVDs
  229. Duration                                 : 2 h 7 min
  230. Bit rate                                 : 27.6 kb/s
  231. Count of elements                        : 1515
  232. Stream size                              : 25.1 MiB (0%)
  233. Title                                    : Chs&Eng
  234. Language                                 : Chinese
  235. Default                                  : Yes
  236. Forced                                   : No
  237. Original source medium                   : Blu-ray
  238. Text #9
  239. ID                                       : 13
  240. ID in the original source medium         : 4776 (0x12A8)
  241. Format                                   : PGS
  242. Muxing mode                              : zlib
  243. Codec ID                                 : S_HDMV/PGS
  244. Codec ID/Info                            : Picture based subtitle format used on BDs/HD-DVDs
  245. Duration                                 : 2 h 7 min
  246. Bit rate                                 : 28.2 kb/s
  247. Count of elements                        : 1515
  248. Stream size                              : 25.7 MiB (0%)
  249. Title                                    : Cht&Eng
  250. Language                                 : Chinese
  251. Default                                  : Yes
  252. Forced                                   : No
  253. Original source medium                   : Blu-ray
  254. Text #10
  255. ID                                       : 14
  256. Format                                   : PGS
  257. Muxing mode                              : zlib
  258. Codec ID                                 : S_HDMV/PGS
  259. Codec ID/Info                            : Picture based subtitle format used on BDs/HD-DVDs
  260. Duration                                 : 2 h 8 min
  261. Bit rate                                 : 20.1 kb/s
  262. Count of elements                        : 2000
  263. Stream size                              : 18.4 MiB (0%)
  264. Title                                    : CHS
  265. Language                                 : Chinese
  266. Default                                  : No
  267. Forced                                   : No
  268. Text #11
  269. ID                                       : 15
  270. Format                                   : PGS
  271. Muxing mode                              : zlib
  272. Codec ID                                 : S_HDMV/PGS
  273. Codec ID/Info                            : Picture based subtitle format used on BDs/HD-DVDs
  274. Duration                                 : 2 h 8 min
  275. Bit rate                                 : 19.9 kb/s
  276. Count of elements                        : 2000
  277. Stream size                              : 18.3 MiB (0%)
  278. Title                                    : CHT
  279. Language                                 : Chinese
  280. Default                                  : No
  281. Forced                                   : No
  282. Menu
  283. 00:00:00.000                             : en:Chapter 01
  284. 00:08:53.990                             : en:Chapter 02
  285. 00:15:47.613                             : en:Chapter 03
  286. 00:22:04.614                             : en:Chapter 04
  287. 00:30:23.695                             : en:Chapter 05
  288. 00:39:44.340                             : en:Chapter 06
  289. 00:46:18.400                             : en:Chapter 07
  290. 00:51:43.266                             : en:Chapter 08
  291. 00:58:14.032                             : en:Chapter 09
  292. 01:05:22.335                             : en:Chapter 10
  293. 01:11:55.019                             : en:Chapter 11
  294. 01:16:49.563                             : en:Chapter 12
  295. 01:23:36.094                             : en:Chapter 13
  296. 01:27:16.689                             : en:Chapter 14
  297. 01:35:42.862                             : en:Chapter 15
  298. 01:41:02.389                             : en:Chapter 16
  299. 01:46:38.225                             : en:Chapter 17
  300. 01:55:44.854                             : en:Chapter 18
  301. 02:01:06.967                             : en:Chapter 19
  302. 02:08:41.255                             : en:Chapter 20



此处一般会放置磁力链或种子下载链接,不过此链接需要注册会员才能看到,点击“立即注册”
磁力链下载【下载链接仅对注册会员开放,登陆后可见】
BT9527电影天堂 1、BT9527电影天堂提供的BT文件均来源于互联网抓取,只供网友学习交流、技术提升使用。
2、我们遵守BitTorrent点对点协议原则,任何版权问题请联系原资源发布商,我们不处理任何版权纠纷,谢谢!如有争议请联系邮箱:BT9527#hotmail.com(#换成@)
3、如果您发现某页面或地址有错误,请联系站长邮箱BT9527#hotmail.com(#换成@),我们会尽快处理。您的热心是对BT9527电影天堂最大的支持。
4、本站建议去正规影院观看电影以支持电影行业发展。
最新回复 (0)

你可以在 登录 or 注册 后,对此帖发表评论!

返回
发新帖