北欧人[简体字幕].The.Northman.2022.BluRay.1080p.x265.10bit.DDP7.1-MiniHD 9.35GB

版主小s 13天前 47

✔资源类型:暂未分类   ✔电影年份:2022   ✔电影地区:欧美   ✔电影分类:剧情

◎译  名 北欧人 / 北方人(台)
◎片  名 The Northman
◎年  代 2022
◎产  地 美国
◎类  别 剧情
◎语  言 英语
◎上映日期 2022-04-15(英国) / 2022-04-22(美国) / 2022-05-13(美国网络)
◎IMDb链接 https://www.imdb.com/title/tt11138512/
◎豆瓣评分 6.4/10 (16529人评价)
◎豆瓣链接 https://movie.douban.com/subject/34861178/
◎片  长 137分钟
◎导  演 罗伯特·艾格斯 Robert Eggers (id:1351393)
◎编  剧 罗伯特·艾格斯 Robert Eggers (id:1351393)
       秀恩·西古尔德森 Sjón Sigurdsson (id:1052018)
◎演  员 亚历山大·斯卡斯加德 Alexander Skarsg?rd (id:1049485)
       妮可·基德曼 Nicole Kidman (id:1054442)
       克拉斯·邦 Claes Bang (id:1067129)
       伊桑·霍克 Ethan Hawke (id:1018984)
       安雅·泰勒-乔伊 Anya Taylor-Joy (id:1354934)
       古斯塔夫·林德 Gustav Lindh (id:1413706)
       艾略特·罗斯 Elliott Rose (id:1470646)
       威廉·达福 Willem Dafoe (id:1010539)
       菲尔·马丁 Phill Martin (id:1470647)
       埃尔达·斯卡 Eldar Skar (id:1360101)
       欧文·弗热瑞 Olwen Fouéré (id:1355887)
       埃德加·阿布拉姆 Edgar Abram (id:1470650)
       杰克·加斯曼 Jack Gassmann (id:1470651)
       英格瓦·埃盖特·西古德松 Ingvar Eggert Siguresson (id:1041279)
       奥斯卡·诺瓦克 Oscar Novak (id:1470648)
       杰克·沃尔什 Jack Walsh (id:1363036)
       比约克 Bj?rk (id:1054628)
       伊恩·怀特 Ian Whyte (id:1183951)
       凯蒂·帕廷森 Katie Pattinson (id:1470649)
       凯特·迪基 Kate Dickie (id:1282399)
       谢默斯·奥哈拉 Seamus O'Hara (id:1453625)
       塔格·墨菲 Tadhg Murphy (id:1308673)
       哈弗波·朱利尔斯·比昂森 Haftór Júlíus Bj?rnsson (id:1347773)
       拉尔夫·伊内森 Ralph Ineson (id:1108378)
       默里·麦克阿瑟 Murray McArthur (id:1117558)
       乔恩·坎普林 Jon Campling (id:1218535)
       迈克尔·舍费尔 Michael Schaefer (id:1355118)
       露易丝·福特 Louise Ford (id:1450155)
        Linda Muir (id:1471352)

◎简  介
  一名年轻的维京王子,为了遭到谋杀的父亲,踏上一场冒险的复仇之路。
  1. ##### MediaInfo ######
  2. General
  3. Unique ID                                : 304761352338108737974751156349022414211 (0xE546E6C48255E0FDEEE475613F5AA583)
  4. Complete name                            : The.Northman.2022.BluRay.1080p.x265.10bit.DDP7.1-MiniHD.mkv
  5. Format                                   : Matroska
  6. Format version                           : Version 4
  7. File size                                : 9.35 GiB
  8. Duration                                 : 2 h 16 min
  9. Overall bit rate                         : 9 774 kb/s
  10. Encoded date                             : UTC 2022-06-10 10:26:03
  11. Writing application                      : mkvmerge v68.0.0 ('The Curtain') 64-bit
  12. Writing library                          : libebml v1.4.2 + libmatroska v1.6.4
  13. Video
  14. ID                                       : 1
  15. Format                                   : HEVC
  16. Format/Info                              : High Efficiency Video Coding
  17. Format profile                           : Main 10@L5@High
  18. Codec ID                                 : V_MPEGH/ISO/HEVC
  19. Duration                                 : 2 h 16 min
  20. Bit rate                                 : 8 222 kb/s
  21. Width                                    : 1 920 pixels
  22. Height                                   : 960 pixels
  23. Display aspect ratio                     : 2.000
  24. Frame rate mode                          : Constant
  25. Frame rate                               : 23.976 (24000/1001/53354) FPS
  26. Color space                              : YUV
  27. Chroma subsampling                       : 4:2:0
  28. Bit depth                                : 10 bits
  29. Bits/(Pixel*Frame)                       : 0.186
  30. Stream size                              : 7.86 GiB (84%)
  31. Writing library                          : x265 3.5+20-17839cc0d:[Windows][GCC 11.2.0][64 bit] 10bit
  32. Encoding settings                        : cpuid=533541111039 / frame-threads=5 / numa-pools=24,24 / wpp / no-pmode / no-pme / no-psnr / no-ssim / log-level=2 / input-csp=1 / input-res=1920x960 / interlace=0 / total-frames=196928 / level-idc=0 / high-tier=1 / uhd-bd=0 / ref=5 / no-allow-non-conformance / no-repeat-headers / annexb / no-aud / no-eob / no-eos / no-hrd / info / hash=0 / no-temporal-layers / no-open-gop / min-keyint=23 / keyint=250 / gop-lookahead=0 / bframes=9 / b-adapt=2 / b-pyramid / bframe-bias=0 / rc-lookahead=60 / lookahead-slices=0 / NTMzNTQ=uuDQuD2mJt9fsCf / scenecut=40 / no-hist-scenecut / radl=0 / no-splice / no-intra-refresh / ctu=32 / min-cu-size=8 / no-rect / no-amp / max-tu-size=32 / tu-inter-depth=4 / tu-intra-depth=4 / limit-tu=0 / rdoq-level=2 / dynamic-rd=0.00 / no-ssim-rd / signhide / no-tskip / nr-intra=0 / nr-inter=0 / no-constrained-intra / no-strong-intra-smoothing / max-merge=5 / limit-refs=0 / no-limit-modes / me=3 / subme=5 / merange=57 / temporal-mvp / no-frame-dup / no-hme / weightp / weightb / no-analyze-src-pics / deblock=-1:-1 / no-sao / no-sao-non-deblock / rd=4 / selective-sao=0 / no-early-skip / no-rskip / no-fast-intra / no-tskip-fast / no-cu-lossless / b-intra / no-splitrd-skip / rdpenalty=0 / psy-rd=2.00 / psy-rdoq=5.00 / no-rd-refine / no-lossless / cbqpoffs=0 / crqpoffs=0 / rc=crf / crf=21.5 / qcomp=0.70 / qpstep=4 / stats-write=0 / stats-read=0 / vbv-maxrate=100000 / vbv-bufsize=100000 / vbv-init=0.9 / min-vbv-fullness=50.0 / max-vbv-fullness=80.0 / crf-max=0.0 / crf-min=0.0 / ipratio=1.40 / pbratio=1.30 / aq-mode=1 / aq-strength=0.90 / no-cutree / zone-count=0 / no-strict-cbr / qg-size=32 / no-rc-grain / qpmax=69 / qpmin=0 / no-const-vbv / sar=0 / overscan=0 / videoformat=5 / range=0 / colorprim=1 / transfer=1 / colormatrix=1 / chromaloc=0 / display-window=0 / cll=0,0 / min-luma=0 / max-luma=1023 / log2-max-poc-lsb=8 / vui-timing-info / vui-hrd-info / slices=1 / no-opt-qp-pps / no-opt-ref-list-length-pps / no-multi-pass-opt-rps / scenecut-bias=0.05 / hist-threshold=0.03 / no-opt-cu-delta-qp / no-aq-motion / no-hdr10 / no-hdr10-opt / no-dhdr10-opt / no-idr-recovery-sei / analysis-reuse-level=0 / analysis-save-reuse-level=0 / analysis-load-reuse-level=0 / scale-factor=0 / refine-intra=0 / refine-inter=0 / refine-mv=1 / refine-ctu-distortion=0 / no-limit-sao / ctu-info=0 / no-lowpass-dct / refine-analysis-type=0 / copy-pic=1 / max-ausize-factor=1.0 / no-dynamic-refine / no-single-sei / no-hevc-aq / no-svt / no-field / qp-adaptation-range=1.00 / scenecut-aware-qp=0conformance-window-offsets / right=0 / bottom=0 / NTMzNTQ= / decoder-max-rate=0 / no-vbv-live-multi-pass
  33. Default                                  : Yes
  34. Forced                                   : No
  35. Color range                              : Limited
  36. Color primaries                          : BT.709
  37. Transfer characteristics                 : BT.709
  38. Matrix coefficients                      : BT.709
  39. Audio
  40. ID                                       : 2
  41. Format                                   : E-AC-3
  42. Format/Info                              : Enhanced AC-3
  43. Commercial name                          : Dolby Digital Plus
  44. Format profile                           : Blu-ray Disc
  45. Codec ID                                 : A_EAC3
  46. Duration                                 : 2 h 16 min
  47. Bit rate mode                            : Constant
  48. Bit rate                                 : 1 536 kb/s
  49. Channel(s)                               : 8 channels
  50. Channel layout                           : L R C LFE Ls Rs Lb Rb
  51. Sampling rate                            : 48.0 kHz
  52. Frame rate                               : 31.250 FPS (1536 SPF)
  53. Compression mode                         : Lossy
  54. Stream size                              : 1.47 GiB (16%)
  55. Language                                 : English
  56. Service kind                             : Complete Main
  57. Default                                  : Yes
  58. Forced                                   : No
  59. Text
  60. ID                                       : 3
  61. ID in the original source medium         : 4615 (0x1207)
  62. Format                                   : PGS
  63. Muxing mode                              : zlib
  64. Codec ID                                 : S_HDMV/PGS
  65. Codec ID/Info                            : Picture based subtitle format used on BDs/HD-DVDs
  66. Duration                                 : 2 h 7 min
  67. Bit rate                                 : 28.0 kb/s
  68. Count of elements                        : 1475
  69. Stream size                              : 25.5 MiB (0%)
  70. Title                                    : chs&eng
  71. Language                                 : Chinese
  72. Default                                  : Yes
  73. Forced                                   : No
  74. Original source medium                   : Blu-ray
  75. Menu
  76. 00:00:00.000                             : Chapter01
  77. 00:08:53.991                             : Chapter02
  78. 00:15:47.613                             : Chapter03
  79. 00:22:04.614                             : Chapter04
  80. 00:30:23.696                             : Chapter05
  81. 00:39:44.340                             : Chapter06
  82. 00:46:18.400                             : Chapter07
  83. 00:51:43.266                             : Chapter08
  84. 00:58:14.032                             : Chapter09
  85. 01:05:22.335                             : Chapter10
  86. 01:11:55.019                             : Chapter11
  87. 01:16:49.563                             : Chapter12
  88. 01:23:36.094                             : Chapter13
  89. 01:27:16.689                             : Chapter14
  90. 01:35:42.862                             : Chapter15
  91. 01:41:02.389                             : Chapter16
  92. 01:46:38.225                             : Chapter17
  93. 01:55:44.854                             : Chapter18
  94. 02:01:06.968                             : Chapter19
  95. 02:08:41.255                             : Chapter20





此处一般会放置磁力链或种子下载链接,不过此链接需要注册会员才能看到,点击“立即注册”
磁力链下载【下载链接仅对注册会员开放,登陆后可见】
BT9527电影天堂 1、BT9527电影天堂提供的BT文件均来源于互联网抓取,只供网友学习交流、技术提升使用。
2、我们遵守BitTorrent点对点协议原则,任何版权问题请联系原资源发布商,我们不处理任何版权纠纷,谢谢!如有争议请联系邮箱:BT9527#hotmail.com(#换成@)
3、如果您发现某页面或地址有错误,请联系站长邮箱BT9527#hotmail.com(#换成@),我们会尽快处理。您的热心是对BT9527电影天堂最大的支持。
4、本站建议去正规影院观看电影以支持电影行业发展。
最新回复 (0)

你可以在 登录 or 注册 后,对此帖发表评论!

返回
发新帖