冷血悍将[简体字幕].Without.Remorse.2021.BluRay.1080p.x265.10bit.DDP5.1-MiniHD 7.96GB

版主小s 17天前 82

✔资源类型:暂未分类   ✔电影年份:2021   ✔电影地区:欧美   ✔电影分类:动作

◎译  名 冷血悍将 / 无悔
◎片  名 Without Remorse
◎年  代 2021
◎产  地 美国
◎类  别 动作 / 惊悚
◎语  言 英语
◎上映日期 2021-04-30(美国网络)
◎IMDb链接 https://www.imdb.com/title/tt0499097/
◎豆瓣评分 5.7/10 (8679人评价)
◎豆瓣链接 https://movie.douban.com/subject/3010409/
◎片  长 109分钟
◎导  演 斯特法诺·索利马 Stefano Sollima (id:1046134)
◎编  剧 泰勒·谢里丹 Taylor Sheridan (id:1340379)
       威尔·斯特普尔斯 Will Staples (id:1446538)
       汤姆·克兰西 Tom Clancy (id:1055015)
       阿齐瓦·高斯曼 Akiva Goldsman (id:1009507)
◎演  员 迈克尔·B·乔丹 Michael B. Jordan (id:1107320)
       朱迪·特纳-史密斯 Jodie Turner-Smith (id:1397699)
       杰米·贝尔 Jamie Bell (id:1053616)
       盖·皮尔斯 Guy Pearce (id:1035672)
       劳伦·伦敦 Lauren London (id:1036529)
       雅各布·西皮奥 Jacob Scipio (id:1426522)
       托德·拉桑斯 Todd Lasance (id:1254278)
       杰克·凯西 Jack Kesy (id:1326422)
       露西·拉塞尔 Lucy Russell (id:1275142)
       凯姆·吉甘戴 Cam Gigandet (id:1022576)
       卢克·米切尔 Luke Mitchell (id:1188456)
       亚特乔姆·吉尔茨 Artjom Gilz (id:1424453)
       布伦特·吉尔曼 Brett Gelman (id:1338062)
       梅拉布·尼尼泽 Merab Ninidze (id:1041681)
       亚历山大·梅尔库里 Alexander Mercury (id:1332314)
       科尔曼·多明戈 Colman Domingo (id:1088744)
       德里克·梅森堡 Derek Meisenburg (id:1449602)
       梅尔·法尔 Mel Fair (id:1188089)
       乔治·阿斯普雷 George Asprey (id:1437028)
       卡兹·陶吉纳斯 Kazy Tauginas (id:1414161)
       汤姆·科利 Tom Colley (id:1437978)
       玛丽索尔·科雷亚 Marisol Correa (id:1391400)
       里奇·格拉夫 Rich Graff (id:1351666)
       希妮·拉芙尔 Sydney Lafaire (id:1426514)
       罗伯特?马瑟 Robert Maaser (id:1414390)
       阿德里安·劳林斯 Adrian Rawlins (id:1141625)
       凯特·萨普特 Kate Sumpter (id:1403710)
       亚历山大·雅辛 Alexander Yassin (id:1395235)
       克莱·方特诺特 Clay Donahue Fontenot (id:1283950)
       迈克尔·奥维茨 Michael Ovitz (id:1037173)
       蒂芙妮·哈斯伯恩 Tiffany Hasbourne (id:1425926)

◎简  介
  本片由斯特法诺·索利马执导,泰勒·谢里丹担任编剧,根据汤姆·克兰西创作同名小说改编,讲述前特种兵约翰·克拉克(乔丹饰)女友被贩毒组织杀害,可就在他决定复仇时,华盛顿高管要求他完成解救高级军官的秘密任务。杰米·贝尔仍在就加盟本片进行最后谈判。
  1. ##### MediaInfo ######
  2. General
  3. Unique ID                                : 134592234900495150129315380914566432323 (0x654185842630916FA442AEF58FCF8643)
  4. Complete name                            : Without.Remorse.2021.BluRay.1080p.x265.10bit.DDP5.1-MiniHD.mkv
  5. Format                                   : Matroska
  6. Format version                           : Version 4
  7. File size                                : 7.96 GiB
  8. Duration                                 : 1 h 49 min
  9. Overall bit rate                         : 10.4 Mb/s
  10. Encoded date                             : UTC 2022-06-11 12:13:08
  11. Writing application                      : mkvmerge v68.0.0 ('The Curtain') 64-bit
  12. Writing library                          : libebml v1.4.2 + libmatroska v1.6.4
  13. Video
  14. ID                                       : 1
  15. Format                                   : HEVC
  16. Format/Info                              : High Efficiency Video Coding
  17. Format profile                           : Main 10@L5@High
  18. Codec ID                                 : V_MPEGH/ISO/HEVC
  19. Duration                                 : 1 h 49 min
  20. Bit rate                                 : 9 381 kb/s
  21. Width                                    : 1 920 pixels
  22. Height                                   : 804 pixels
  23. Display aspect ratio                     : 2.40:1
  24. Frame rate mode                          : Constant
  25. Frame rate                               : 23.976 (24000/1001/53354) FPS
  26. Color space                              : YUV
  27. Chroma subsampling                       : 4:2:0
  28. Bit depth                                : 10 bits
  29. Bits/(Pixel*Frame)                       : 0.253
  30. Stream size                              : 7.17 GiB (90%)
  31. Writing library                          : x265 3.5+20-17839cc0d:[Windows][GCC 11.2.0][64 bit] 10bit
  32. Encoding settings                        : cpuid=533541111039 / frame-threads=5 / numa-pools=24,24 / wpp / no-pmode / no-pme / no-psnr / no-ssim / log-level=2 / input-csp=1 / input-res=1920x804 / interlace=0 / total-frames=157303 / level-idc=0 / high-tier=1 / uhd-bd=0 / ref=5 / no-allow-non-conformance / no-repeat-headers / annexb / no-aud / no-eob / no-eos / no-hrd / info / hash=0 / no-temporal-layers / no-open-gop / min-keyint=23 / keyint=250 / gop-lookahead=0 / bframes=9 / b-adapt=2 / b-pyramid / bframe-bias=0 / rc-lookahead=60 / lookahead-slices=0 / NTMzNTQ=uuDQuD2mJt9fsCf / scenecut=40 / no-hist-scenecut / radl=0 / no-splice / no-intra-refresh / ctu=32 / min-cu-size=8 / no-rect / no-amp / max-tu-size=32 / tu-inter-depth=4 / tu-intra-depth=4 / limit-tu=0 / rdoq-level=2 / dynamic-rd=0.00 / no-ssim-rd / signhide / no-tskip / nr-intra=0 / nr-inter=0 / no-constrained-intra / no-strong-intra-smoothing / max-merge=5 / limit-refs=0 / no-limit-modes / me=3 / subme=5 / merange=57 / temporal-mvp / no-frame-dup / no-hme / weightp / weightb / no-analyze-src-pics / deblock=-1:-1 / no-sao / no-sao-non-deblock / rd=4 / selective-sao=0 / no-early-skip / no-rskip / no-fast-intra / no-tskip-fast / no-cu-lossless / b-intra / no-splitrd-skip / rdpenalty=0 / psy-rd=2.00 / psy-rdoq=5.00 / no-rd-refine / no-lossless / cbqpoffs=0 / crqpoffs=0 / rc=crf / crf=20.0 / qcomp=0.70 / qpstep=4 / stats-write=0 / stats-read=0 / vbv-maxrate=100000 / vbv-bufsize=100000 / vbv-init=0.9 / min-vbv-fullness=50.0 / max-vbv-fullness=80.0 / crf-max=0.0 / crf-min=0.0 / ipratio=1.40 / pbratio=1.30 / aq-mode=1 / aq-strength=0.90 / no-cutree / zone-count=0 / no-strict-cbr / qg-size=32 / no-rc-grain / qpmax=69 / qpmin=0 / no-const-vbv / sar=0 / overscan=0 / videoformat=5 / range=0 / colorprim=1 / transfer=1 / colormatrix=1 / chromaloc=0 / display-window=0 / cll=0,0 / min-luma=0 / max-luma=1023 / log2-max-poc-lsb=8 / vui-timing-info / vui-hrd-info / slices=1 / no-opt-qp-pps / no-opt-ref-list-length-pps / no-multi-pass-opt-rps / scenecut-bias=0.05 / hist-threshold=0.03 / no-opt-cu-delta-qp / no-aq-motion / no-hdr10 / no-hdr10-opt / no-dhdr10-opt / no-idr-recovery-sei / analysis-reuse-level=0 / analysis-save-reuse-level=0 / analysis-load-reuse-level=0 / scale-factor=0 / refine-intra=0 / refine-inter=0 / refine-mv=1 / refine-ctu-distortion=0 / no-limit-sao / ctu-info=0 / no-lowpass-dct / refine-analysis-type=0 / copy-pic=1 / max-ausize-factor=1.0 / no-dynamic-refine / no-single-sei / no-hevc-aq / no-svt / no-field / qp-adaptation-range=1.00 / scenecut-aware-qp=0conformance-window-offsets / right=0 / bottom=0 / NTMzNTQ= / decoder-max-rate=0 / no-vbv-live-multi-pass
  33. Default                                  : Yes
  34. Forced                                   : No
  35. Color range                              : Limited
  36. Color primaries                          : BT.709
  37. Transfer characteristics                 : BT.709
  38. Matrix coefficients                      : BT.709
  39. Audio
  40. ID                                       : 2
  41. Format                                   : E-AC-3
  42. Format/Info                              : Enhanced AC-3
  43. Commercial name                          : Dolby Digital Plus
  44. Codec ID                                 : A_EAC3
  45. Duration                                 : 1 h 49 min
  46. Bit rate mode                            : Constant
  47. Bit rate                                 : 1 024 kb/s
  48. Channel(s)                               : 6 channels
  49. Channel layout                           : L R C LFE Ls Rs
  50. Sampling rate                            : 48.0 kHz
  51. Frame rate                               : 31.250 FPS (1536 SPF)
  52. Compression mode                         : Lossy
  53. Stream size                              : 801 MiB (10%)
  54. Language                                 : English
  55. Service kind                             : Complete Main
  56. Default                                  : Yes
  57. Forced                                   : No
  58. Text
  59. ID                                       : 3
  60. ID in the original source medium         : 4631 (0x1217)
  61. Format                                   : PGS
  62. Muxing mode                              : zlib
  63. Codec ID                                 : S_HDMV/PGS
  64. Codec ID/Info                            : Picture based subtitle format used on BDs/HD-DVDs
  65. Duration                                 : 1 h 41 min
  66. Bit rate                                 : 39.6 kb/s
  67. Count of elements                        : 2085
  68. Stream size                              : 28.9 MiB (0%)
  69. Title                                    : chs&eng
  70. Language                                 : Chinese
  71. Default                                  : Yes
  72. Forced                                   : No
  73. Original source medium                   : Blu-ray
  74. Menu
  75. 00:00:00.000                             : Chapter01
  76. 00:08:25.671                             : Chapter02
  77. 00:20:08.999                             : Chapter03
  78. 00:29:31.227                             : Chapter04
  79. 00:36:07.498                             : Chapter05
  80. 00:44:25.371                             : Chapter06
  81. 00:52:03.870                             : Chapter07
  82. 01:02:20.695                             : Chapter08
  83. 01:12:53.619                             : Chapter09
  84. 01:23:26.876                             : Chapter10
  85. 01:30:14.951                             : Chapter11
  86. 01:40:01.870                             : Chapter12





此处一般会放置磁力链或种子下载链接,不过此链接需要注册会员才能看到,点击“立即注册”
磁力链下载【下载链接仅对注册会员开放,登陆后可见】
BT9527电影天堂 1、BT9527电影天堂提供的BT文件均来源于互联网抓取,只供网友学习交流、技术提升使用。
2、我们遵守BitTorrent点对点协议原则,任何版权问题请联系原资源发布商,我们不处理任何版权纠纷,谢谢!如有争议请联系邮箱:BT9527#hotmail.com(#换成@)
3、如果您发现某页面或地址有错误,请联系站长邮箱BT9527#hotmail.com(#换成@),我们会尽快处理。您的热心是对BT9527电影天堂最大的支持。
4、本站建议去正规影院观看电影以支持电影行业发展。
最新回复 (0)

你可以在 登录 or 注册 后,对此帖发表评论!

返回
发新帖