你好布拉德[简体字幕].Brad's.Status.2017.BluRay.1080p.x265.10bit.DDP5.1-MiniHD 6.09GB

版主小s 3月前 131

✔资源类型:暂未分类   ✔电影年份:2017   ✔电影地区:欧美   ✔电影分类:剧情

◎译  名 你好布拉德 / 人生剩利组(台) / 布拉德的中年危机
◎片  名 Brad's Status
◎年  代 2017
◎产  地 美国
◎类  别 剧情 / 喜剧 / 音乐
◎语  言 英语
◎上映日期 2017-09-09(多伦多电影节) / 2017-09-15(美国)
◎IMDb链接 https://www.imdb.com/title/tt5884230/
◎豆瓣评分 7.8/10 (15788人评价)
◎豆瓣链接 https://movie.douban.com/subject/26981174/
◎片  长 102分钟
◎导  演 麦克·怀特 Mike White (id:1163888)
◎编  剧 麦克·怀特 Mike White (id:1163888)
◎演  员 本·斯蒂勒 Ben Stiller (id:1054412)
       奥斯汀·艾布拉姆斯 Austin Abrams (id:1339630)
       珍娜·费舍 Jenna Fischer (id:1031813)
       麦克·辛 Michael Sheen (id:1004566)
       杰梅奈·克莱门特 Jemaine Clement (id:1013808)
       卢克·威尔逊 Luke Wilson (id:1049503)
       莎兹·拉亚 Shazi Raja (id:1381743)
       路易莎·李 Luisa Lee (id:1381744)
       麦克·怀特 Mike White (id:1163888)
       泽维尔·佩雷斯·格罗贝 Xavier Pérez Grobet (id:1028537)
       亚当·卡布里奥罗 Adam Capriolo (id:1381745)
       费利西亚·舒尔曼 Felicia Shulman (id:1381746)
       简·惠勒 Jane Wheeler (id:1381747)
       卡尔·格拉戈萨斯 Karl Graboshas (id:1397486)
       艾琳·阿戈斯蒂诺 Erin Agostino (id:1241365)
       弗兰克·方丹 Frank Fontaine (id:1083331)
       道恩·福特 Dawn Ford (id:1397485)
       斯皮罗·马兰隹克斯 Spiro Malandrakis (id:1212510)
       沙维尔·索特洛 Xavier Sotelo (id:1381748)
       吉米·坎摩尔 Jimmy Kimmel (id:1040719)
       亚历山大·贝朗格 Alexandre Bélanger (id:1265141)
       莱克西·罗斯 Lexie Roth (id:1393597)
       娜塔莉·希波蒂 Nathaly Thibault (id:1345419)
       阿德里安·M·蒙波因特 Adrian M. Mompoint (id:1413072)
       拉里·尤登 Larry Eudene (id:1446253)
       布拉德·皮特 Brad Pitt (id:1054452)
       迪·加德纳 Dede Gardner (id:1284552)
       杰瑞米·克莱纳 Jeremy Kleiner (id:1336137)
       马克·马瑟斯鲍夫 Mark Mothersbaugh (id:1048237)

◎简  介
  布拉德(本·斯蒂勒 Ben Stiller 饰)一直以来都是一名坚定的理想主义者,如今,他和妻子梅兰妮(珍娜·费舍 Jenna Fischer 饰)共同抚养着儿子特洛伊(奥斯汀·艾布拉姆斯 Austin Abrams)饰,与此同时,他还在经营着一家非营利性的组织,该组织专门在有需要的人和资本家之间牵线搭桥,帮助这些人获得资本的支持。                                    
                                某日,布拉德开始审视自己的这大半辈子,忽然产生了自己一文不值的感觉。他觉得他这么多年来所有的理念,所做出的的全部努力都没有任何的意义。他不能给人带来实质性的帮助,同时也无法给家人带来更优渥的生活条件,而和他同龄的那些大学同学们现在都成为了各领域内的中坚分子。布拉德的整个人生都被自己否定了。

◎获奖情况 (共1项)
  第27届哥谭独立电影奖 (2017)
  最佳剧本(提名)
   └──麦克·怀特 (id:1163888)

  1. ##### MediaInfo ######
  2. General
  3. Unique ID                                : 185061966886431171159485835055613887091 (0x8B39A36B852A428974BFD1E5E0484273)
  4. Complete name                            : Brad's.Status.2017.BluRay.1080p.x265.10bit.DDP5.1-MiniHD.mkv
  5. Format                                   : Matroska
  6. Format version                           : Version 4
  7. File size                                : 6.09 GiB
  8. Duration                                 : 1 h 41 min
  9. Overall bit rate                         : 8 550 kb/s
  10. Encoded date                             : UTC 2022-06-13 12:02:26
  11. Writing application                      : mkvmerge v68.0.0 ('The Curtain') 64-bit
  12. Writing library                          : libebml v1.4.2 + libmatroska v1.6.4
  13. Video
  14. ID                                       : 1
  15. Format                                   : HEVC
  16. Format/Info                              : High Efficiency Video Coding
  17. Format profile                           : Main 10@L5@High
  18. Codec ID                                 : V_MPEGH/ISO/HEVC
  19. Duration                                 : 1 h 41 min
  20. Bit rate                                 : 7 490 kb/s
  21. Width                                    : 1 920 pixels
  22. Height                                   : 956 pixels
  23. Display aspect ratio                     : 2.008
  24. Frame rate mode                          : Constant
  25. Frame rate                               : 23.976 (24000/1001/53354) FPS
  26. Color space                              : YUV
  27. Chroma subsampling                       : 4:2:0
  28. Bit depth                                : 10 bits
  29. Bits/(Pixel*Frame)                       : 0.170
  30. Stream size                              : 5.33 GiB (88%)
  31. Writing library                          : x265 3.5+20-17839cc0d:[Windows][GCC 11.2.0][64 bit] 10bit
  32. Encoding settings                        : cpuid=533541111039 / frame-threads=5 / numa-pools=24,24 / wpp / no-pmode / no-pme / no-psnr / no-ssim / log-level=2 / input-csp=1 / input-res=1920x956 / interlace=0 / total-frames=146680 / level-idc=0 / high-tier=1 / uhd-bd=0 / ref=5 / no-allow-non-conformance / no-repeat-headers / annexb / no-aud / no-eob / no-eos / no-hrd / info / hash=0 / no-temporal-layers / no-open-gop / min-keyint=23 / keyint=250 / gop-lookahead=0 / bframes=9 / b-adapt=2 / b-pyramid / bframe-bias=0 / rc-lookahead=60 / lookahead-slices=0 / NTMzNTQ=uuDQuD2mJt9fsCf / scenecut=40 / no-hist-scenecut / radl=0 / no-splice / no-intra-refresh / ctu=32 / min-cu-size=8 / no-rect / no-amp / max-tu-size=32 / tu-inter-depth=4 / tu-intra-depth=4 / limit-tu=0 / rdoq-level=2 / dynamic-rd=0.00 / no-ssim-rd / signhide / no-tskip / nr-intra=0 / nr-inter=0 / no-constrained-intra / no-strong-intra-smoothing / max-merge=5 / limit-refs=0 / no-limit-modes / me=3 / subme=5 / merange=57 / temporal-mvp / no-frame-dup / no-hme / weightp / weightb / no-analyze-src-pics / deblock=-1:-1 / no-sao / no-sao-non-deblock / rd=4 / selective-sao=0 / no-early-skip / no-rskip / no-fast-intra / no-tskip-fast / no-cu-lossless / b-intra / no-splitrd-skip / rdpenalty=0 / psy-rd=2.00 / psy-rdoq=5.00 / no-rd-refine / no-lossless / cbqpoffs=0 / crqpoffs=0 / rc=crf / crf=22.5 / qcomp=0.70 / qpstep=4 / stats-write=0 / stats-read=0 / vbv-maxrate=100000 / vbv-bufsize=100000 / vbv-init=0.9 / min-vbv-fullness=50.0 / max-vbv-fullness=80.0 / crf-max=0.0 / crf-min=0.0 / ipratio=1.40 / pbratio=1.30 / aq-mode=1 / aq-strength=0.90 / no-cutree / zone-count=0 / no-strict-cbr / qg-size=32 / no-rc-grain / qpmax=69 / qpmin=0 / no-const-vbv / sar=0 / overscan=0 / videoformat=5 / range=0 / colorprim=1 / transfer=1 / colormatrix=1 / chromaloc=0 / display-window=0 / cll=0,0 / min-luma=0 / max-luma=1023 / log2-max-poc-lsb=8 / vui-timing-info / vui-hrd-info / slices=1 / no-opt-qp-pps / no-opt-ref-list-length-pps / no-multi-pass-opt-rps / scenecut-bias=0.05 / hist-threshold=0.03 / no-opt-cu-delta-qp / no-aq-motion / no-hdr10 / no-hdr10-opt / no-dhdr10-opt / no-idr-recovery-sei / analysis-reuse-level=0 / analysis-save-reuse-level=0 / analysis-load-reuse-level=0 / scale-factor=0 / refine-intra=0 / refine-inter=0 / refine-mv=1 / refine-ctu-distortion=0 / no-limit-sao / ctu-info=0 / no-lowpass-dct / refine-analysis-type=0 / copy-pic=1 / max-ausize-factor=1.0 / no-dynamic-refine / no-single-sei / no-hevc-aq / no-svt / no-field / qp-adaptation-range=1.00 / scenecut-aware-qp=0conformance-window-offsets / right=0 / bottom=0 / NTMzNTQ= / decoder-max-rate=0 / no-vbv-live-multi-pass
  33. Default                                  : Yes
  34. Forced                                   : No
  35. Color range                              : Limited
  36. Color primaries                          : BT.709
  37. Transfer characteristics                 : BT.709
  38. Matrix coefficients                      : BT.709
  39. Audio
  40. ID                                       : 2
  41. Format                                   : E-AC-3
  42. Format/Info                              : Enhanced AC-3
  43. Commercial name                          : Dolby Digital Plus
  44. Codec ID                                 : A_EAC3
  45. Duration                                 : 1 h 41 min
  46. Bit rate mode                            : Constant
  47. Bit rate                                 : 1 024 kb/s
  48. Channel(s)                               : 6 channels
  49. Channel layout                           : L R C LFE Ls Rs
  50. Sampling rate                            : 48.0 kHz
  51. Frame rate                               : 31.250 FPS (1536 SPF)
  52. Compression mode                         : Lossy
  53. Stream size                              : 747 MiB (12%)
  54. Language                                 : English
  55. Service kind                             : Complete Main
  56. Default                                  : Yes
  57. Forced                                   : No
  58. Text
  59. ID                                       : 3
  60. ID in the original source medium         : 4611 (0x1203)
  61. Format                                   : PGS
  62. Muxing mode                              : zlib
  63. Codec ID                                 : S_HDMV/PGS
  64. Codec ID/Info                            : Picture based subtitle format used on BDs/HD-DVDs
  65. Duration                                 : 1 h 40 min
  66. Bit rate                                 : 62.9 kb/s
  67. Count of elements                        : 3333
  68. Stream size                              : 45.2 MiB (1%)
  69. Title                                    : chs&eng
  70. Language                                 : Chinese
  71. Default                                  : Yes
  72. Forced                                   : No
  73. Original source medium                   : Blu-ray
  74. Menu
  75. 00:00:00.000                             : en:Chapter01
  76. 00:06:45.655                             : en:Chapter02
  77. 00:09:51.549                             : en:Chapter03
  78. 00:13:41.821                             : en:Chapter04
  79. 00:19:08.647                             : en:Chapter05
  80. 00:25:13.929                             : en:Chapter06
  81. 00:31:48.615                             : en:Chapter07
  82. 00:34:22.769                             : en:Chapter08
  83. 00:39:59.063                             : en:Chapter09
  84. 00:43:55.507                             : en:Chapter10
  85. 00:49:21.041                             : en:Chapter11
  86. 00:56:21.503                             : en:Chapter12
  87. 01:03:05.156                             : en:Chapter13
  88. 01:07:03.769                             : en:Chapter14
  89. 01:10:27.306                             : en:Chapter15
  90. 01:15:14.801                             : en:Chapter16
  91. 01:22:07.047                             : en:Chapter17
  92. 01:27:11.267                             : en:Chapter18
  93. 01:31:19.265                             : en:Chapter19
  94. 01:35:28.723                             : en:Chapter20





此处一般会放置磁力链或种子下载链接,不过此链接需要注册会员才能看到,点击“立即注册”
磁力链下载【下载链接仅对注册会员开放,登陆后可见】
BT9527电影天堂 1、BT9527电影天堂提供的BT文件均来源于互联网抓取,只供网友学习交流、技术提升使用。
2、我们遵守BitTorrent点对点协议原则,任何版权问题请联系原资源发布商,我们不处理任何版权纠纷,谢谢!如有争议请联系邮箱:BT9527#hotmail.com(#换成@)
3、如果您发现某页面或地址有错误,请联系站长邮箱BT9527#hotmail.com(#换成@),我们会尽快处理。您的热心是对BT9527电影天堂最大的支持。
4、本站建议去正规影院观看电影以支持电影行业发展。
最新回复 (0)

你可以在 登录 or 注册 后,对此帖发表评论!

返回