亡命救护车[简繁英字幕].Ambulance.2022.1080p.BluRay.x265.10bit.DDP7.1-MiniHD 9.30GB

版主小s 17天前 41

✔资源类型:暂未分类   ✔电影年份:2022   ✔电影地区:欧美   ✔电影分类:动作

◎译  名 亡命救护车 / 救护车 / 劫命救护(台) / 十字冲锋车(港)
◎片  名 Ambulance
◎年  代 2022
◎产  地 美国
◎类  别 动作 / 犯罪
◎语  言 英语
◎上映日期 2022-04-22(中国大陆) / 2022-04-08(美国)
◎IMDb链接 https://www.imdb.com/title/tt4998632/
◎豆瓣评分 5.6/10 (21166人评价)
◎豆瓣链接 https://movie.douban.com/subject/35250237/
◎片  长 136分钟
◎导  演 迈克尔·贝 Michael Bay (id:1027776)
◎编  剧 克里斯·费达克 Chris Fedak (id:1319798)
       劳里茨·茫奇-彼得森 Laurits Munch-Petersen (id:1126201)
       拉斯·安德烈亚斯·佩德森 Lars Andreas Pedersen (id:1010432)
◎演  员 杰克·吉伦哈尔 Jake Gyllenhaal (id:1048002)
       叶海亚·阿卜杜勒-迈丁 Yahya Abdul-Mateen II (id:1374708)
       艾莎·冈萨雷斯 Eiza González (id:1233270)
       加瑞特·迪拉胡特 Garret Dillahunt (id:1036365)
       基尔·奥唐纳 Keir O'Donnell (id:1040575)
       杰克逊·怀特 Jackson White (id:1425585)
       奥利维亚·斯坦布利亚 Olivia Stambouliah (id:1256030)
       摩西·英格拉姆 Moses Ingram (id:1446415)
       科林·伍德尔 Colin Woodell (id:1340880)
       塞德里克·桑德斯 Cedric Sanders (id:1240253)
       A·马丁内斯 A Martinez (id:1125486)
       杰西·加西亚 Jesse Garcia (id:1339720)
       何塞·巴勃罗·坎蒂略 Jose Pablo Cantillo (id:1000476)
       威尔 Wale (id:1253455)
       德文·隆恩 Devan Long (id:1413539)
       维克多·高佳卡 Victor Gojcaj (id:1226282)
       杰米·麦克布莱德 Jamie McBride (id:1000740)
       珍·普罗斯克 Jenn Proske (id:1315966)
       凯利·陈 Kayli Tran (id:1423781)
       布兰登·罗宾逊 Brendan Robinson (id:1316961)
       安娜贝勒·格维奇 Annabelle Gurwitch (id:1041271)
       刘慈慈 Cici Lau (id:1438404)
       切尔西哈里斯 Chelsea Harris (id:1222987)
       安迪·费儒 Andy Favreau (id:1390048)
       艾恩 Ayne (id:1450293)
       加里·西弗斯  (id:1472214)

◎简  介
  本片翻拍自2005年同名丹麦电影,功勋退伍士兵威尔·夏普(叶海亚·阿卜杜勒-迈丁 饰)为救妻子情急之下找到养兄弟丹尼(杰克·吉伦哈尔 饰)求助,却因此被卷入洛杉矶史上最大金额银行抢劫案。在脱身中出现的致命差池,迫使二人挟持了一辆载有一名垂危警察和一位顶尖急救专家卡姆·汤普森(艾莎·冈萨雷斯 饰)的救护车。在这场持久的高速追逐中,威尔和丹尼极力躲避全城警察的大规模搜捕、保证人质的生命安全、努力不对兄弟拔刀相向,同时完成这场洛杉矶有史以来最疯狂且惊险刺激的逃脱。
  1. ##### MediaInfo ######
  2. General
  3. Unique ID                                : 245716073131495933508591998748365819418 (0xB8DB31BE0BBB59F29239A3176E620E1A)
  4. Complete name                            : Ambulance.2022.1080p.BluRay.x265.10bit.DDP7.1-MiniHD.mkv
  5. Format                                   : Matroska
  6. Format version                           : Version 4
  7. File size                                : 9.30 GiB
  8. Duration                                 : 2 h 16 min
  9. Overall bit rate                         : 9 761 kb/s
  10. Movie name                               : Ambulance (2022)
  11. Encoded date                             : UTC 2022-06-06 10:59:01
  12. Writing application                      : mkvmerge v66.0.0 ('Josie') 64-bit
  13. Writing library                          : libebml v1.4.2 + libmatroska v1.6.4
  14. Cover                                    : Yes
  15. Attachments                              : cover.jpg
  16. Video
  17. ID                                       : 1
  18. Format                                   : HEVC
  19. Format/Info                              : High Efficiency Video Coding
  20. Format profile                           : Main 10@L5.1@High
  21. Codec ID                                 : V_MPEGH/ISO/HEVC
  22. Duration                                 : 2 h 16 min
  23. Bit rate                                 : 8 038 kb/s
  24. Width                                    : 1 920 pixels
  25. Height                                   : 804 pixels
  26. Display aspect ratio                     : 2.40:1
  27. Frame rate mode                          : Constant
  28. Frame rate                               : 23.976 (24000/1001/53354) FPS
  29. Color space                              : YUV
  30. Chroma subsampling                       : 4:2:0
  31. Bit depth                                : 10 bits
  32. Bits/(Pixel*Frame)                       : 0.217
  33. Stream size                              : 7.65 GiB (82%)
  34. Writing library                          : x265 3.5+29-3415705dd:[Windows][MSVC 1930][64 bit] 10bit
  35. Encoding settings                        : cpuid=533541111039 / frame-threads=4 / numa-pools=16 / wpp / pmode / no-pme / no-psnr / no-ssim / log-level=2 / input-csp=1 / input-res=1920x804 / interlace=0 / total-frames=196128 / level-idc=0 / high-tier=1 / uhd-bd=0 / ref=6 / no-allow-non-conformance / no-repeat-headers / annexb / no-aud / no-eob / no-eos / no-hrd / info / hash=0 / no-temporal-layers / no-open-gop / min-keyint=1 / keyint=250 / gop-lookahead=0 / bframes=8 / b-adapt=2 / b-pyramid / bframe-bias=0 / rc-lookahead=100 / lookahead-slices=0 / NTMzNTQ=uuDQuD2mJt9fsCf / scenecut=40 / no-hist-scenecut / radl=0 / no-splice / no-intra-refresh / ctu=32 / min-cu-size=8 / no-rect / no-amp / max-tu-size=32 / tu-inter-depth=4 / tu-intra-depth=4 / limit-tu=0 / rdoq-level=2 / dynamic-rd=0.00 / no-ssim-rd / signhide / no-tskip / nr-intra=0 / nr-inter=0 / no-constrained-intra / no-strong-intra-smoothing / max-merge=5 / limit-refs=0 / no-limit-modes / me=3 / subme=7 / merange=57 / temporal-mvp / no-frame-dup / no-hme / weightp / weightb / no-analyze-src-pics / deblock=-3:-3 / no-sao / no-sao-non-deblock / rd=4 / selective-sao=0 / no-early-skip / no-rskip / no-fast-intra / no-tskip-fast / no-cu-lossless / b-intra / no-splitrd-skip / rdpenalty=0 / psy-rd=1.50 / psy-rdoq=1.00 / no-rd-refine / no-lossless / cbqpoffs=-2 / crqpoffs=-2 / rc=crf / crf=19.0 / qcomp=0.65 / qpstep=4 / stats-write=0 / stats-read=0 / vbv-maxrate=160000 / vbv-bufsize=160000 / vbv-init=0.9 / min-vbv-fullness=50.0 / max-vbv-fullness=80.0 / crf-max=0.0 / crf-min=0.0 / ipratio=1.30 / pbratio=1.20 / aq-mode=1 / aq-strength=1.00 / no-cutree / zone-count=0 / no-strict-cbr / qg-size=8 / no-rc-grain / qpmax=69 / qpmin=0 / no-const-vbv / sar=0 / overscan=0 / videoformat=5 / range=0 / colorprim=1 / transfer=1 / colormatrix=1 / chromaloc=0 / display-window=0 / cll=0,0 / min-luma=0 / max-luma=1023 / log2-max-poc-lsb=8 / vui-timing-info / vui-hrd-info / slices=1 / no-opt-qp-pps / no-opt-ref-list-length-pps / no-multi-pass-opt-rps / scenecut-bias=0.05 / hist-threshold=0.03 / no-opt-cu-delta-qp / no-aq-motion / no-hdr10 / no-hdr10-opt / no-dhdr10-opt / no-idr-recovery-sei / analysis-reuse-level=0 / analysis-save-reuse-level=0 / analysis-load-reuse-level=0 / scale-factor=0 / refine-intra=0 / refine-inter=0 / refine-mv=1 / refine-ctu-distortion=0 / no-limit-sao / ctu-info=0 / no-lowpass-dct / refine-analysis-type=0 / copy-pic=1 / max-ausize-factor=1.0 / no-dynamic-refine / no-single-sei / no-hevc-aq / no-svt / no-field / qp-adaptation-range=1.00 / scenecut-aware-qp=0conformance-window-offsets / right=0 / bottom=0 / NTMzNTQ= / decoder-max-rate=0 / no-vbv-live-multi-pass
  36. Default                                  : Yes
  37. Forced                                   : No
  38. Color range                              : Limited
  39. Color primaries                          : BT.709
  40. Transfer characteristics                 : BT.709
  41. Matrix coefficients                      : BT.709
  42. Audio
  43. ID                                       : 2
  44. Format                                   : E-AC-3
  45. Format/Info                              : Enhanced AC-3
  46. Commercial name                          : Dolby Digital Plus
  47. Format profile                           : Blu-ray Disc
  48. Codec ID                                 : A_EAC3
  49. Duration                                 : 2 h 16 min
  50. Bit rate mode                            : Constant
  51. Bit rate                                 : 1 536 kb/s
  52. Channel(s)                               : 8 channels
  53. Channel layout                           : L R C LFE Ls Rs Lb Rb
  54. Sampling rate                            : 48.0 kHz
  55. Frame rate                               : 31.250 FPS (1536 SPF)
  56. Compression mode                         : Lossy
  57. Stream size                              : 1.46 GiB (16%)
  58. Language                                 : English
  59. Service kind                             : Complete Main
  60. Default                                  : Yes
  61. Forced                                   : No
  62. Text #1
  63. ID                                       : 3
  64. Format                                   : PGS
  65. Muxing mode                              : zlib
  66. Codec ID                                 : S_HDMV/PGS
  67. Codec ID/Info                            : Picture based subtitle format used on BDs/HD-DVDs
  68. Duration                                 : 2 h 14 min
  69. Bit rate                                 : 93.0 kb/s
  70. Count of elements                        : 6145
  71. Stream size                              : 89.4 MiB (1%)
  72. Title                                    : CHS&ENG
  73. Language                                 : Chinese
  74. Default                                  : Yes
  75. Forced                                   : No
  76. Text #2
  77. ID                                       : 4
  78. Format                                   : PGS
  79. Muxing mode                              : zlib
  80. Codec ID                                 : S_HDMV/PGS
  81. Codec ID/Info                            : Picture based subtitle format used on BDs/HD-DVDs
  82. Duration                                 : 2 h 14 min
  83. Bit rate                                 : 62.3 kb/s
  84. Count of elements                        : 6145
  85. Stream size                              : 59.9 MiB (1%)
  86. Title                                    : CHS
  87. Language                                 : Chinese
  88. Default                                  : No
  89. Forced                                   : No
  90. Text #3
  91. ID                                       : 5
  92. Format                                   : PGS
  93. Muxing mode                              : zlib
  94. Codec ID                                 : S_HDMV/PGS
  95. Codec ID/Info                            : Picture based subtitle format used on BDs/HD-DVDs
  96. Duration                                 : 2 h 14 min
  97. Bit rate                                 : 94.2 kb/s
  98. Count of elements                        : 6145
  99. Stream size                              : 90.6 MiB (1%)
  100. Title                                    : CHT&ENG
  101. Language                                 : Chinese
  102. Default                                  : No
  103. Forced                                   : No
  104. Text #4
  105. ID                                       : 6
  106. Format                                   : PGS
  107. Muxing mode                              : zlib
  108. Codec ID                                 : S_HDMV/PGS
  109. Codec ID/Info                            : Picture based subtitle format used on BDs/HD-DVDs
  110. Duration                                 : 2 h 14 min
  111. Bit rate                                 : 63.5 kb/s
  112. Count of elements                        : 6145
  113. Stream size                              : 61.1 MiB (1%)
  114. Title                                    : CHT
  115. Language                                 : Chinese
  116. Default                                  : No
  117. Forced                                   : No
  118. Text #5
  119. ID                                       : 7
  120. ID in the original source medium         : 4608 (0x1200)
  121. Format                                   : PGS
  122. Muxing mode                              : zlib
  123. Codec ID                                 : S_HDMV/PGS
  124. Codec ID/Info                            : Picture based subtitle format used on BDs/HD-DVDs
  125. Duration                                 : 2 h 11 min
  126. Bit rate                                 : 61.5 kb/s
  127. Count of elements                        : 5000
  128. Stream size                              : 58.0 MiB (1%)
  129. Title                                    : ENG
  130. Language                                 : English
  131. Default                                  : No
  132. Forced                                   : No
  133. Original source medium                   : Blu-ray
  134. Menu
  135. 00:00:00.000                             : en:Chapter 01
  136. 00:07:57.268                             : en:Chapter 02
  137. 00:15:41.941                             : en:Chapter 03
  138. 00:22:57.542                             : en:Chapter 04
  139. 00:29:59.631                             : en:Chapter 05
  140. 00:37:01.802                             : en:Chapter 06
  141. 00:43:27.646                             : en:Chapter 07
  142. 00:49:34.554                             : en:Chapter 08
  143. 00:56:07.655                             : en:Chapter 09
  144. 01:02:35.168                             : en:Chapter 10
  145. 01:07:09.025                             : en:Chapter 11
  146. 01:12:45.069                             : en:Chapter 12
  147. 01:21:00.605                             : en:Chapter 13
  148. 01:31:12.717                             : en:Chapter 14
  149. 01:40:04.206                             : en:Chapter 15
  150. 01:49:48.373                             : en:Chapter 16
  151. 01:56:06.250                             : en:Chapter 17
  152. 02:00:46.030                             : en:Chapter 18
  153. 02:06:52.521                             : en:Chapter 19
  154. 02:13:47.853                             : en:Chapter 20



此处一般会放置磁力链或种子下载链接,不过此链接需要注册会员才能看到,点击“立即注册”
磁力链下载【下载链接仅对注册会员开放,登陆后可见】
BT9527电影天堂 1、BT9527电影天堂提供的BT文件均来源于互联网抓取,只供网友学习交流、技术提升使用。
2、我们遵守BitTorrent点对点协议原则,任何版权问题请联系原资源发布商,我们不处理任何版权纠纷,谢谢!如有争议请联系邮箱:BT9527#hotmail.com(#换成@)
3、如果您发现某页面或地址有错误,请联系站长邮箱BT9527#hotmail.com(#换成@),我们会尽快处理。您的热心是对BT9527电影天堂最大的支持。
4、本站建议去正规影院观看电影以支持电影行业发展。
最新回复 (0)

你可以在 登录 or 注册 后,对此帖发表评论!

返回
发新帖