丹尼尔不是真的[简体字幕].Daniel.Isn't.Real.2019.BluRay.1080p.x265.10bit.DDP5.1-MiniHD 6.05GB

版主小s 17天前 39

✔资源类型:暂未分类   ✔电影年份:2019   ✔电影地区:欧美   ✔电影分类:惊悚

◎译  名 丹尼尔不是真的 / 丹尼尔不是真实的 / 鬼相伴
◎片  名 Daniel Isn't Real
◎年  代 2019
◎产  地 美国
◎类  别 惊悚 / 恐怖
◎语  言 英语
◎上映日期 2019-03-09(美国西南偏南电影节) / 2019-12-06(美国)
◎IMDb链接 https://www.imdb.com/title/tt8745960/
◎豆瓣评分 5.4/10 (719人评价)
◎豆瓣链接 https://movie.douban.com/subject/30282897/
◎片  长 96分钟
◎导  演 亚当·埃及·摩提莫 Adam Egypt Mortimer (id:1427204)
◎编  剧 布莱恩·德鲁 Brian DeLeeuw (id:1427205)
       亚当·埃及·摩提莫 Adam Egypt Mortimer (id:1427204)
◎演  员 帕特里克·施瓦辛格 Patrick Schwarzenegger (id:1050048)
       迈尔斯·罗宾斯 Miles Robbins (id:1144456)
       萨莎·莱恩 Sasha Lane (id:1356951)
       玛丽·斯图尔特·马斯特森 Mary Stuart Masterson (id:1009322)
       汉娜·马克斯 Hannah Marks (id:1000221)
       凯蒂·张 Katie Chang (id:1328293)
       迈克尔·库奥莫 Michael Cuomo (id:1032959)
       格里芬·罗伯特·福克纳 Griffin Robert Faulkner (id:1372967)
       杰奎琳·霍努力克 Jacqueline Honulik (id:1393239)
       楚克武迪·武吉 Chukwudi Iwuji (id:1396904)
       费斯·洛根 Faith Logan (id:1393240)
       内森·钱德勒·雷德 Nathan Chandler Reid (id:1427203)

◎简  介
  阿诺·施瓦辛格之子帕特里克·施瓦辛格、萨莎·莱恩([美国甜心])、蒂姆·罗宾斯之子迈尔斯·罗宾斯、汉娜·马克斯(《全能侦探社》)将主演惊悚片[丹尼尔不是真实的](Daniel Isn’t Real,暂译),影片由亚当·埃及·莫蒂默(Adam Egypt Mortimer)([复仇之灵])执导。故事根据布莱恩·德莱乌创作小说《我被这样拯救》(In This Way I Was Saved)改编,德莱乌与莫蒂默共同操刀剧本。讲述一个遭受家庭暴力创伤的大学新生,再次构想了他童年想象中的朋友丹尼尔。丹尼尔能够帮助他应对一切。该片已在纽约开拍。
  1. ##### MediaInfo ######
  2. General
  3. Unique ID                                : 44926790736686830157097611949469462672 (0x21CC95CCF28E4D386CE2E6F06709F090)
  4. Complete name                            : Daniel.Isn't.Real.2019.BluRay.1080p.x265.10bit.DDP5.1-MiniHD.mkv
  5. Format                                   : Matroska
  6. Format version                           : Version 4
  7. File size                                : 6.05 GiB
  8. Duration                                 : 1 h 40 min
  9. Overall bit rate                         : 8 654 kb/s
  10. Encoded date                             : UTC 2022-06-11 20:11:40
  11. Writing application                      : mkvmerge v68.0.0 ('The Curtain') 64-bit
  12. Writing library                          : libebml v1.4.2 + libmatroska v1.6.4
  13. Video
  14. ID                                       : 1
  15. Format                                   : HEVC
  16. Format/Info                              : High Efficiency Video Coding
  17. Format profile                           : Main 10@L5@High
  18. Codec ID                                 : V_MPEGH/ISO/HEVC
  19. Duration                                 : 1 h 40 min
  20. Bit rate                                 : 7 611 kb/s
  21. Width                                    : 1 920 pixels
  22. Height                                   : 804 pixels
  23. Display aspect ratio                     : 2.40:1
  24. Frame rate mode                          : Constant
  25. Frame rate                               : 23.976 (24000/1001/53354) FPS
  26. Color space                              : YUV
  27. Chroma subsampling                       : 4:2:0
  28. Bit depth                                : 10 bits
  29. Bits/(Pixel*Frame)                       : 0.206
  30. Stream size                              : 5.32 GiB (88%)
  31. Writing library                          : x265 3.5+20-17839cc0d:[Windows][GCC 11.2.0][64 bit] 10bit
  32. Encoding settings                        : cpuid=533541111039 / frame-threads=5 / numa-pools=24,24 / wpp / no-pmode / no-pme / no-psnr / no-ssim / log-level=2 / input-csp=1 / input-res=1920x804 / interlace=0 / total-frames=144024 / level-idc=0 / high-tier=1 / uhd-bd=0 / ref=5 / no-allow-non-conformance / no-repeat-headers / annexb / no-aud / no-eob / no-eos / no-hrd / info / hash=0 / no-temporal-layers / no-open-gop / min-keyint=23 / keyint=250 / gop-lookahead=0 / bframes=9 / b-adapt=2 / b-pyramid / bframe-bias=0 / rc-lookahead=60 / lookahead-slices=0 / NTMzNTQ=uuDQuD2mJt9fsCf / scenecut=40 / no-hist-scenecut / radl=0 / no-splice / no-intra-refresh / ctu=32 / min-cu-size=8 / no-rect / no-amp / max-tu-size=32 / tu-inter-depth=4 / tu-intra-depth=4 / limit-tu=0 / rdoq-level=2 / dynamic-rd=0.00 / no-ssim-rd / signhide / no-tskip / nr-intra=0 / nr-inter=0 / no-constrained-intra / no-strong-intra-smoothing / max-merge=5 / limit-refs=0 / no-limit-modes / me=3 / subme=5 / merange=57 / temporal-mvp / no-frame-dup / no-hme / weightp / weightb / no-analyze-src-pics / deblock=-1:-1 / no-sao / no-sao-non-deblock / rd=4 / selective-sao=0 / no-early-skip / no-rskip / no-fast-intra / no-tskip-fast / no-cu-lossless / b-intra / no-splitrd-skip / rdpenalty=0 / psy-rd=2.00 / psy-rdoq=5.00 / no-rd-refine / no-lossless / cbqpoffs=0 / crqpoffs=0 / rc=crf / crf=21.5 / qcomp=0.70 / qpstep=4 / stats-write=0 / stats-read=0 / vbv-maxrate=100000 / vbv-bufsize=100000 / vbv-init=0.9 / min-vbv-fullness=50.0 / max-vbv-fullness=80.0 / crf-max=0.0 / crf-min=0.0 / ipratio=1.40 / pbratio=1.30 / aq-mode=1 / aq-strength=0.90 / no-cutree / zone-count=0 / no-strict-cbr / qg-size=32 / no-rc-grain / qpmax=69 / qpmin=0 / no-const-vbv / sar=0 / overscan=0 / videoformat=5 / range=0 / colorprim=1 / transfer=1 / colormatrix=1 / chromaloc=0 / display-window=0 / cll=0,0 / min-luma=0 / max-luma=1023 / log2-max-poc-lsb=8 / vui-timing-info / vui-hrd-info / slices=1 / no-opt-qp-pps / no-opt-ref-list-length-pps / no-multi-pass-opt-rps / scenecut-bias=0.05 / hist-threshold=0.03 / no-opt-cu-delta-qp / no-aq-motion / no-hdr10 / no-hdr10-opt / no-dhdr10-opt / no-idr-recovery-sei / analysis-reuse-level=0 / analysis-save-reuse-level=0 / analysis-load-reuse-level=0 / scale-factor=0 / refine-intra=0 / refine-inter=0 / refine-mv=1 / refine-ctu-distortion=0 / no-limit-sao / ctu-info=0 / no-lowpass-dct / refine-analysis-type=0 / copy-pic=1 / max-ausize-factor=1.0 / no-dynamic-refine / no-single-sei / no-hevc-aq / no-svt / no-field / qp-adaptation-range=1.00 / scenecut-aware-qp=0conformance-window-offsets / right=0 / bottom=0 / NTMzNTQ= / decoder-max-rate=0 / no-vbv-live-multi-pass
  33. Default                                  : Yes
  34. Forced                                   : No
  35. Color range                              : Limited
  36. Color primaries                          : BT.709
  37. Transfer characteristics                 : BT.709
  38. Matrix coefficients                      : BT.709
  39. Audio
  40. ID                                       : 2
  41. Format                                   : E-AC-3
  42. Format/Info                              : Enhanced AC-3
  43. Commercial name                          : Dolby Digital Plus
  44. Codec ID                                 : A_EAC3
  45. Duration                                 : 1 h 40 min
  46. Bit rate mode                            : Constant
  47. Bit rate                                 : 1 024 kb/s
  48. Channel(s)                               : 6 channels
  49. Channel layout                           : L R C LFE Ls Rs
  50. Sampling rate                            : 48.0 kHz
  51. Frame rate                               : 31.250 FPS (1536 SPF)
  52. Compression mode                         : Lossy
  53. Stream size                              : 733 MiB (12%)
  54. Language                                 : English
  55. Service kind                             : Complete Main
  56. Default                                  : Yes
  57. Forced                                   : No
  58. Text
  59. ID                                       : 3
  60. ID in the original source medium         : 4611 (0x1203)
  61. Format                                   : PGS
  62. Muxing mode                              : zlib
  63. Codec ID                                 : S_HDMV/PGS
  64. Codec ID/Info                            : Picture based subtitle format used on BDs/HD-DVDs
  65. Duration                                 : 1 h 31 min
  66. Bit rate                                 : 34.9 kb/s
  67. Count of elements                        : 1336
  68. Stream size                              : 22.8 MiB (0%)
  69. Title                                    : chs&eng
  70. Language                                 : Chinese
  71. Default                                  : Yes
  72. Forced                                   : No
  73. Original source medium                   : Blu-ray
  74. Menu
  75. 00:00:00.000                             : Chapter01
  76. 00:04:33.439                             : Chapter02
  77. 00:13:43.447                             : Chapter03
  78. 00:23:23.735                             : Chapter04
  79. 00:31:27.635                             : Chapter05
  80. 00:38:04.073                             : Chapter06
  81. 00:47:17.292                             : Chapter07
  82. 00:56:22.420                             : Chapter08
  83. 01:02:04.011                             : Chapter09
  84. 01:08:54.004                             : Chapter10
  85. 01:20:14.184                             : Chapter11
  86. 01:29:10.261                             : Chapter12





此处一般会放置磁力链或种子下载链接,不过此链接需要注册会员才能看到,点击“立即注册”
磁力链下载【下载链接仅对注册会员开放,登陆后可见】
BT9527电影天堂 1、BT9527电影天堂提供的BT文件均来源于互联网抓取,只供网友学习交流、技术提升使用。
2、我们遵守BitTorrent点对点协议原则,任何版权问题请联系原资源发布商,我们不处理任何版权纠纷,谢谢!如有争议请联系邮箱:BT9527#hotmail.com(#换成@)
3、如果您发现某页面或地址有错误,请联系站长邮箱BT9527#hotmail.com(#换成@),我们会尽快处理。您的热心是对BT9527电影天堂最大的支持。
4、本站建议去正规影院观看电影以支持电影行业发展。
最新回复 (0)

你可以在 登录 or 注册 后,对此帖发表评论!

返回
发新帖