不道德的审判[简繁字幕].Death.and.the.Maiden.1994.BluRay.1080p.GER.x265.10bit.FLAC-MiniHD 9.51GB

版主小s 3月前 170

✔资源类型:暂未分类   ✔电影年份:更 早   ✔电影地区:欧美   ✔电影分类:剧情

◎译  名 不道德的审判 / 死亡与处女 / 死亡·处女 / 死神与少女
◎片  名 Death and the Maiden
◎年  代 1994
◎产  地 英国 / 法国
◎类  别 剧情 / 悬疑 / 惊悚
◎语  言 英语
◎上映日期 1994-12-23(美国点映) / 1995-01-27(美国)
◎IMDb链接 https://www.imdb.com/title/tt0109579/
◎豆瓣评分 8.2/10 (12457人评价)
◎豆瓣链接 https://movie.douban.com/subject/1301601/
◎片  长 103分钟
◎导  演 罗曼·波兰斯基 Roman Polanski (id:1054420)
◎编  剧 阿瑞尔·多夫曼 Ariel Dorfman (id:1046077)
       拉斐尔·依格雷西亚斯 Rafael Yglesias (id:1301473)
◎演  员 西格妮·韦弗 Sigourney Weaver (id:1053569)
       本·金斯利 Ben Kingsley (id:1054393)
       斯图亚特·维尔森 Stuart Wilson (id:1167174)
       凯伦·斯特拉斯曼 Karen Strassman (id:1339064)
       沃伊切赫·基拉尔 Wojciech Kilar (id:1012607)
       米兰拉·坎农诺 Milena Canonero (id:1279999)

◎简  介
  波利娜(西格妮·韦弗 Sigourney Weaver饰)曾经被一个男子施暴,被蒙着眼的她一直不知道罪人是谁,她的性格也变得神经兮兮。她的丈夫杰拉多(斯图尔特·威尔逊 Stuart Wilson饰)当选委员会主席后回到家中,就发现波利娜有着一些比平时更怪异的举动。她甚至把前来拜访的邻居米兰达(本·金斯利 Ben Kingsley饰)的车子推落山崖,凭着米兰达车里的磁带“死亡和处女”,以及米兰达的气味和呼吸,波利娜坚信,米兰达就是当时对她施暴的元凶。                                    
                                她发了疯似的把米兰达绑在房间,要和丈夫一起审判这个罪犯。然而,米兰达分明有着确凿的不在场证据,这令丈夫也难以相信波利娜的认定。这一切是波利娜的幻觉,还是确有其事,这场审判会令真相一一浮出水面。
  1. ##### MediaInfo ######
  2. General
  3. Unique ID                                : 334749400343876211960346487345399928374 (0xFBD663AFA3AE37CEBDCC04159E9B1636)
  4. Complete name                            : Death.and.the.Maiden.1994.BluRay.1080p.GER.x265.10bit.FLAC-MiniHD.mkv
  5. Format                                   : Matroska
  6. Format version                           : Version 4
  7. File size                                : 9.51 GiB
  8. Duration                                 : 1 h 43 min
  9. Overall bit rate mode                    : Variable
  10. Overall bit rate                         : 13.1 Mb/s
  11. Movie name                               : Death.and.the.Maiden.1994.BluRay.1080p.GER.x265.10bit.FLAC.MNHD-FRDS
  12. Encoded date                             : UTC 2022-06-14 10:07:23
  13. Writing application                      : mkvmerge v66.0.0 ('Josie') 64-bit
  14. Writing library                          : libebml v1.4.2 + libmatroska v1.6.4
  15. Cover                                    : Yes
  16. Attachments                              : cover.jpg
  17. Video
  18. ID                                       : 1
  19. Format                                   : HEVC
  20. Format/Info                              : High Efficiency Video Coding
  21. Format profile                           : Main 10@L5.1@High
  22. Codec ID                                 : V_MPEGH/ISO/HEVC
  23. Duration                                 : 1 h 43 min
  24. Bit rate                                 : 11.7 Mb/s
  25. Width                                    : 1 912 pixels
  26. Height                                   : 1 036 pixels
  27. Display aspect ratio                     : 1.85:1
  28. Frame rate mode                          : Constant
  29. Frame rate                               : 23.976 (24000/1001/53354) FPS
  30. Color space                              : YUV
  31. Chroma subsampling                       : 4:2:0
  32. Bit depth                                : 10 bits
  33. Bits/(Pixel*Frame)                       : 0.246
  34. Stream size                              : 8.46 GiB (89%)
  35. Writing library                          : x265 3.5+29-3415705dd:[Windows][MSVC 1930][64 bit] 10bit
  36. Encoding settings                        : cpuid=533541111039 / frame-threads=5 / numa-pools=32 / wpp / pmode / no-pme / no-psnr / no-ssim / log-level=2 / input-csp=1 / input-res=1912x1036 / interlace=0 / total-frames=149046 / level-idc=0 / high-tier=1 / uhd-bd=0 / ref=6 / no-allow-non-conformance / no-repeat-headers / annexb / no-aud / no-eob / no-eos / no-hrd / info / hash=0 / no-temporal-layers / no-open-gop / min-keyint=1 / keyint=250 / gop-lookahead=0 / bframes=8 / b-adapt=2 / b-pyramid / bframe-bias=0 / rc-lookahead=100 / lookahead-slices=0 / NTMzNTQ=uuDQuD2mJt9fsCf / scenecut=40 / no-hist-scenecut / radl=0 / no-splice / no-intra-refresh / ctu=32 / min-cu-size=8 / no-rect / no-amp / max-tu-size=32 / tu-inter-depth=4 / tu-intra-depth=4 / limit-tu=0 / rdoq-level=2 / dynamic-rd=0.00 / no-ssim-rd / signhide / no-tskip / nr-intra=0 / nr-inter=0 / no-constrained-intra / no-strong-intra-smoothing / max-merge=5 / limit-refs=0 / no-limit-modes / me=3 / subme=7 / merange=57 / temporal-mvp / no-frame-dup / no-hme / weightp / weightb / no-analyze-src-pics / deblock=-3:-3 / no-sao / no-sao-non-deblock / rd=4 / selective-sao=0 / no-early-skip / no-rskip / no-fast-intra / no-tskip-fast / no-cu-lossless / b-intra / no-splitrd-skip / rdpenalty=0 / psy-rd=1.50 / psy-rdoq=1.00 / no-rd-refine / no-lossless / cbqpoffs=-2 / crqpoffs=-2 / rc=crf / crf=20.9 / qcomp=0.65 / qpstep=4 / stats-write=0 / stats-read=0 / vbv-maxrate=160000 / vbv-bufsize=160000 / vbv-init=0.9 / min-vbv-fullness=50.0 / max-vbv-fullness=80.0 / crf-max=0.0 / crf-min=0.0 / ipratio=1.30 / pbratio=1.20 / aq-mode=1 / aq-strength=1.00 / no-cutree / zone-count=0 / no-strict-cbr / qg-size=8 / no-rc-grain / qpmax=69 / qpmin=0 / no-const-vbv / sar=0 / overscan=0 / videoformat=5 / range=0 / colorprim=1 / transfer=1 / colormatrix=1 / chromaloc=0 / display-window=0 / cll=0,0 / min-luma=0 / max-luma=1023 / log2-max-poc-lsb=8 / vui-timing-info / vui-hrd-info / slices=1 / no-opt-qp-pps / no-opt-ref-list-length-pps / no-multi-pass-opt-rps / scenecut-bias=0.05 / hist-threshold=0.03 / no-opt-cu-delta-qp / no-aq-motion / no-hdr10 / no-hdr10-opt / no-dhdr10-opt / no-idr-recovery-sei / analysis-reuse-level=0 / analysis-save-reuse-level=0 / analysis-load-reuse-level=0 / scale-factor=0 / refine-intra=0 / refine-inter=0 / refine-mv=1 / refine-ctu-distortion=0 / no-limit-sao / ctu-info=0 / no-lowpass-dct / refine-analysis-type=0 / copy-pic=1 / max-ausize-factor=1.0 / no-dynamic-refine / no-single-sei / no-hevc-aq / no-svt / no-field / qp-adaptation-range=1.00 / scenecut-aware-qp=0conformance-window-offsets / right=0 / bottom=0 / NTMzNTQ= / decoder-max-rate=0 / no-vbv-live-multi-pass
  37. Default                                  : Yes
  38. Forced                                   : No
  39. Color range                              : Limited
  40. Color primaries                          : BT.709
  41. Transfer characteristics                 : BT.709
  42. Matrix coefficients                      : BT.709
  43. Audio
  44. ID                                       : 2
  45. Format                                   : FLAC
  46. Format/Info                              : Free Lossless Audio Codec
  47. Codec ID                                 : A_FLAC
  48. Duration                                 : 1 h 43 min
  49. Bit rate mode                            : Variable
  50. Bit rate                                 : 1 375 kb/s
  51. Channel(s)                               : 2 channels
  52. Sampling rate                            : 48.0 kHz
  53. Frame rate                               : 11.719 FPS (4096 SPF)
  54. Bit depth                                : 24 bits
  55. Compression mode                         : Lossless
  56. Stream size                              : 1 019 MiB (10%)
  57. Writing library                          : libFLAC 1.3.3 (UTC 2019-08-04)
  58. Language                                 : English
  59. Default                                  : Yes
  60. Forced                                   : No
  61. Text #1
  62. ID                                       : 3
  63. Format                                   : PGS
  64. Muxing mode                              : zlib
  65. Codec ID                                 : S_HDMV/PGS
  66. Codec ID/Info                            : Picture based subtitle format used on BDs/HD-DVDs
  67. Duration                                 : 1 h 35 min
  68. Bit rate                                 : 52.3 kb/s
  69. Count of elements                        : 1888
  70. Stream size                              : 35.7 MiB (0%)
  71. Title                                    : CHS&ENG
  72. Language                                 : Chinese
  73. Default                                  : Yes
  74. Forced                                   : No
  75. Text #2
  76. ID                                       : 4
  77. Format                                   : PGS
  78. Muxing mode                              : zlib
  79. Codec ID                                 : S_HDMV/PGS
  80. Codec ID/Info                            : Picture based subtitle format used on BDs/HD-DVDs
  81. Duration                                 : 1 h 35 min
  82. Bit rate                                 : 33.2 kb/s
  83. Count of elements                        : 1888
  84. Stream size                              : 22.7 MiB (0%)
  85. Title                                    : CHS
  86. Language                                 : Chinese
  87. Default                                  : No
  88. Forced                                   : No
  89. Text #3
  90. ID                                       : 5
  91. Format                                   : PGS
  92. Muxing mode                              : zlib
  93. Codec ID                                 : S_HDMV/PGS
  94. Codec ID/Info                            : Picture based subtitle format used on BDs/HD-DVDs
  95. Duration                                 : 1 h 35 min
  96. Bit rate                                 : 53.2 kb/s
  97. Count of elements                        : 1888
  98. Stream size                              : 36.4 MiB (0%)
  99. Title                                    : CHT&ENG
  100. Language                                 : Chinese
  101. Default                                  : No
  102. Forced                                   : No
  103. Text #4
  104. ID                                       : 6
  105. Format                                   : PGS
  106. Muxing mode                              : zlib
  107. Codec ID                                 : S_HDMV/PGS
  108. Codec ID/Info                            : Picture based subtitle format used on BDs/HD-DVDs
  109. Duration                                 : 1 h 35 min
  110. Bit rate                                 : 34.2 kb/s
  111. Count of elements                        : 1888
  112. Stream size                              : 23.3 MiB (0%)
  113. Title                                    : CHT
  114. Language                                 : Chinese
  115. Default                                  : No
  116. Forced                                   : No
  117. Menu
  118. 00:00:00.000                             : en:Chapter 01
  119. 00:06:33.976                             : en:Chapter 02
  120. 00:16:29.446                             : en:Chapter 03
  121. 00:26:14.781                             : en:Chapter 04
  122. 00:32:42.460                             : en:Chapter 05
  123. 00:41:03.794                             : en:Chapter 06
  124. 00:49:57.035                             : en:Chapter 07
  125. 01:01:40.530                             : en:Chapter 08
  126. 01:10:10.873                             : en:Chapter 09
  127. 01:20:14.851                             : en:Chapter 10
  128. 01:28:40.398                             : en:Chapter 11
  129. 01:38:51.342                             : en:Chapter 12



此处一般会放置磁力链或种子下载链接,不过此链接需要注册会员才能看到,点击“立即注册”
磁力链下载【下载链接仅对注册会员开放,登陆后可见】
BT9527电影天堂 1、BT9527电影天堂提供的BT文件均来源于互联网抓取,只供网友学习交流、技术提升使用。
2、我们遵守BitTorrent点对点协议原则,任何版权问题请联系原资源发布商,我们不处理任何版权纠纷,谢谢!如有争议请联系邮箱:BT9527#hotmail.com(#换成@)
3、如果您发现某页面或地址有错误,请联系站长邮箱BT9527#hotmail.com(#换成@),我们会尽快处理。您的热心是对BT9527电影天堂最大的支持。
4、本站建议去正规影院观看电影以支持电影行业发展。
最新回复 (0)

你可以在 登录 or 注册 后,对此帖发表评论!

返回
发新帖