桂河大桥[简繁英字幕].The.Bridge.On.The.River.Kwai.1957.2160p.HDR.UHD.BluRay.TrueHD.7.1.Atmos.x265-10bit-ENTHD 23.91GB

版主小s 13天前 32

✔资源类型:BD-4K   ✔电影年份:更 早   ✔电影地区:欧美   ✔电影分类:剧情

◎译  名 桂河大桥 / 桂河桥
◎片  名 The Bridge on the River Kwai
◎年  代 1957
◎产  地 英国 / 美国
◎类  别 剧情 / 历史 / 战争
◎语  言 英语 / 日语 / 泰语
◎上映日期 1957-10-02(英国)
◎IMDb链接 https://www.imdb.com/title/tt0050212/
◎豆瓣评分 8.4/10 (23007人评价)
◎豆瓣链接 https://movie.douban.com/subject/1294958/
◎片  长 161分钟
◎导  演 大卫·里恩 David Lean (id:1002783)
◎编  剧 迈克尔·威尔逊 Michael Wilson (id:1160972)
       卡尔·福尔曼 Carl Foreman (id:1023370)
◎演  员 威廉·霍尔登 William Holden (id:1002737)
       亚历克·吉尼斯 Alec Guinness (id:1000109)
       杰克·霍金斯 Jack Hawkins (id:1049902)
       早川雪洲 Sessue Hayakawa (id:1019196)
       詹姆斯·唐纳德 James Donald (id:1089546)
       杰弗里·霍尔内 Geoffrey Horne (id:1100732)
       特德·斯特吉斯 Ted Sturgis (id:1298585)
       Gus Agosti Gus Agosti (id:1276854)

◎简  介
  二战期间,日军占领了缅甸边境的一个战俘营。出于战略需要,日军将在缅甸与泰国交界修建一条大桥,同时希望战俘营里战俘出力,但英军战俘代表尼科森上校(亚利克·基尼斯 Alec Guinness 饰)认为这违反日内瓦公约拒不执行。于是尼科森等人被关了禁闭,但是没了尼科森的带领, 战俘们表现消极,而且因日本设计方面的不足,建桥工作陷入了停滞。日军无奈只好放出了尼科森等人,获释后尼科森感到在破坏一切的战争里何不做点建设,于是开始投入到建桥的工作。与此同时,逃出去的美军俘虏希尔兹(威廉?霍尔登 William Holden 饰)接受盟军一个特别任务,就是大桥建成之日将它炸毁。

◎获奖情况 (共12项)
  第30届奥斯卡金像奖 (1958)
  最佳影片
   └──萨姆·斯皮格尔 (id:1041774)
  最佳导演
   └──大卫·里恩 (id:1002783)
  最佳男主角
   └──亚历克·吉尼斯 (id:1000109)
  最佳男配角(提名)
   └──早川雪洲 (id:1019196)
  最佳改编剧本
  最佳摄影
   └──杰克·希尔德亚德 (id:1033673)
  最佳剪辑
   └──彼得·泰勒 (id:1153387)
  最佳配乐
   └──马尔科姆·阿诺德 (id:1028893)

  第15届金球奖 (1958)
  电影类 最佳剧情片
  电影类 最佳导演
   └──大卫·里恩 (id:1002783)
  电影类 剧情片最佳男主角
   └──亚历克·吉尼斯 (id:1000109)
  电影类 最佳男配角(提名)
   └──早川雪洲 (id:1019196)

  1. ##### MediaInfo ######
  2. General
  3. Unique ID                                : 23536045629320178238392947737639077523 (0x11B4E0A42AE113241393AEB99F7D4693)
  4. Complete name                            : The.Bridge.On.The.River.Kwai.1957.2160p.HDR.UHD.BluRay.TrueHD.7.1.Atmos.x265-10bit-ENTHD.mkv
  5. Format                                   : Matroska
  6. Format version                           : Version 4
  7. File size                                : 23.9 GiB
  8. Duration                                 : 2 h 41 min
  9. Overall bit rate mode                    : Variable
  10. Overall bit rate                         : 21.2 Mb/s
  11. Movie name                               : The Bridge On The River Kwai 1957 2160p HDR UHD BluRay TrueHD 7.1 Atmos x265-10bit-HDS
  12. Encoded date                             : UTC 2022-06-16 22:35:56
  13. Writing application                      : mkvmerge v67.0.0 ('Under Stars') 64-bit
  14. Writing library                          : libebml v1.4.2 + libmatroska v1.6.4
  15. Video
  16. ID                                       : 1
  17. Format                                   : HEVC
  18. Format/Info                              : High Efficiency Video Coding
  19. Format profile                           : Main 10@L6.1@High
  20. HDR format                               : SMPTE ST 2086, HDR10 compatible
  21. Codec ID                                 : V_MPEGH/ISO/HEVC
  22. Duration                                 : 2 h 41 min
  23. Bit rate                                 : 16.4 Mb/s
  24. Width                                    : 3 840 pixels
  25. Height                                   : 1 504 pixels
  26. Display aspect ratio                     : 2.553
  27. Frame rate mode                          : Constant
  28. Frame rate                               : 23.976 (24000/1001/53354) FPS
  29. Color space                              : YUV
  30. Chroma subsampling                       : 4:2:0
  31. Bit depth                                : 10 bits
  32. Bits/(Pixel*Frame)                       : 0.118
  33. Stream size                              : 18.5 GiB (77%)
  34. Title                                    : @HDSky
  35. Writing library                          : x265 - H.265/HEVC codec
  36. Default                                  : Yes
  37. Forced                                   : No
  38. Color range                              : Limited
  39. Color primaries                          : BT.2020
  40. Transfer characteristics                 : PQ
  41. Matrix coefficients                      : BT.2020 non-constant
  42. Mastering display color primaries        : BT.2020
  43. Mastering display luminance              : min: 0.0050 cd/m2, max: 1000 cd/m2
  44. Maximum Content Light Level              : 9978 cd/m2
  45. Maximum Frame-Average Light Level        : 402 cd/m2
  46. Audio #1
  47. ID                                       : 2
  48. Format                                   : MLP FBA 16-ch
  49. Format/Info                              : Meridian Lossless Packing FBA with 16-channel presentation
  50. Commercial name                          : Dolby TrueHD with Dolby Atmos
  51. Codec ID                                 : A_TRUEHD
  52. Duration                                 : 2 h 41 min
  53. Bit rate mode                            : Variable
  54. Bit rate                                 : 4 091 kb/s
  55. Maximum bit rate                         : 6 336 kb/s
  56. Channel(s)                               : 8 channels
  57. Channel layout                           : L R C LFE Ls Rs Lb Rb
  58. Sampling rate                            : 48.0 kHz
  59. Frame rate                               : 1 200.000 FPS (40 SPF)
  60. Compression mode                         : Lossless
  61. Stream size                              : 4.61 GiB (19%)
  62. Title                                    : English
  63. Language                                 : English
  64. Default                                  : Yes
  65. Forced                                   : No
  66. Number of dynamic objects                : 11
  67. Bed channel count                        : 1 channel
  68. Bed channel configuration                : LFE
  69. Audio #2
  70. ID                                       : 3
  71. Format                                   : AC-3
  72. Format/Info                              : Audio Coding 3
  73. Commercial name                          : Dolby Digital
  74. Codec ID                                 : A_AC3
  75. Duration                                 : 2 h 41 min
  76. Bit rate mode                            : Constant
  77. Bit rate                                 : 640 kb/s
  78. Channel(s)                               : 6 channels
  79. Channel layout                           : L R C LFE Ls Rs
  80. Sampling rate                            : 48.0 kHz
  81. Frame rate                               : 31.250 FPS (1536 SPF)
  82. Compression mode                         : Lossy
  83. Stream size                              : 739 MiB (3%)
  84. Service kind                             : Complete Main
  85. Default                                  : Yes
  86. Forced                                   : No
  87. Text #1
  88. ID                                       : 4
  89. Format                                   : PGS
  90. Muxing mode                              : zlib
  91. Codec ID                                 : S_HDMV/PGS
  92. Codec ID/Info                            : Picture based subtitle format used on BDs/HD-DVDs
  93. Duration                                 : 2 h 40 min
  94. Bit rate                                 : 28.6 kb/s
  95. Count of elements                        : 3128
  96. Stream size                              : 32.9 MiB (0%)
  97. Title                                    : ENG
  98. Language                                 : English
  99. Default                                  : Yes
  100. Forced                                   : No
  101. Text #2
  102. ID                                       : 5
  103. Format                                   : PGS
  104. Muxing mode                              : zlib
  105. Codec ID                                 : S_HDMV/PGS
  106. Codec ID/Info                            : Picture based subtitle format used on BDs/HD-DVDs
  107. Duration                                 : 2 h 36 min
  108. Bit rate                                 : 23.3 kb/s
  109. Count of elements                        : 2776
  110. Stream size                              : 26.1 MiB (0%)
  111. Title                                    : CHS
  112. Language                                 : Chinese
  113. Default                                  : Yes
  114. Forced                                   : No
  115. Text #3
  116. ID                                       : 6
  117. Format                                   : PGS
  118. Muxing mode                              : zlib
  119. Codec ID                                 : S_HDMV/PGS
  120. Codec ID/Info                            : Picture based subtitle format used on BDs/HD-DVDs
  121. Duration                                 : 2 h 35 min
  122. Bit rate                                 : 19.0 kb/s
  123. Count of elements                        : 2776
  124. Stream size                              : 21.0 MiB (0%)
  125. Title                                    : CHT
  126. Language                                 : Chinese
  127. Default                                  : Yes
  128. Forced                                   : No
  129. Menu
  130. 00:00:00.000                             : en:第 01 章
  131. 00:10:54.737                             : en:第 02 章
  132. 00:21:00.801                             : en:第 03 章
  133. 00:31:06.114                             : en:第 04 章
  134. 00:38:43.238                             : en:第 05 章
  135. 00:50:24.271                             : en:第 06 章
  136. 01:00:10.607                             : en:第 07 章
  137. 01:09:42.804                             : en:第 08 章
  138. 01:20:59.271                             : en:第 09 章
  139. 01:32:47.854                             : en:第 10 章
  140. 01:41:14.110                             : en:第 11 章
  141. 01:50:34.628                             : en:第 12 章
  142. 02:03:20.268                             : en:第 13 章
  143. 02:14:36.694                             : en:第 14 章
  144. 02:24:37.961                             : en:第 15 章
  145. 02:32:33.102                             : en:第 16 章





此处一般会放置磁力链或种子下载链接,不过此链接需要注册会员才能看到,点击“立即注册”
磁力链下载【下载链接仅对注册会员开放,登陆后可见】
BT9527电影天堂 1、BT9527电影天堂提供的BT文件均来源于互联网抓取,只供网友学习交流、技术提升使用。
2、我们遵守BitTorrent点对点协议原则,任何版权问题请联系原资源发布商,我们不处理任何版权纠纷,谢谢!如有争议请联系邮箱:BT9527#hotmail.com(#换成@)
3、如果您发现某页面或地址有错误,请联系站长邮箱BT9527#hotmail.com(#换成@),我们会尽快处理。您的热心是对BT9527电影天堂最大的支持。
4、本站建议去正规影院观看电影以支持电影行业发展。
最新回复 (0)

你可以在 登录 or 注册 后,对此帖发表评论!

返回
发新帖