无限风暴[简体字幕].Infinite.Storm.2022.1080p.BluRay.x264.DTS-HomeHD 11.02GB

版主小s 3月前 164

✔资源类型:BD-1080P   ✔电影年份:2022   ✔电影地区:欧美   ✔电影分类:剧情

◎译  名 无限风暴
◎片  名 Infinite Storm
◎年  代 2022
◎产  地 英国 / 波兰 / 澳大利亚
◎类  别 剧情 / 惊悚
◎语  言 英语
◎上映日期 2022-03-25(美国)
◎IMDb链接 https://www.imdb.com/title/tt14060232/
◎豆瓣评分 5.9/10 (1198人评价)
◎豆瓣链接 https://movie.douban.com/subject/35351430/
◎片  长 97分钟
◎导  演 玛高扎塔·施莫夫兹卡 Malgorzata Szumowska (id:1033346)
◎编  剧 约书亚·罗林斯 Joshua Rollins (id:1251980)
       帕姆·巴勒斯 Pam Bales (id:1469369)
◎演  员 娜奥米·沃茨 Naomi Watts (id:1016675)
       丹尼斯·欧哈拉 Denis O'Hare (id:1013900)
       比利·豪尔 Billy Howle (id:1345504)
       可可·萨姆纳 Coco Sumner (id:1023168)
       帕克·索耶 Parker Sawyers (id:1349433)
       约书亚·罗林斯 Joshua Rollins (id:1251980)

◎简  介
  影片根据泰·加涅发表的的文章《高处:雪地里的脚印引发了一场温情救援》(High Places: Footprints i n the Snow Lead to an Emotional Rescue,暂译)改编,讲述了母亲、护士兼登山爱好者帕姆·贝尔斯的故事,当她独自跋涉华盛顿山,被暴风雪困住时,她遇到了陌生的登山者并为其展开了一场大胆的营救。
  1. ##### MediaInfo ######
  2. General
  3. Unique ID                                : 194270841276772072687362313809929558110 (0x922733FB5280560BBD94C1BE486DD85E)
  4. Complete name                            : Infinite.Storm.2022.1080p.BluRay.x264.DTS-HomeHD.mkv
  5. Format                                   : Matroska
  6. Format version                           : Version 1
  7. File size                                : 11.0 GiB
  8. Duration                                 : 1 h 37 min
  9. Overall bit rate                         : 16.2 Mb/s
  10. Encoded date                             : UTC 2022-06-15 22:56:00
  11. Writing application                      : mkvmerge v2.2.0 ('Turn It On Again') built on Mar  4 2008 13:20:25
  12. Writing library                          : libebml v0.7.7 + libmatroska v0.8.1
  13. Attachments                              : MSYH.TTF / MSYH_chscht.ttf / MSYHBD.TTF / tahoma.ttf
  14. Video
  15. ID                                       : 1
  16. Format                                   : AVC
  17. Format/Info                              : Advanced Video Codec
  18. Format profile                           : High@L4.1
  19. Format settings                          : CABAC / 5 Ref Frames
  20. Format settings, CABAC                   : Yes
  21. Format settings, Reference frames        : 5 frames
  22. Codec ID                                 : V_MPEG4/ISO/AVC
  23. Duration                                 : 1 h 37 min
  24. Bit rate                                 : 14.6 Mb/s
  25. Width                                    : 1 920 pixels
  26. Height                                   : 800 pixels
  27. Display aspect ratio                     : 2.40:1
  28. Frame rate mode                          : Constant
  29. Frame rate                               : 23.976 (24000/1001/53354) FPS
  30. Color space                              : YUV
  31. Chroma subsampling                       : 4:2:0
  32. Bit depth                                : 8 bits
  33. Scan type                                : Progressive
  34. Bits/(Pixel*Frame)                       : 0.396
  35. Stream size                              : 9.77 GiB (89%)
  36. Writing library                          : x264 core 133 r2334 a3ac64b
  37. Encoding settings                        : cabac=1 / ref=5 / deblock=1:-3:-3 / analyse=0x3:0x113 / me=umh / subme=11 / psy=1 / psy_rd=1.00:0.05 / mixed_ref=1 / me_range=64 / chroma_me=1 / trellis=2 / 8x8dct=1 / cqm=0 / deadzone=21,11 / fast_pskip=1 / chroma_qp_offset=-5 / threads=36 / lookahead_threads=6 / sliced_threads=0 / nr=0 / decimate=0 / interlaced=0 / NTMzNTQ= / bluray_compat=0 / constrained_intra=0 / bframes=8 / b_pyramid=2 / b_adapt=2 / b_bias=0 / direct=3 / weightb=1 / open_gop=0 / weightp=2 / keyint=250 / keyint_min=23 / NTMzNTQ=uuDQuD2mJt9fsCf / scenecut=40 / intra_refresh=0 / rc=2pass / mbtree=0 / bitrate=14600 / ratetol=1.0 / qcomp=0.60 / qpmin=0 / qpmax=69 / qpstep=4 / cplxblur=20.0 / qblur=0.5 / NTMzNTQ=LmsMAP37EqsCpk / ip_ratio=1.40 / pb_ratio=1.30 / aq=1:0.90
  38. Language                                 : English
  39. Default                                  : Yes
  40. Forced                                   : No
  41. Audio
  42. ID                                       : 2
  43. Format                                   : DTS
  44. Format/Info                              : Digital Theater Systems
  45. Codec ID                                 : A_DTS
  46. Duration                                 : 1 h 37 min
  47. Bit rate mode                            : Constant
  48. Bit rate                                 : 1 509 kb/s
  49. Channel(s)                               : 6 channels
  50. Channel layout                           : C L R Ls Rs LFE
  51. Sampling rate                            : 48.0 kHz
  52. Frame rate                               : 93.750 FPS (512 SPF)
  53. Bit depth                                : 24 bits
  54. Compression mode                         : Lossy
  55. Stream size                              : 1.03 GiB (9%)
  56. Title                                    : 英语
  57. Language                                 : English
  58. Default                                  : Yes
  59. Forced                                   : No
  60. Text
  61. ID                                       : 3
  62. Format                                   : ASS
  63. Codec ID                                 : S_TEXT/ASS
  64. Codec ID/Info                            : Advanced Sub Station Alpha
  65. Compression mode                         : Lossless
  66. Title                                    : chs&eng
  67. Language                                 : Chinese
  68. Default                                  : Yes
  69. Forced                                   : No





此处一般会放置磁力链或种子下载链接,不过此链接需要注册会员才能看到,点击“立即注册”
磁力链下载【下载链接仅对注册会员开放,登陆后可见】
BT9527电影天堂 1、BT9527电影天堂提供的BT文件均来源于互联网抓取,只供网友学习交流、技术提升使用。
2、我们遵守BitTorrent点对点协议原则,任何版权问题请联系原资源发布商,我们不处理任何版权纠纷,谢谢!如有争议请联系邮箱:BT9527#hotmail.com(#换成@)
3、如果您发现某页面或地址有错误,请联系站长邮箱BT9527#hotmail.com(#换成@),我们会尽快处理。您的热心是对BT9527电影天堂最大的支持。
4、本站建议去正规影院观看电影以支持电影行业发展。
最新回复 (0)

你可以在 登录 or 注册 后,对此帖发表评论!

返回