父亲的身份[中文字幕].Fatherhood.2021.1080p.BluRay.DTS.x265-10bit-ENTHD 7.96GB

版主小s 3月前 139

✔资源类型:暂未分类   ✔电影年份:2021   ✔电影地区:欧美   ✔电影分类:剧情

◎译  名 父亲的身份 / 爸爸进行式(港) / 为父进行式(台) / 爸爸进行时 / 给麦迪的两个吻 / 为父进行时 / Two Kisses for Maddy
◎片  名 Fatherhood
◎年  代 2021
◎产  地 美国
◎类  别 剧情
◎语  言 英语
◎上映日期 2021-06-18(美国网络)
◎IMDb链接 https://www.imdb.com/title/tt4733624/
◎豆瓣评分 6.5/10 (1186人评价)
◎豆瓣链接 https://movie.douban.com/subject/26414810/
◎片  长 109分钟
◎导  演 保罗·韦兹 Paul Weitz (id:1300655)
◎编  剧 达娜·史蒂文斯 Dana Stevens (id:1328358)
       保罗·韦兹 Paul Weitz (id:1300655)
◎演  员 凯文·哈特 Kevin Hart (id:1286162)
       朱利安·凯西 Julian Casey (id:1337404)
       霍莉·G·弗兰克尔 Holly G. Frankel (id:1080627)
       亚瑟·霍尔顿 Arthur Holden (id:1374236)
       阿德里安·M·蒙波因特 Adrian M. Mompoint (id:1413072)
       路易斯·奥利瓦 Luis Oliva (id:1128172)
       保罗·雷瑟 Paul Reiser (id:1000222)
       德汪达·怀斯 DeWanda Wise (id:1418807)
       阿尔法·伍达德 Alfre Woodard (id:1041159)
       里尔·莱尔·哈瓦瑞 Lil Rel Howery (id:1369571)
       艾伦·大卫 Ellen David (id:1280977)
       黛博拉·艾里德 Deborah Ayorinde (id:1369399)
       安东尼·卡里根 Anthony Carrigan (id:1352164)
       斯蒂芬妮·科斯塔 Stephanie Costa (id:1397487)
       玛丽莲·迪恩-罗比齐 Mylène Dinh-Robic (id:1188884)
       查宁·塔图姆 Channing Tatum (id:1031224)
       贝莉·塞恩 Bailey Thain (id:1446877)
       伊内斯·费格霍利·波松 Ines Feghouli Bozon (id:1446879)

◎简  介
  这部暖心、有趣又感人的影片根据真人真事改编,凯文·哈特在剧中饰演的鳏夫在痛失爱妻后承担起一项艰巨任务:当个父亲。
  1. ##### MediaInfo ######
  2. General
  3. Unique ID                                : 48766430995602468506121647320235502781 (0x24B012AE64B767B8195F285588ABECBD)
  4. Complete name                            : Fatherhood.2021.1080p.BluRay.DTS.x265-10bit-ENTHD.mkv
  5. Format                                   : Matroska
  6. Format version                           : Version 4
  7. File size                                : 7.96 GiB
  8. Duration                                 : 1 h 49 min
  9. Overall bit rate                         : 10.4 Mb/s
  10. Movie name                               : Fatherhood 2021 1080p BluRay DTS x265-10bit-HDS
  11. Encoded date                             : UTC 2022-06-16 01:37:39
  12. Writing application                      : mkvmerge v38.0.0 ('The Silent Type') 64-bit
  13. Writing library                          : libebml v1.3.9 + libmatroska v1.5.2
  14. Video
  15. ID                                       : 1
  16. Format                                   : HEVC
  17. Format/Info                              : High Efficiency Video Coding
  18. Format profile                           : Main 10@L5.1@High
  19. Codec ID                                 : V_MPEGH/ISO/HEVC
  20. Duration                                 : 1 h 49 min
  21. Bit rate                                 : 8 889 kb/s
  22. Width                                    : 1 920 pixels
  23. Height                                   : 800 pixels
  24. Display aspect ratio                     : 2.40:1
  25. Frame rate mode                          : Constant
  26. Frame rate                               : 23.976 (24000/1001/53354) FPS
  27. Color space                              : YUV
  28. Chroma subsampling                       : 4:2:0
  29. Bit depth                                : 10 bits
  30. Bits/(Pixel*Frame)                       : 0.241
  31. Stream size                              : 6.77 GiB (85%)
  32. Title                                    : billpotter@HDSky
  33. Writing library                          : x265 - H.265/HEVC codec
  34. Default                                  : Yes
  35. Forced                                   : No
  36. Audio
  37. ID                                       : 2
  38. Format                                   : DTS
  39. Format/Info                              : Digital Theater Systems
  40. Codec ID                                 : A_DTS
  41. Duration                                 : 1 h 49 min
  42. Bit rate mode                            : Constant
  43. Bit rate                                 : 1 509 kb/s
  44. Channel(s)                               : 6 channels
  45. Channel layout                           : C L R Ls Rs LFE
  46. Sampling rate                            : 48.0 kHz
  47. Frame rate                               : 93.750 FPS (512 SPF)
  48. Bit depth                                : 24 bits
  49. Compression mode                         : Lossy
  50. Stream size                              : 1.15 GiB (14%)
  51. Title                                    : English
  52. Language                                 : English
  53. Default                                  : Yes
  54. Forced                                   : No
  55. Text #1
  56. ID                                       : 3
  57. Format                                   : PGS
  58. Muxing mode                              : zlib
  59. Codec ID                                 : S_HDMV/PGS
  60. Codec ID/Info                            : Picture based subtitle format used on BDs/HD-DVDs
  61. Duration                                 : 1 h 27 min
  62. Bit rate                                 : 41.2 kb/s
  63. Count of elements                        : 3154
  64. Stream size                              : 25.9 MiB (0%)
  65. Title                                    : CHS
  66. Language                                 : Chinese
  67. Default                                  : Yes
  68. Forced                                   : No
  69. Text #2
  70. ID                                       : 4
  71. Format                                   : PGS
  72. Muxing mode                              : zlib
  73. Codec ID                                 : S_HDMV/PGS
  74. Codec ID/Info                            : Picture based subtitle format used on BDs/HD-DVDs
  75. Duration                                 : 1 h 47 min
  76. Bit rate                                 : 33.1 kb/s
  77. Count of elements                        : 3472
  78. Stream size                              : 25.4 MiB (0%)
  79. Title                                    : CHT
  80. Language                                 : Chinese
  81. Default                                  : No
  82. Forced                                   : No
  83. Menu
  84. 00:00:00.000                             : en:Chapter 01
  85. 00:07:07.552                             : en:Chapter 02
  86. 00:13:49.787                             : en:Chapter 03
  87. 00:18:34.864                             : en:Chapter 04
  88. 00:26:44.853                             : en:Chapter 05
  89. 00:33:29.674                             : en:Chapter 06
  90. 00:40:14.996                             : en:Chapter 07
  91. 00:44:20.366                             : en:Chapter 08
  92. 00:50:51.674                             : en:Chapter 09
  93. 00:55:13.936                             : en:Chapter 10
  94. 01:01:00.866                             : en:Chapter 11
  95. 01:07:02.769                             : en:Chapter 12
  96. 01:12:45.570                             : en:Chapter 13
  97. 01:19:52.246                             : en:Chapter 14
  98. 01:26:13.085                             : en:Chapter 15
  99. 01:33:38.446                             : en:Chapter 16





此处一般会放置磁力链或种子下载链接,不过此链接需要注册会员才能看到,点击“立即注册”
磁力链下载【下载链接仅对注册会员开放,登陆后可见】
BT9527电影天堂 1、BT9527电影天堂提供的BT文件均来源于互联网抓取,只供网友学习交流、技术提升使用。
2、我们遵守BitTorrent点对点协议原则,任何版权问题请联系原资源发布商,我们不处理任何版权纠纷,谢谢!如有争议请联系邮箱:BT9527#hotmail.com(#换成@)
3、如果您发现某页面或地址有错误,请联系站长邮箱BT9527#hotmail.com(#换成@),我们会尽快处理。您的热心是对BT9527电影天堂最大的支持。
4、本站建议去正规影院观看电影以支持电影行业发展。
最新回复 (0)

你可以在 登录 or 注册 后,对此帖发表评论!

返回