斯图神父[简体字幕].Father.Stu.2022.1080p.BluRay.x265.10bit.DTS-HomeHD 6.70GB

版主小s 3月前 162

✔资源类型:暂未分类   ✔电影年份:2022   ✔电影地区:欧美   ✔电影分类:剧情

◎译  名 斯图神父 / 斯图
◎片  名 Father Stu
◎年  代 2022
◎产  地 美国
◎类  别 剧情 / 传记
◎语  言 英语
◎上映日期 2022-04-13(加拿大) / 2022-04-15(美国)
◎IMDb链接 https://www.imdb.com/title/tt14439896/
◎豆瓣评分 6.5/10 (677人评价)
◎豆瓣链接 https://movie.douban.com/subject/35430647/
◎片  长 124分钟
◎导  演 罗莎琳德·罗斯 Rosalind Ross (id:1405423)
◎编  剧 罗莎琳德·罗斯 Rosalind Ross (id:1405423)
◎演  员 梅尔·吉布森 Mel Gibson (id:1054530)
       马克·沃尔伯格 Mark Wahlberg (id:1035674)
       杰基·韦佛 Jacki Weaver (id:1161151)
       安内特·莫翰德鲁 Annet Mahendru (id:1328987)
       特蕾莎·鲁伊斯 Teresa Ruiz (id:1404972)
       雯特·艾娃·佐莉 Winter Ave Zoli (id:1335423)
       阿兰·乌伊 Alain Uy (id:1418057)
       耐德·巴拉米 Ned Bellamy (id:1048233)
       罗尼·吉恩·贝尔维斯 Ronnie Gene Blevins (id:1018380)
       尼科·尼科特拉 Niko Nicotera (id:1402941)
       迈克尔·费尔曼 Michael Fairman (id:1032368)
       卡洛斯·李尔 Carlos Leal (id:1352500)
       安妮·李 Annie Lee (id:1042062)
       博·克利里 Bo Cleary (id:1387223)
       文森特·M·比肖内 Vincent M. Biscione (id:1001724)
       马克·卡西米尔·戴妮奇斯 Mark Casimir Dyniewicz (id:1254429)
       詹姆斯·亨特 James Hunter (id:1110968)
       约翰尼·曼斯巴赫 Johnny Mansbach (id:1243151)

◎简  介
  拳击手斯图尔特(马克·沃尔伯格 饰)因受伤而结束了他的职业生涯。从一场死亡车祸幸存后,他决定把握生命第二次机会,立志做一名牧师。                                    
                                根据真实人物故事改编。
  1. ##### MediaInfo ######
  2. General
  3. Unique ID                                : 56765452653497073580578872848798795780 (0x2AB4A0E5D929997CABC7ECEA0DF54804)
  4. Complete name                            : Father.Stu.2022.1080p.BluRay.x265.10bit.DTS-HomeHD.mkv
  5. Format                                   : Matroska
  6. Format version                           : Version 4
  7. File size                                : 6.70 GiB
  8. Duration                                 : 2 h 4 min
  9. Overall bit rate                         : 7 694 kb/s
  10. Encoded date                             : UTC 2022-06-15 13:56:21
  11. Writing application                      : mkvmerge v55.0.0 ('Waiting For Space') 64-bit
  12. Writing library                          : libebml v1.4.2 + libmatroska v1.6.4
  13. Video
  14. ID                                       : 1
  15. Format                                   : HEVC
  16. Format/Info                              : High Efficiency Video Coding
  17. Format profile                           : Main 10@L4@Main
  18. Codec ID                                 : V_MPEGH/ISO/HEVC
  19. Duration                                 : 2 h 4 min
  20. Bit rate                                 : 6 183 kb/s
  21. Width                                    : 1 920 pixels
  22. Height                                   : 804 pixels
  23. Display aspect ratio                     : 2.40:1
  24. Frame rate mode                          : Constant
  25. Frame rate                               : 23.976 (24000/1001/53354) FPS
  26. Color space                              : YUV
  27. Chroma subsampling                       : 4:2:0
  28. Bit depth                                : 10 bits
  29. Bits/(Pixel*Frame)                       : 0.167
  30. Stream size                              : 5.38 GiB (80%)
  31. Default                                  : Yes
  32. Forced                                   : No
  33. Audio
  34. ID                                       : 2
  35. Format                                   : DTS
  36. Format/Info                              : Digital Theater Systems
  37. Codec ID                                 : A_DTS
  38. Duration                                 : 2 h 4 min
  39. Bit rate mode                            : Constant
  40. Bit rate                                 : 1 509 kb/s
  41. Channel(s)                               : 6 channels
  42. Channel layout                           : C L R Ls Rs LFE
  43. Sampling rate                            : 48.0 kHz
  44. Frame rate                               : 93.750 FPS (512 SPF)
  45. Bit depth                                : 16 bits
  46. Compression mode                         : Lossy
  47. Stream size                              : 1.31 GiB (20%)
  48. Language                                 : English
  49. Default                                  : Yes
  50. Forced                                   : No
  51. Text
  52. ID                                       : 3
  53. Format                                   : UTF-8
  54. Codec ID                                 : S_TEXT/UTF8
  55. Codec ID/Info                            : UTF-8 Plain Text
  56. Duration                                 : 2 h 3 min
  57. Bit rate                                 : 51 b/s
  58. Count of elements                        : 1582
  59. Stream size                              : 46.7 KiB (0%)
  60. Title                                    : 简体
  61. Language                                 : Chinese
  62. Default                                  : Yes
  63. Forced                                   : No





此处一般会放置磁力链或种子下载链接,不过此链接需要注册会员才能看到,点击“立即注册”
磁力链下载【下载链接仅对注册会员开放,登陆后可见】
BT9527电影天堂 1、BT9527电影天堂提供的BT文件均来源于互联网抓取,只供网友学习交流、技术提升使用。
2、我们遵守BitTorrent点对点协议原则,任何版权问题请联系原资源发布商,我们不处理任何版权纠纷,谢谢!如有争议请联系邮箱:BT9527#hotmail.com(#换成@)
3、如果您发现某页面或地址有错误,请联系站长邮箱BT9527#hotmail.com(#换成@),我们会尽快处理。您的热心是对BT9527电影天堂最大的支持。
4、本站建议去正规影院观看电影以支持电影行业发展。
最新回复 (0)

你可以在 登录 or 注册 后,对此帖发表评论!

返回
发新帖