同栖生活[简体字幕].Parade.2009.BluRay.1080p.x265.10bit.DD5.0-MiniHD 7.33GB

版主小s 3月前 555

✔资源类型:暂未分类   ✔电影年份:2009   ✔电影地区:日本   ✔电影分类:剧情

◎译  名 同栖生活 / 东京同栖80后(港) / 检阅式 / Parêdo / Parade
◎片  名 パレード
◎年  代 2009
◎产  地 日本
◎类  别 剧情
◎语  言 日语
◎上映日期 2009-10-12(釜山电影节) / 2010-02-20(日本)
◎IMDb链接 https://www.imdb.com/title/tt1493070/
◎豆瓣评分 7.7/10 (7158人评价)
◎豆瓣链接 https://movie.douban.com/subject/3986152/
◎片  长 118分钟
◎导  演 行定勋 Isao Yukisada (id:1023405)
◎编  剧 行定勋 Isao Yukisada (id:1023405)
       吉田修一 Sh?ichi Yoshida (id:1314681)
◎演  员 藤原龙也 Tatsuya Fujiwara (id:1045190)
       香里奈 Karina (id:1033622)
       贯地谷栞 Shihori Kanjiya (id:1037758)
       林遣都 Kento Hayashi (id:1038106)
       小出惠介 Keisuke Koide (id:1033257)
       竹财辉之助 Terunosuke Takezai (id:1276118)
       石桥莲司 Renji Ishibashi (id:1054279)
       濑户夏实  (id:1367020)
       小澤真利奈 Marina Kozawa (id:1361217)
       矢柴俊博 Toshihiro Yashiba (id:1275800)
       木村绿子 Midoriko Kimura (id:1323325)
       中村友理 Yuri Nakamura (id:1274749)
       桃濑美咲 Misaki Momose (id:1319495)
       野波麻帆 Maho Nonami (id:1020232)
       波冈一喜 Kazuki Namioka (id:1275851)
       今井刚 Tsuyoshi Imai (id:1287312)
       山口修 Osamu Yamaguchi (id:1301390)

◎简  介
  位于东京某公寓的单元内,居住着四个年轻人,他们是迷恋前辈女友的大学生杉本良介(小出恵介 饰)、深爱着作为演员男友的无业女大河内琴美(贯地谷しほり 饰)、一心想成为插画师的相马未来(香里奈 饰)以及终日为工作奔波忙碌的电影公司职员伊原直辉(藤原竜也 饰)。他们性格各异,倒 也情投意合,生活波澜不惊。某天,一个年仅18岁的男妓小悟(林遣都 饰)闯入他们的世界,表面平静和谐的生活就此失衡。与此同时,隔壁的神秘邻居以及附近不断发生的行凶事件也令这个充满躁动的世界进一步崩塌……                                    
                                本片根据吉田修一的同名原著改编,并荣获第60届柏林电影节国际影评人费比西奖。

◎获奖情况 (共2项)
  第60届柏林国际电影节 (2010)
  费比西奖(国际影评人联盟奖) 大观单元最佳影片
   └──行定勋 (id:1023405)

  第4届亚洲电影大奖 (2010)
  最佳电影(提名)

  1. ##### MediaInfo ######
  2. General
  3. Unique ID                                : 247805607464170338662919085427683416241 (0xBA6D9FBD2B1F8C379A9784A7A926D8B1)
  4. Complete name                            : Parade.2009.BluRay.1080p.x265.10bit.DD5.0-MiniHD.mkv
  5. Format                                   : Matroska
  6. Format version                           : Version 4
  7. File size                                : 7.33 GiB
  8. Duration                                 : 1 h 58 min
  9. Overall bit rate                         : 8 867 kb/s
  10. Encoded date                             : UTC 2022-05-31 09:02:45
  11. Writing application                      : mkvmerge v68.0.0 ('The Curtain') 64-bit
  12. Writing library                          : libebml v1.4.2 + libmatroska v1.6.4
  13. Video
  14. ID                                       : 1
  15. Format                                   : HEVC
  16. Format/Info                              : High Efficiency Video Coding
  17. Format profile                           : Main 10@L5@High
  18. Codec ID                                 : V_MPEGH/ISO/HEVC
  19. Duration                                 : 1 h 58 min
  20. Bit rate                                 : 8 215 kb/s
  21. Width                                    : 1 920 pixels
  22. Height                                   : 1 080 pixels
  23. Display aspect ratio                     : 16:9
  24. Frame rate mode                          : Constant
  25. Frame rate                               : 23.976 (24000/1001/53354) FPS
  26. Color space                              : YUV
  27. Chroma subsampling                       : 4:2:0
  28. Bit depth                                : 10 bits
  29. Bits/(Pixel*Frame)                       : 0.165
  30. Stream size                              : 6.79 GiB (93%)
  31. Writing library                          : x265 3.5+20-17839cc0d:[Windows][GCC 11.2.0][64 bit] 10bit
  32. Encoding settings                        : cpuid=533541111039 / frame-threads=5 / numa-pools=24,24 / wpp / no-pmode / no-pme / no-psnr / no-ssim / log-level=2 / input-csp=1 / input-res=1920x1080 / interlace=0 / total-frames=170216 / level-idc=0 / high-tier=1 / uhd-bd=0 / ref=5 / no-allow-non-conformance / no-repeat-headers / annexb / no-aud / no-eob / no-eos / no-hrd / info / hash=0 / no-temporal-layers / no-open-gop / min-keyint=23 / keyint=250 / gop-lookahead=0 / bframes=9 / b-adapt=2 / b-pyramid / bframe-bias=0 / rc-lookahead=60 / lookahead-slices=0 / NTMzNTQ=uuDQuD2mJt9fsCf / scenecut=40 / no-hist-scenecut / radl=0 / no-splice / no-intra-refresh / ctu=32 / min-cu-size=8 / no-rect / no-amp / max-tu-size=32 / tu-inter-depth=4 / tu-intra-depth=4 / limit-tu=0 / rdoq-level=2 / dynamic-rd=0.00 / no-ssim-rd / signhide / no-tskip / nr-intra=0 / nr-inter=0 / no-constrained-intra / no-strong-intra-smoothing / max-merge=5 / limit-refs=0 / no-limit-modes / me=3 / subme=5 / merange=57 / temporal-mvp / no-frame-dup / no-hme / weightp / weightb / no-analyze-src-pics / deblock=-1:-1 / no-sao / no-sao-non-deblock / rd=4 / selective-sao=0 / no-early-skip / no-rskip / no-fast-intra / no-tskip-fast / no-cu-lossless / b-intra / no-splitrd-skip / rdpenalty=0 / psy-rd=2.00 / psy-rdoq=5.00 / no-rd-refine / no-lossless / cbqpoffs=0 / crqpoffs=0 / rc=crf / crf=23.0 / qcomp=0.70 / qpstep=4 / stats-write=0 / stats-read=0 / vbv-maxrate=100000 / vbv-bufsize=100000 / vbv-init=0.9 / min-vbv-fullness=50.0 / max-vbv-fullness=80.0 / crf-max=0.0 / crf-min=0.0 / ipratio=1.40 / pbratio=1.30 / aq-mode=1 / aq-strength=0.90 / no-cutree / zone-count=0 / no-strict-cbr / qg-size=32 / no-rc-grain / qpmax=69 / qpmin=0 / no-const-vbv / sar=0 / overscan=0 / videoformat=5 / range=0 / colorprim=1 / transfer=1 / colormatrix=1 / chromaloc=0 / display-window=0 / cll=0,0 / min-luma=0 / max-luma=1023 / log2-max-poc-lsb=8 / vui-timing-info / vui-hrd-info / slices=1 / no-opt-qp-pps / no-opt-ref-list-length-pps / no-multi-pass-opt-rps / scenecut-bias=0.05 / hist-threshold=0.03 / no-opt-cu-delta-qp / no-aq-motion / no-hdr10 / no-hdr10-opt / no-dhdr10-opt / no-idr-recovery-sei / analysis-reuse-level=0 / analysis-save-reuse-level=0 / analysis-load-reuse-level=0 / scale-factor=0 / refine-intra=0 / refine-inter=0 / refine-mv=1 / refine-ctu-distortion=0 / no-limit-sao / ctu-info=0 / no-lowpass-dct / refine-analysis-type=0 / copy-pic=1 / max-ausize-factor=1.0 / no-dynamic-refine / no-single-sei / no-hevc-aq / no-svt / no-field / qp-adaptation-range=1.00 / scenecut-aware-qp=0conformance-window-offsets / right=0 / bottom=0 / NTMzNTQ= / decoder-max-rate=0 / no-vbv-live-multi-pass
  33. Default                                  : Yes
  34. Forced                                   : No
  35. Color range                              : Limited
  36. Color primaries                          : BT.709
  37. Transfer characteristics                 : BT.709
  38. Matrix coefficients                      : BT.709
  39. Audio
  40. ID                                       : 2
  41. Format                                   : AC-3
  42. Format/Info                              : Audio Coding 3
  43. Commercial name                          : Dolby Digital
  44. Codec ID                                 : A_AC3
  45. Duration                                 : 1 h 58 min
  46. Bit rate mode                            : Constant
  47. Bit rate                                 : 640 kb/s
  48. Channel(s)                               : 5 channels
  49. Channel layout                           : L R C Ls Rs
  50. Sampling rate                            : 48.0 kHz
  51. Frame rate                               : 31.250 FPS (1536 SPF)
  52. Compression mode                         : Lossy
  53. Stream size                              : 542 MiB (7%)
  54. Language                                 : Japanese
  55. Service kind                             : Complete Main
  56. Default                                  : Yes
  57. Forced                                   : No
  58. Text
  59. ID                                       : 3
  60. ID in the original source medium         : 4609 (0x1201)
  61. Format                                   : PGS
  62. Muxing mode                              : zlib
  63. Codec ID                                 : S_HDMV/PGS
  64. Codec ID/Info                            : Picture based subtitle format used on BDs/HD-DVDs
  65. Duration                                 : 1 h 53 min
  66. Bit rate                                 : 20.3 kb/s
  67. Count of elements                        : 2832
  68. Stream size                              : 16.5 MiB (0%)
  69. Title                                    : chs
  70. Language                                 : Chinese
  71. Default                                  : Yes
  72. Forced                                   : No
  73. Original source medium                   : Blu-ray
  74. Menu
  75. 00:00:00.000                             : en:Chapter01
  76. 00:06:27.011                             : en:Chapter02
  77. 00:12:10.938                             : en:Chapter03
  78. 00:15:54.954                             : en:Chapter04
  79. 00:25:20.185                             : en:Chapter05
  80. 00:32:28.071                             : en:Chapter06
  81. 00:38:48.701                             : en:Chapter07
  82. 00:42:47.439                             : en:Chapter08
  83. 00:47:07.032                             : en:Chapter09
  84. 00:53:39.174                             : en:Chapter10
  85. 00:57:30.447                             : en:Chapter11
  86. 01:05:21.167                             : en:Chapter12
  87. 01:09:32.042                             : en:Chapter13
  88. 01:17:51.083                             : en:Chapter14
  89. 01:23:13.196                             : en:Chapter15
  90. 01:28:40.064                             : en:Chapter16
  91. 01:35:44.989                             : en:Chapter17
  92. 01:41:17.654                             : en:Chapter18
  93. 01:47:35.824                             : en:Chapter19
  94. 01:55:02.020                             : en:Chapter20





此处一般会放置磁力链或种子下载链接,不过此链接需要注册会员才能看到,点击“立即注册”
磁力链下载【下载链接仅对注册会员开放,登陆后可见】
BT9527电影天堂 1、BT9527电影天堂提供的BT文件均来源于互联网抓取,只供网友学习交流、技术提升使用。
2、我们遵守BitTorrent点对点协议原则,任何版权问题请联系原资源发布商,我们不处理任何版权纠纷,谢谢!如有争议请联系邮箱:BT9527#hotmail.com(#换成@)
3、如果您发现某页面或地址有错误,请联系站长邮箱BT9527#hotmail.com(#换成@),我们会尽快处理。您的热心是对BT9527电影天堂最大的支持。
4、本站建议去正规影院观看电影以支持电影行业发展。
最新回复 (0)

你可以在 登录 or 注册 后,对此帖发表评论!

返回
发新帖