冠军[简体字幕].Champion.2018.BluRay.1080p.x265.10bit.DDP5.1-MiniHD 6.57GB

版主小s 13天前 81

✔资源类型:暂未分类   ✔电影年份:2018   ✔电影地区:韩国   ✔电影分类:剧情

◎译  名 冠军 / 神臂大叔(港) / 冠军大叔(台) / Champion
◎片  名 ???
◎年  代 2018
◎产  地 韩国
◎类  别 剧情 / 运动
◎语  言 韩语
◎上映日期 2018-05-01(韩国)
◎IMDb链接 https://www.imdb.com/title/tt8367080/
◎豆瓣评分 6.9/10 (8419人评价)
◎豆瓣链接 https://movie.douban.com/subject/27129663/
◎片  长 108分钟
◎导  演 金勇完 Yong-Wan Kim (id:1391111)
◎编  剧 金勇完 Yong-Wan Kim (id:1391111)
◎演  员 马东锡 Don Lee (id:1322205)
       权律 Yool Kwan (id:1315057)
       韩艺璃 Ye-ri Han (id:1327527)
       崔乘训 Seung-hoon Choi (id:1383015)
       玉曳璘 Ye-rin Ok (id:1383022)
       姜新孝 Shin-hyo Kang (id:1330390)
       宋在熙 Jae-hee Song (id:1317434)
       杨贤民 Hyeon-min Yang (id:1381658)
       琴光山 Geum Gwang-san (id:1385920)
       李奎浩 Kyu-ho Lee (id:1391497)
       南砚友 Nam Yeon-woo (id:1383822)
       朴宣浩 Sun-ho Park (id:1378541)
       吴昌庆 Chang-kyeong Oh (id:1380474)
       柳顺雄 Soon-woong Yoo (id:1387807)
       金钟求 Kim Jong-goo (id:1379540)
       全余琳 Yu-lim Jeon (id:1380677)
       全惠媛 Jeon Hye-won (id:1382526)
       黄相庆 Sang-kyung Hwang (id:1381954)
       俞智妍 ??? (id:1382612)
       姜承贤 Seung-hyun Kang (id:1392619)
       刘盛玉 Seung-ok Yoo (id:1392621)
       孙淑子 Son Sook (id:1357179)
       朴光才 Gwang-jae Park (id:1392653)
       陆进秀 Jin-soo Yuk (id:1392617)
       杨祖儿 Jo-a Yang (id:1392655)
       李范圭 Bum-kyu Lee (id:1392620)
       白桑熙 Sang-hee Baek (id:1380676)
       朴成日 Park Seong-il (id:1373662)
       朴贊佑 Chan-woo Park (id:1392616)
       郭子亨 Ja-hyeong Kwak (id:1392654)
       Hyeong-taek Lim  Hyeong-taek Lim (id:1392662)
       Hyeong-taek Lim  Hyeong-taek Lim (id:1392661)
       郑大勋 Dae-hoon Jung (id:1392660)
       Won-bin Park  Won-bin Park (id:1392659)
       安晟敏 Sung-min Ahn (id:1392658)
       朴世俊 Se-joon Park (id:1392657)
       Eun-ji Yoon Eun-ji Yoon (id:1392663)
       Jae-han Park  Jae-han Park (id:1398056)
       金泰乡 Kim Tae Hyang (id:1467672)
       朴智妍 Ji-Yeon Park (id:1448090)
       安河允 AHN HA YUN (id:1442897)
       金建 Kim Geon (id:1434405)
       卡森·艾伦 Carson Allen (id:1437994)
       Ji-yoo No  Ji-yoo No (id:1426983)
       张由彬 Yoo-bin Jang (id:1416728)
       金茂 Jin Mo (id:1400660)
       In-beom Heo  In-beom Heo (id:1392622)
       Myung-soo Han  Myung-soo Han (id:1392618)
       Woo-ram Yoo Woo-ram Yoo (id:1391386)
       许明行 Heo Myeong Haeng (id:1467965)

◎简  介
  在美国洛杉矶夜店工作的马克(马东石 饰),一直梦想在腕力比赛中成为世界冠军,被自认是他经纪人的晋基(权律 饰)说服,回到韩国参加全国腕力大赛。                                    
                                除了比赛之外,晋基还送了从小被领养到美国的马克亲生母亲住家地址当做回国礼物。不过,马克只遇见从没见过面的妹妹秀珍(韩艺利 饰)和她的 一双儿女。在晋基牵线下,马克参加非法的腕力比赛。面对腕力怪物强敌环伺,在家人的支持下,马克能够一圆冠军梦吗?
  1. ##### MediaInfo ######
  2. General
  3. Unique ID                                : 36979477573368008967407878624418508182 (0x1BD1FD0273357FC258AF1320DFACAD96)
  4. Complete name                            : Champion.2018.BluRay.1080p.x265.10bit.DDP5.1-MiniHD.mkv
  5. Format                                   : Matroska
  6. Format version                           : Version 4
  7. File size                                : 6.57 GiB
  8. Duration                                 : 1 h 48 min
  9. Overall bit rate                         : 8 702 kb/s
  10. Encoded date                             : UTC 2022-05-29 10:13:04
  11. Writing application                      : mkvmerge v68.0.0 ('The Curtain') 64-bit
  12. Writing library                          : libebml v1.4.2 + libmatroska v1.6.4
  13. Video
  14. ID                                       : 1
  15. Format                                   : HEVC
  16. Format/Info                              : High Efficiency Video Coding
  17. Format profile                           : Main 10@L5@High
  18. Codec ID                                 : V_MPEGH/ISO/HEVC
  19. Duration                                 : 1 h 48 min
  20. Bit rate                                 : 7 641 kb/s
  21. Width                                    : 1 920 pixels
  22. Height                                   : 804 pixels
  23. Display aspect ratio                     : 2.40:1
  24. Frame rate mode                          : Constant
  25. Frame rate                               : 23.976 (24000/1001/53354) FPS
  26. Color space                              : YUV
  27. Chroma subsampling                       : 4:2:0
  28. Bit depth                                : 10 bits
  29. Bits/(Pixel*Frame)                       : 0.206
  30. Stream size                              : 5.77 GiB (88%)
  31. Writing library                          : x265 3.5+20-17839cc0d:[Windows][GCC 11.2.0][64 bit] 10bit
  32. Encoding settings                        : cpuid=533541111039 / frame-threads=5 / numa-pools=24,24 / wpp / no-pmode / no-pme / no-psnr / no-ssim / log-level=2 / input-csp=1 / input-res=1920x804 / interlace=0 / total-frames=155544 / level-idc=0 / high-tier=1 / uhd-bd=0 / ref=5 / no-allow-non-conformance / no-repeat-headers / annexb / no-aud / no-eob / no-eos / no-hrd / info / hash=0 / no-temporal-layers / no-open-gop / min-keyint=23 / keyint=250 / gop-lookahead=0 / bframes=9 / b-adapt=2 / b-pyramid / bframe-bias=0 / rc-lookahead=60 / lookahead-slices=0 / NTMzNTQ=uuDQuD2mJt9fsCf / scenecut=40 / no-hist-scenecut / radl=0 / no-splice / no-intra-refresh / ctu=32 / min-cu-size=8 / no-rect / no-amp / max-tu-size=32 / tu-inter-depth=4 / tu-intra-depth=4 / limit-tu=0 / rdoq-level=2 / dynamic-rd=0.00 / no-ssim-rd / signhide / no-tskip / nr-intra=0 / nr-inter=0 / no-constrained-intra / no-strong-intra-smoothing / max-merge=5 / limit-refs=0 / no-limit-modes / me=3 / subme=5 / merange=57 / temporal-mvp / no-frame-dup / no-hme / weightp / weightb / no-analyze-src-pics / deblock=-1:-1 / no-sao / no-sao-non-deblock / rd=4 / selective-sao=0 / no-early-skip / no-rskip / no-fast-intra / no-tskip-fast / no-cu-lossless / b-intra / no-splitrd-skip / rdpenalty=0 / psy-rd=2.00 / psy-rdoq=5.00 / no-rd-refine / no-lossless / cbqpoffs=0 / crqpoffs=0 / rc=crf / crf=21.5 / qcomp=0.70 / qpstep=4 / stats-write=0 / stats-read=0 / vbv-maxrate=100000 / vbv-bufsize=100000 / vbv-init=0.9 / min-vbv-fullness=50.0 / max-vbv-fullness=80.0 / crf-max=0.0 / crf-min=0.0 / ipratio=1.40 / pbratio=1.30 / aq-mode=1 / aq-strength=0.90 / no-cutree / zone-count=0 / no-strict-cbr / qg-size=32 / no-rc-grain / qpmax=69 / qpmin=0 / no-const-vbv / sar=0 / overscan=0 / videoformat=5 / range=0 / colorprim=1 / transfer=1 / colormatrix=1 / chromaloc=0 / display-window=0 / cll=0,0 / min-luma=0 / max-luma=1023 / log2-max-poc-lsb=8 / vui-timing-info / vui-hrd-info / slices=1 / no-opt-qp-pps / no-opt-ref-list-length-pps / no-multi-pass-opt-rps / scenecut-bias=0.05 / hist-threshold=0.03 / no-opt-cu-delta-qp / no-aq-motion / no-hdr10 / no-hdr10-opt / no-dhdr10-opt / no-idr-recovery-sei / analysis-reuse-level=0 / analysis-save-reuse-level=0 / analysis-load-reuse-level=0 / scale-factor=0 / refine-intra=0 / refine-inter=0 / refine-mv=1 / refine-ctu-distortion=0 / no-limit-sao / ctu-info=0 / no-lowpass-dct / refine-analysis-type=0 / copy-pic=1 / max-ausize-factor=1.0 / no-dynamic-refine / no-single-sei / no-hevc-aq / no-svt / no-field / qp-adaptation-range=1.00 / scenecut-aware-qp=0conformance-window-offsets / right=0 / bottom=0 / NTMzNTQ= / decoder-max-rate=0 / no-vbv-live-multi-pass
  33. Default                                  : Yes
  34. Forced                                   : No
  35. Color range                              : Limited
  36. Color primaries                          : BT.709
  37. Transfer characteristics                 : BT.709
  38. Matrix coefficients                      : BT.709
  39. Audio
  40. ID                                       : 2
  41. Format                                   : E-AC-3
  42. Format/Info                              : Enhanced AC-3
  43. Commercial name                          : Dolby Digital Plus
  44. Codec ID                                 : A_EAC3
  45. Duration                                 : 1 h 48 min
  46. Bit rate mode                            : Constant
  47. Bit rate                                 : 1 024 kb/s
  48. Channel(s)                               : 6 channels
  49. Channel layout                           : L R C LFE Ls Rs
  50. Sampling rate                            : 48.0 kHz
  51. Frame rate                               : 31.250 FPS (1536 SPF)
  52. Compression mode                         : Lossy
  53. Stream size                              : 792 MiB (12%)
  54. Language                                 : Korean
  55. Service kind                             : Complete Main
  56. Default                                  : Yes
  57. Forced                                   : No
  58. Text #1
  59. ID                                       : 3
  60. ID in the original source medium         : 4612 (0x1204)
  61. Format                                   : PGS
  62. Muxing mode                              : zlib
  63. Codec ID                                 : S_HDMV/PGS
  64. Codec ID/Info                            : Picture based subtitle format used on BDs/HD-DVDs
  65. Duration                                 : 1 h 43 min
  66. Bit rate                                 : 32.3 kb/s
  67. Count of elements                        : 2815
  68. Stream size                              : 24.0 MiB (0%)
  69. Title                                    : chs
  70. Language                                 : Chinese
  71. Default                                  : Yes
  72. Forced                                   : No
  73. Original source medium                   : Blu-ray
  74. Text #2
  75. ID                                       : 4
  76. ID in the original source medium         : 4608 (0x1200)
  77. Format                                   : PGS
  78. Muxing mode                              : zlib
  79. Codec ID                                 : S_HDMV/PGS
  80. Codec ID/Info                            : Picture based subtitle format used on BDs/HD-DVDs
  81. Duration                                 : 1 h 42 min
  82. Bit rate                                 : 36.7 kb/s
  83. Count of elements                        : 2838
  84. Stream size                              : 27.0 MiB (0%)
  85. Language                                 : Korean
  86. Default                                  : No
  87. Forced                                   : No
  88. Original source medium                   : Blu-ray
  89. Menu
  90. 00:00:00.000                             : en:Chapter01
  91. 00:06:58.835                             : en:Chapter02
  92. 00:13:48.786                             : en:Chapter03
  93. 00:22:08.243                             : en:Chapter04
  94. 00:28:04.307                             : en:Chapter05
  95. 00:37:15.483                             : en:Chapter06
  96. 00:45:08.330                             : en:Chapter07
  97. 00:51:21.578                             : en:Chapter08
  98. 00:58:13.198                             : en:Chapter09
  99. 01:06:13.219                             : en:Chapter10
  100. 01:11:54.101                             : en:Chapter11
  101. 01:18:11.812                             : en:Chapter12
  102. 01:24:22.891                             : en:Chapter13
  103. 01:30:15.326                             : en:Chapter14
  104. 01:36:08.387                             : en:Chapter15
  105. 01:43:20.611                             : en:Chapter16





此处一般会放置磁力链或种子下载链接,不过此链接需要注册会员才能看到,点击“立即注册”
磁力链下载【下载链接仅对注册会员开放,登陆后可见】
BT9527电影天堂 1、BT9527电影天堂提供的BT文件均来源于互联网抓取,只供网友学习交流、技术提升使用。
2、我们遵守BitTorrent点对点协议原则,任何版权问题请联系原资源发布商,我们不处理任何版权纠纷,谢谢!如有争议请联系邮箱:BT9527#hotmail.com(#换成@)
3、如果您发现某页面或地址有错误,请联系站长邮箱BT9527#hotmail.com(#换成@),我们会尽快处理。您的热心是对BT9527电影天堂最大的支持。
4、本站建议去正规影院观看电影以支持电影行业发展。
最新回复 (0)

你可以在 登录 or 注册 后,对此帖发表评论!

返回
发新帖