低俗喜剧[国粤多音轨/简繁字幕].Vulgaria.2012.1080p.BluRay.DTS.2Audio.x265-10bit-ENTHD 5.11GB

版主小s 11天前 94

✔资源类型:暂未分类   ✔电影年份:2012   ✔电影地区:香港   ✔电影分类:喜剧

◎译  名 低俗喜剧 / Vulgaria
◎片  名 低俗喜劇
◎年  代 2012
◎产  地 中国香港
◎类  别 喜剧
◎语  言 汉语普通话 / 粤语
◎上映日期 2012-08-09(中国香港)
◎IMDb链接 https://www.imdb.com/title/tt2266938/
◎豆瓣评分 6.4/10 (66305人评价)
◎豆瓣链接 https://movie.douban.com/subject/6869395/
◎片  长 93分钟
◎导  演 彭浩翔 Ho-Cheung Pang (id:1000148)
◎编  剧 彭浩翔 Ho-Cheung Pang (id:1000148)
       陆以心 Luk Yee Sum (id:1318642)
       林超荣 Chiu-Wing Lam (id:1320552)
◎演  员 邵音音 Yin-Yin Shaw (id:1297367)
       詹瑞文 Sui-man Chim (id:1304196)
       叶山豪 Hayama Go (id:1001604)
       邹凯光 Matt Chow (id:1275121)
       陈静 Dada Chan (id:1316214)
       薛凯琪 Fiona Sit (id:1023827)
       郑中基 Ronald Cheng (id:1032940)
       林雪 Suet Lam (id:1274279)
       雷宇扬 Simon Lui (id:1121730)
       田蕊妮 Kristal Tin (id:1275866)
       杨千嬅 Miriam Yeung (id:1173971)
       黄璐 Lu Huang (id:1276144)
       陈沛妍 Jacqueline Chan (id:1336686)
       麦玲玲 Lingling Mak (id:1371988)
       彭秀慧 Kearen Pang (id:1318293)
       刘伟恒 Wai-Hang Lau (id:1354380)
       周俊伟 Lawrence Chou (id:1001466)
       苗可秀 Nora Miao (id:1005207)
       谷德昭 Vincent Kok (id:1025526)
       郑丹瑞 Lawrence Cheng (id:1017103)
       彭浩翔 Ho-Cheung Pang (id:1000148)
       黄艾伦 Alan Wong (id:1318832)
       翁玮盈 Janet Yung (id:1316419)
       李拾壹 Subyub Lee (id:1366379)
       关智耀 Jason Kwan Chi-Yiu (id:1318237)
       叶绍麒 Yip Shiu Kei (id:1408645)
       李栋全 Wenders Li (id:1275162)
       何乐琳 Lok-lam Ho  (id:1323332)
       王庆生 Ken Wong (id:1330605)

◎简  介
  电影人杜惠彰(杜汶泽 饰)在某大学讲座期间,应学生之请讲述了自己为电影事业一次最惨痛最不堪回首的牺牲经历:作品不上台面的杜和老婆离婚后时时被追讨赡养费,助理刘倩儿(薛凯琪饰)超级不靠谱搞丢新片企划。落魄之际,好友雷永成(雷宇扬饰)牵线认识广西富二代暴龙哥(郑中基 饰)。面对乖戾变态的暴龙哥,阿杜做出几乎让自己大脑断片失忆的惨烈牺牲,总算获得对方投资的承诺,但是他必须请来早已收山明星邵音音(邵音音 饰)拍摄咸湿大作续集。在此之后,他说动邵,又网络男主角叶山豪(叶山豪饰)、模特徐家欣(陈静饰)以及导演黑仔达(邹凯光饰)等人加盟。                                    
                                万事俱备,只欠东风,然而状况意外接二连三,杜监制面临从业来最大的危机与挑战……

◎获奖情况 (共10项)
  第49届台北金马影展 (2012)
  金马奖 最佳男主角(提名)
  金马奖 最佳男配角
   └──郑中基 (id:1032940)
  金马奖 最佳女配角(提名)
   └──陈静 (id:1316214)

  第32届香港电影金像奖 (2013)
  最佳电影(提名)
  最佳编剧(提名)
  最佳男主角(提名)
  最佳男配角
   └──郑中基 (id:1032940)
  最佳女配角
   └──陈静 (id:1316214)
  最佳女配角(提名)
   └──邵音音 (id:1297367)

  第16届富川国际奇幻电影节 (2012)
  富川选择奖(长片) Netpac Award
   └──彭浩翔 (id:1000148)

  1. ##### MediaInfo ######
  2. General
  3. Unique ID                                : 328563161104764314734494348388003331693 (0xF72EF68B0FE610218E0F94C55B31BE6D)
  4. Complete name                            : Vulgaria.2012.1080p.BluRay.DTS.2Audio.x265-10bit-ENTHD.mkv
  5. Format                                   : Matroska
  6. Format version                           : Version 4
  7. File size                                : 5.11 GiB
  8. Duration                                 : 1 h 32 min
  9. Overall bit rate                         : 7 865 kb/s
  10. Movie name                               : Vulgaria 2012 1080p BluRay DTS 2Audio x265-10bit-HDS
  11. Encoded date                             : UTC 2022-06-17 06:34:15
  12. Writing application                      : mkvmerge v67.0.0 ('Under Stars') 64-bit
  13. Writing library                          : libebml v1.4.2 + libmatroska v1.6.4
  14. Video
  15. ID                                       : 1
  16. Format                                   : HEVC
  17. Format/Info                              : High Efficiency Video Coding
  18. Format profile                           : Main 10@L5.1@High
  19. Codec ID                                 : V_MPEGH/ISO/HEVC
  20. Duration                                 : 1 h 32 min
  21. Bit rate                                 : 6 515 kb/s
  22. Width                                    : 1 920 pixels
  23. Height                                   : 804 pixels
  24. Display aspect ratio                     : 2.40:1
  25. Frame rate mode                          : Constant
  26. Frame rate                               : 24.000 FPS
  27. Color space                              : YUV
  28. Chroma subsampling                       : 4:2:0
  29. Bit depth                                : 10 bits
  30. Bits/(Pixel*Frame)                       : 0.176
  31. Stream size                              : 4.23 GiB (83%)
  32. Title                                    : cofunlau@HDSky
  33. Writing library                          : x265 - H.265/HEVC codec
  34. Default                                  : Yes
  35. Forced                                   : No
  36. Audio #1
  37. ID                                       : 2
  38. Format                                   : AC-3
  39. Format/Info                              : Audio Coding 3
  40. Commercial name                          : Dolby Digital
  41. Codec ID                                 : A_AC3
  42. Duration                                 : 1 h 32 min
  43. Bit rate mode                            : Constant
  44. Bit rate                                 : 640 kb/s
  45. Channel(s)                               : 6 channels
  46. Channel layout                           : L R C LFE Ls Rs
  47. Sampling rate                            : 48.0 kHz
  48. Frame rate                               : 31.250 FPS (1536 SPF)
  49. Compression mode                         : Lossy
  50. Stream size                              : 425 MiB (8%)
  51. Title                                    : Cantonese
  52. Language                                 : Chinese
  53. Service kind                             : Complete Main
  54. Default                                  : Yes
  55. Forced                                   : No
  56. Audio #2
  57. ID                                       : 3
  58. Format                                   : AC-3
  59. Format/Info                              : Audio Coding 3
  60. Commercial name                          : Dolby Digital
  61. Codec ID                                 : A_AC3
  62. Duration                                 : 1 h 32 min
  63. Bit rate mode                            : Constant
  64. Bit rate                                 : 640 kb/s
  65. Channel(s)                               : 6 channels
  66. Channel layout                           : L R C LFE Ls Rs
  67. Sampling rate                            : 48.0 kHz
  68. Frame rate                               : 31.250 FPS (1536 SPF)
  69. Compression mode                         : Lossy
  70. Stream size                              : 425 MiB (8%)
  71. Title                                    : Mandarin
  72. Language                                 : Chinese
  73. Service kind                             : Complete Main
  74. Default                                  : Yes
  75. Forced                                   : No
  76. Text #1
  77. ID                                       : 4
  78. Format                                   : PGS
  79. Muxing mode                              : zlib
  80. Codec ID                                 : S_HDMV/PGS
  81. Codec ID/Info                            : Picture based subtitle format used on BDs/HD-DVDs
  82. Duration                                 : 1 h 28 min
  83. Bit rate                                 : 49.8 kb/s
  84. Count of elements                        : 3604
  85. Stream size                              : 31.6 MiB (1%)
  86. Title                                    : CHS
  87. Language                                 : Chinese
  88. Default                                  : Yes
  89. Forced                                   : No
  90. Text #2
  91. ID                                       : 5
  92. Format                                   : PGS
  93. Muxing mode                              : zlib
  94. Codec ID                                 : S_HDMV/PGS
  95. Codec ID/Info                            : Picture based subtitle format used on BDs/HD-DVDs
  96. Duration                                 : 1 h 28 min
  97. Bit rate                                 : 50.6 kb/s
  98. Count of elements                        : 3441
  99. Stream size                              : 32.1 MiB (1%)
  100. Title                                    : CHT
  101. Language                                 : Chinese
  102. Default                                  : Yes
  103. Forced                                   : No
  104. Text #3
  105. ID                                       : 6
  106. Format                                   : PGS
  107. Muxing mode                              : zlib
  108. Codec ID                                 : S_HDMV/PGS
  109. Codec ID/Info                            : Picture based subtitle format used on BDs/HD-DVDs
  110. Duration                                 : 1 h 28 min
  111. Bit rate                                 : 66.7 kb/s
  112. Count of elements                        : 3441
  113. Stream size                              : 42.3 MiB (1%)
  114. Title                                    : CHT
  115. Language                                 : Chinese
  116. Default                                  : Yes
  117. Forced                                   : No
  118. Menu
  119. 00:00:00.000                             : en:第 01 章
  120. 00:08:54.792                             : en:第 02 章
  121. 00:13:57.208                             : en:第 03 章
  122. 00:24:42.542                             : en:第 04 章
  123. 00:31:44.917                             : en:第 05 章
  124. 00:38:06.250                             : en:第 06 章
  125. 00:42:40.333                             : en:第 07 章
  126. 00:51:54.000                             : en:第 08 章
  127. 01:00:01.500                             : en:第 09 章
  128. 01:06:05.417                             : en:第 10 章
  129. 01:12:32.583                             : en:第 11 章
  130. 01:20:20.958                             : en:第 12 章
  131. 01:32:57.042                             : en:第 13 章





此处一般会放置磁力链或种子下载链接,不过此链接需要注册会员才能看到,点击“立即注册”
磁力链下载【下载链接仅对注册会员开放,登陆后可见】
BT9527电影天堂 1、BT9527电影天堂提供的BT文件均来源于互联网抓取,只供网友学习交流、技术提升使用。
2、我们遵守BitTorrent点对点协议原则,任何版权问题请联系原资源发布商,我们不处理任何版权纠纷,谢谢!如有争议请联系邮箱:BT9527#hotmail.com(#换成@)
3、如果您发现某页面或地址有错误,请联系站长邮箱BT9527#hotmail.com(#换成@),我们会尽快处理。您的热心是对BT9527电影天堂最大的支持。
4、本站建议去正规影院观看电影以支持电影行业发展。
最新回复 (0)

你可以在 登录 or 注册 后,对此帖发表评论!

返回