共同警备区[中文字幕].Joint.Security.Area.2000.1080p.BluRay.DTS.x265-10bit-ENTHD 7.99GB

版主小s 3月前 220

✔资源类型:暂未分类   ✔电影年份:更 早   ✔电影地区:韩国   ✔电影分类:剧情

◎译  名 共同警备区 / 共同警戒区(台) / JSA安全地带 / 共同警备区域JSA / 联合防卫领域 / Joint Security Area
◎片  名 ?????? JSA
◎年  代 2000
◎产  地 韩国
◎类  别 剧情
◎语  言 韩语 / 英语 / 德语
◎上映日期 2000-09-09(韩国)
◎IMDb链接 https://www.imdb.com/title/tt0260991/
◎豆瓣评分 8.8/10 (87424人评价)
◎豆瓣链接 https://movie.douban.com/subject/1306664/
◎片  长 110分钟
◎导  演 朴赞郁 Chan-wook Park (id:1137414)
◎编  剧 金炫锡 Hyeon-seok Kim (id:1288538)
       李无影 Mu-yeong Lee (id:1329993)
       郑成山 Sung-san Jung (id:1331106)
       朴赞郁 Chan-wook Park (id:1137414)
       朴尚渊 Sang-yeon Park (id:1021916)
◎演  员 李英爱 Yeong-ae Lee (id:1004933)
       李秉宪 Byung-hun Lee (id:1105108)
       宋康昊 Kang-ho Song (id:1031238)
       金太祐 Tae-woo Kim (id:1001149)
       申河均 Ha-kyun Shin (id:1140667)
       Herbert Ulrich Herbert Ulrich (id:1197462)
       李汉伟 Han-wi Lee (id:1316561)
       奇周峯 Joo-bong Ki (id:1051277)
       陈泰贤 Zin Tae Hyun (id:1006728)
       李代延 Dae-yeon Lee (id:1042754)
       林一圭 Lim il-kyu (id:1376445)
       金明秀 Myeong-su Kim (id:1373923)
       权南熙 Nam-hee Kwon (id:1381699)
       金明秀 Myoeng-su Kim (id:1173461)
       朴胜裴 Seung-Bae Park (id:1424326)
       李恩秀 Eun Soo Lee (id:1289663)
       沈载明 Shim Jae Myung (id:1337773)
       曹永旭 Yeong-wook Jo (id:1287735)
       金成福 Sung-Bok Kim (id:1452407)
       金尚范 Sang-bum Kim (id:1288546)
       金相满 Sang-man Kim (id:1335872)

◎简  介
  板门店边界的共同警备区,一天,哨所里的朝鲜士兵(申河均饰)为来路不明的子弹所杀,引发双方枪战。而最有嫌疑的凶手是同在边界上的韩国士兵,但韩国一方却指责是朝鲜先调起事端,双方都认为对手应该对此负责。                                    
                                为了解决这一无头案件,南北双方同意由一个中立国来进行调查协调。瑞士国籍韩国女孩苏菲(李英爱饰)受派前来调查事件,韩国这边的李秀赫(李秉宪饰)始终保持沉默,而朝鲜一边的幸存者吴敬必(宋康昊饰)却表现出敌意,事情扑朔迷离。随着深入了解,苏菲发现事情隐藏著内幕,现场还另有其人……

◎获奖情况 (共2项)
  第51届柏林国际电影节 (2001)
  金熊奖 最佳影片(提名)
   └──朴赞郁 (id:1137414)

  第22届香港电影金像奖 (2003)
  最佳亚洲电影(提名)

  1. ##### MediaInfo ######
  2. General
  3. Unique ID                                : 191456360042786104425932690381706687160 (0x90092757E614D2597C5A21599F10F2B8)
  4. Complete name                            : Joint.Security.Area.2000.1080p.BluRay.DTS.x265-10bit-ENTHD.mkv
  5. Format                                   : Matroska
  6. Format version                           : Version 4
  7. File size                                : 7.99 GiB
  8. Duration                                 : 1 h 49 min
  9. Overall bit rate                         : 10.5 Mb/s
  10. Movie name                               : Joint Security Area 2000 1080p BluRay DTS x265-10bit-HDS
  11. Encoded date                             : UTC 2022-06-16 03:59:01
  12. Writing application                      : mkvmerge v38.0.0 ('The Silent Type') 64-bit
  13. Writing library                          : libebml v1.3.9 + libmatroska v1.5.2
  14. Video
  15. ID                                       : 1
  16. Format                                   : HEVC
  17. Format/Info                              : High Efficiency Video Coding
  18. Format profile                           : Main 10@L5.1@High
  19. Codec ID                                 : V_MPEGH/ISO/HEVC
  20. Duration                                 : 1 h 49 min
  21. Bit rate                                 : 8 950 kb/s
  22. Width                                    : 1 920 pixels
  23. Height                                   : 804 pixels
  24. Display aspect ratio                     : 2.40:1
  25. Frame rate mode                          : Constant
  26. Frame rate                               : 23.976 (24000/1001/53354) FPS
  27. Color space                              : YUV
  28. Chroma subsampling                       : 4:2:0
  29. Bit depth                                : 10 bits
  30. Bits/(Pixel*Frame)                       : 0.242
  31. Stream size                              : 6.82 GiB (85%)
  32. Title                                    : billpotter@HDSky
  33. Writing library                          : x265 - H.265/HEVC codec
  34. Default                                  : Yes
  35. Forced                                   : No
  36. Audio
  37. ID                                       : 2
  38. Format                                   : DTS
  39. Format/Info                              : Digital Theater Systems
  40. Codec ID                                 : A_DTS
  41. Duration                                 : 1 h 49 min
  42. Bit rate mode                            : Constant
  43. Bit rate                                 : 1 509 kb/s
  44. Channel(s)                               : 6 channels
  45. Channel layout                           : C L R Ls Rs LFE
  46. Sampling rate                            : 48.0 kHz
  47. Frame rate                               : 93.750 FPS (512 SPF)
  48. Bit depth                                : 24 bits
  49. Compression mode                         : Lossy
  50. Stream size                              : 1.15 GiB (14%)
  51. Title                                    : Korean
  52. Language                                 : Korean
  53. Default                                  : Yes
  54. Forced                                   : No
  55. Text #1
  56. ID                                       : 3
  57. Format                                   : PGS
  58. Muxing mode                              : zlib
  59. Codec ID                                 : S_HDMV/PGS
  60. Codec ID/Info                            : Picture based subtitle format used on BDs/HD-DVDs
  61. Duration                                 : 1 h 43 min
  62. Bit rate                                 : 17.6 kb/s
  63. Count of elements                        : 1337
  64. Stream size                              : 13.1 MiB (0%)
  65. Title                                    : CHS
  66. Language                                 : Chinese
  67. Default                                  : Yes
  68. Forced                                   : No
  69. Text #2
  70. ID                                       : 4
  71. Format                                   : PGS
  72. Muxing mode                              : zlib
  73. Codec ID                                 : S_HDMV/PGS
  74. Codec ID/Info                            : Picture based subtitle format used on BDs/HD-DVDs
  75. Duration                                 : 1 h 43 min
  76. Bit rate                                 : 18.0 kb/s
  77. Count of elements                        : 1337
  78. Stream size                              : 13.4 MiB (0%)
  79. Title                                    : CHT
  80. Language                                 : Chinese
  81. Default                                  : No
  82. Forced                                   : No
  83. Menu
  84. 00:00:00.000                             : en:Chapter 01
  85. 00:03:17.823                             : en:Chapter 02
  86. 00:08:27.132                             : en:Chapter 03
  87. 00:11:10.128                             : en:Chapter 04
  88. 00:14:46.386                             : en:Chapter 05
  89. 00:19:33.964                             : en:Chapter 06
  90. 00:24:14.912                             : en:Chapter 07
  91. 00:30:28.952                             : en:Chapter 08
  92. 00:37:14.691                             : en:Chapter 09
  93. 00:43:05.625                             : en:Chapter 10
  94. 00:49:14.493                             : en:Chapter 11
  95. 00:54:54.082                             : en:Chapter 12
  96. 01:01:04.369                             : en:Chapter 13
  97. 01:10:44.282                             : en:Chapter 14
  98. 01:13:41.208                             : en:Chapter 15
  99. 01:18:52.102                             : en:Chapter 16
  100. 01:23:56.073                             : en:Chapter 17
  101. 01:27:35.542                             : en:Chapter 18
  102. 01:38:21.771                             : en:Chapter 19
  103. 01:44:46.739                             : en:Chapter 20





此处一般会放置磁力链或种子下载链接,不过此链接需要注册会员才能看到,点击“立即注册”
磁力链下载【下载链接仅对注册会员开放,登陆后可见】
BT9527电影天堂 1、BT9527电影天堂提供的BT文件均来源于互联网抓取,只供网友学习交流、技术提升使用。
2、我们遵守BitTorrent点对点协议原则,任何版权问题请联系原资源发布商,我们不处理任何版权纠纷,谢谢!如有争议请联系邮箱:BT9527#hotmail.com(#换成@)
3、如果您发现某页面或地址有错误,请联系站长邮箱BT9527#hotmail.com(#换成@),我们会尽快处理。您的热心是对BT9527电影天堂最大的支持。
4、本站建议去正规影院观看电影以支持电影行业发展。
最新回复 (0)

你可以在 登录 or 注册 后,对此帖发表评论!

返回
发新帖