新最佳拍档[国粤多音轨/简繁英字幕].Aces.Go.Places.V.1989.1080p.BluRay.DTS.2Audio.x265-10bit-ENTHD 7.18GB

版主小s 3月前 200

✔资源类型:暂未分类   ✔电影年份:更 早   ✔电影地区:香港   ✔电影分类:喜剧

◎译  名 新最佳拍档 / 最佳拍档5:兵马俑风云 / Aces Go Places V
◎片  名 新最佳拍檔
◎年  代 1989
◎产  地 中国香港
◎类  别 喜剧 / 动作 / 犯罪
◎语  言 粤语
◎上映日期 1989-01-28(中国香港)
◎IMDb链接 https://www.imdb.com/title/tt0098681/
◎豆瓣评分 6.9/10 (7476人评价)
◎豆瓣链接 https://movie.douban.com/subject/1299790/
◎片  长 103 分钟
◎导  演 刘家良 Kar-Leung Lau (id:1275361)
◎演  员 许冠杰 Samuel Hui (id:1102963)
       麦嘉 Karl Maka (id:1274986)
       张国荣 Leslie Cheung (id:1003494)
       利智 Nina Li Chi (id:1124360)
       李元霸 Conan Lee (id:1313862)
       陈雅伦 Ellen Chan (id:1005623)
       李修贤 Danny Lee (id:1025452)
       袁洁莹 Fennie Yuen (id:1051082)
       张耀扬 Roy Cheung (id:1012751)
       曹达华 Tat-wah Cho (id:1070438)
       玛利亚 Maria Cordero (id:1281277)
       夏志珍 Chi Chun Ha (id:1280641)
       黄锦燊 Melvin Wong (id:1037445)
       Deborah Grant Deborah Grant (id:1032771)
       布鲁斯·方丹 Bruce Fontaine (id:1458121)
       麦嘉 Karl Maka (id:1274986)
       陈广鸿 Kwong-Hung Chan (id:1318796)

◎简  介
  金刚(许冠杰 饰)与光头佬(麦嘉 饰)在一次泰国的任务中不欢而散,自此分道扬镳各奔前程……时间一晃三年,国宝兵马俑与秦皇宝剑在赴港展出的路上被白手套一伙施调包计窃走,自称“新最佳拍档”的飞贼姐弟(利智&张国荣 饰)再由白手套手中夺走宝剑,并高调登报嫁祸于最佳拍档。一时间,大陆方面派出的中国蓝波(李元霸 饰)与白手套等人均认为退出江湖的最佳拍档是夺剑人,对金刚和光头佬展开连番追捕。最终两个老搭档终于澄清误会,联合飞贼姐弟接受大陆方面的艰苦训练,以期能够为保护国宝而战……                                    
                                本片是《最佳拍档》系列电影的第五集。
  1. ##### MediaInfo ######
  2. General
  3. Unique ID                                : 14198349709753798778222624418917007237 (0xAAE80B0132C3FFE03813D1BC5883F85)
  4. Complete name                            : Aces.Go.Places.V.1989.1080p.BluRay.DTS.2Audio.x265-10bit-ENTHD.mkv
  5. Format                                   : Matroska
  6. Format version                           : Version 4
  7. File size                                : 7.18 GiB
  8. Duration                                 : 1 h 42 min
  9. Overall bit rate                         : 10.0 Mb/s
  10. Movie name                               : Aces Go Places V 1989 1080p BluRay DTS 2Audio x265-10bit-HDS
  11. Encoded date                             : UTC 2022-06-16 14:06:00
  12. Writing application                      : mkvmerge v67.0.0 ('Under Stars') 64-bit
  13. Writing library                          : libebml v1.4.2 + libmatroska v1.6.4 / Lavf59.17.101
  14. Video
  15. ID                                       : 1
  16. Format                                   : HEVC
  17. Format/Info                              : High Efficiency Video Coding
  18. Format profile                           : Main 10@L5.1@High
  19. Codec ID                                 : V_MPEGH/ISO/HEVC
  20. Duration                                 : 1 h 42 min
  21. Bit rate                                 : 7 845 kb/s
  22. Width                                    : 1 920 pixels
  23. Height                                   : 816 pixels
  24. Display aspect ratio                     : 2.35:1
  25. Frame rate mode                          : Constant
  26. Frame rate                               : 23.976 (24000/1001/53354) FPS
  27. Color space                              : YUV
  28. Chroma subsampling                       : 4:2:0
  29. Bit depth                                : 10 bits
  30. Bits/(Pixel*Frame)                       : 0.209
  31. Stream size                              : 5.61 GiB (78%)
  32. Title                                    : GalenMao@HDSky
  33. Default                                  : No
  34. Forced                                   : No
  35. Audio #1
  36. ID                                       : 2
  37. Format                                   : DTS
  38. Format/Info                              : Digital Theater Systems
  39. Codec ID                                 : A_DTS
  40. Duration                                 : 1 h 42 min
  41. Bit rate mode                            : Constant
  42. Bit rate                                 : 1 509 kb/s
  43. Channel(s)                               : 6 channels
  44. Channel layout                           : C L R Ls Rs LFE
  45. Sampling rate                            : 48.0 kHz
  46. Frame rate                               : 93.750 FPS (512 SPF)
  47. Bit depth                                : 24 bits
  48. Compression mode                         : Lossy
  49. Stream size                              : 1.08 GiB (15%)
  50. Title                                    : Cantonese
  51. Language                                 : Chinese
  52. Default                                  : Yes
  53. Forced                                   : No
  54. Audio #2
  55. ID                                       : 3
  56. Format                                   : AC-3
  57. Format/Info                              : Audio Coding 3
  58. Commercial name                          : Dolby Digital
  59. Codec ID                                 : A_AC3
  60. Duration                                 : 1 h 42 min
  61. Bit rate mode                            : Constant
  62. Bit rate                                 : 640 kb/s
  63. Channel(s)                               : 6 channels
  64. Channel layout                           : L R C LFE Ls Rs
  65. Sampling rate                            : 48.0 kHz
  66. Frame rate                               : 31.250 FPS (1536 SPF)
  67. Compression mode                         : Lossy
  68. Stream size                              : 468 MiB (6%)
  69. Title                                    : Mandarin
  70. Language                                 : Chinese
  71. Service kind                             : Complete Main
  72. Default                                  : Yes
  73. Forced                                   : No
  74. Text #1
  75. ID                                       : 4
  76. Format                                   : PGS
  77. Muxing mode                              : zlib
  78. Codec ID                                 : S_HDMV/PGS
  79. Codec ID/Info                            : Picture based subtitle format used on BDs/HD-DVDs
  80. Duration                                 : 1 h 41 min
  81. Bit rate                                 : 39.5 kb/s
  82. Count of elements                        : 2928
  83. Stream size                              : 28.5 MiB (0%)
  84. Title                                    : ENG
  85. Language                                 : English
  86. Default                                  : Yes
  87. Forced                                   : No
  88. Text #2
  89. ID                                       : 5
  90. Format                                   : PGS
  91. Muxing mode                              : zlib
  92. Codec ID                                 : S_HDMV/PGS
  93. Codec ID/Info                            : Picture based subtitle format used on BDs/HD-DVDs
  94. Duration                                 : 1 h 41 min
  95. Bit rate                                 : 27.2 kb/s
  96. Count of elements                        : 2816
  97. Stream size                              : 19.7 MiB (0%)
  98. Title                                    : CHS
  99. Language                                 : Chinese
  100. Default                                  : Yes
  101. Forced                                   : No
  102. Text #3
  103. ID                                       : 6
  104. Format                                   : PGS
  105. Muxing mode                              : zlib
  106. Codec ID                                 : S_HDMV/PGS
  107. Codec ID/Info                            : Picture based subtitle format used on BDs/HD-DVDs
  108. Duration                                 : 1 h 41 min
  109. Bit rate                                 : 28.4 kb/s
  110. Count of elements                        : 2816
  111. Stream size                              : 20.5 MiB (0%)
  112. Title                                    : CHT
  113. Language                                 : Chinese
  114. Default                                  : Yes
  115. Forced                                   : No
  116. Menu
  117. 00:00:00.000                             : en:第 01 章
  118. 00:04:03.410                             : en:第 02 章
  119. 00:09:18.141                             : en:第 03 章
  120. 00:17:19.455                             : en:第 04 章
  121. 00:25:40.372                             : en:第 05 章
  122. 00:31:20.128                             : en:第 06 章
  123. 00:33:41.478                             : en:第 07 章
  124. 00:37:18.403                             : en:第 08 章
  125. 00:46:04.053                             : en:第 09 章
  126. 00:49:26.088                             : en:第 10 章
  127. 00:53:09.228                             : en:第 11 章
  128. 00:56:45.694                             : en:第 12 章
  129. 01:00:56.444                             : en:第 13 章
  130. 01:04:40.293                             : en:第 14 章
  131. 01:09:04.390                             : en:第 15 章
  132. 01:11:38.085                             : en:第 16 章
  133. 01:17:26.267                             : en:第 17 章
  134. 01:23:02.519                             : en:第 18 章
  135. 01:28:48.323                             : en:第 19 章
  136. 01:36:05.718                             : en:第 20 章





此处一般会放置磁力链或种子下载链接,不过此链接需要注册会员才能看到,点击“立即注册”
磁力链下载【下载链接仅对注册会员开放,登陆后可见】
BT9527电影天堂 1、BT9527电影天堂提供的BT文件均来源于互联网抓取,只供网友学习交流、技术提升使用。
2、我们遵守BitTorrent点对点协议原则,任何版权问题请联系原资源发布商,我们不处理任何版权纠纷,谢谢!如有争议请联系邮箱:BT9527#hotmail.com(#换成@)
3、如果您发现某页面或地址有错误,请联系站长邮箱BT9527#hotmail.com(#换成@),我们会尽快处理。您的热心是对BT9527电影天堂最大的支持。
4、本站建议去正规影院观看电影以支持电影行业发展。
最新回复 (1)
  • yuanfl 3月前
    2
    很不错的片子欣赏一下,谢谢

你可以在 登录 or 注册 后,对此帖发表评论!

返回