最佳拍档4:千里救差婆[国粤多音轨/简繁英字幕].Aces.Go.Places.IV.1986.1080p.BluRay.DTS.2Audio.x265-10bit-ENTHD 6.14GB

版主小s 3月前 134

✔资源类型:暂未分类   ✔电影年份:更 早   ✔电影地区:香港   ✔电影分类:喜剧

◎译  名 最佳拍档4:千里救差婆 / Aces Go Places IV / Mad Mission IV: You Never Die Twice
◎片  名 最佳拍檔4:千里救差婆
◎年  代 1986
◎产  地 中国香港
◎类  别 喜剧 / 动作
◎语  言 粤语
◎上映日期 1986-01-30
◎IMDb链接 https://www.imdb.com/title/tt0092268/
◎豆瓣评分 7.0/10 (9929人评价)
◎豆瓣链接 https://movie.douban.com/subject/1294350/
◎片  长 86 分钟
◎导  演 林岭东 Ringo Lam (id:1275076)
◎编  剧 麦嘉 Karl Maka (id:1274986)
◎演  员 许冠杰 Samuel Hui (id:1102963)
       麦嘉 Karl Maka (id:1274986)
       张艾嘉 Sylvia Chang (id:1012646)
       叶倩文 Sally Yeh (id:1028614)
       石坚 Kien Shih (id:1140701)
       曹达华 Tat-wah Cho (id:1070438)
       乔宏 Roy Chiao (id:1032432)
       冼林煜 Pomson Shi (id:1418319)
       王嘉明 Cyrus Wong (id:1319312)
       李嘉高 Sander Lee (id:1319301)
       余家安 Bruce Yu (id:1301555)

◎简  介
  纽西兰老科学家发明一个名为“天狼星”的三棱镜,它可将人的潜能激发,形成难以置信的超能力。但这项发明很快被当地一黑社会组织盯上,他们袭击实验室,杀害老科学家。危急时刻,天狼星被参加实验的青年金刚(许冠杰 饰)和科学家的女儿莎莉(叶倩文 饰)带出纽西兰,来到香港。                                    
                                返港后,金刚寻求侦探光头佬(麦嘉 饰)的帮助,谁知黑帮尾随而至,虏走光头佬的妻子贺警司(张艾嘉 饰)作人质。为救爱妻,光头佬带着儿子,协同金刚赶至纽西兰……
  1. ##### MediaInfo ######
  2. General
  3. Unique ID                                : 22150099199364389723071012275469011536 (0x10A9F434E1E090529C376A62DA91CA50)
  4. Complete name                            : Aces.Go.Places.IV.1986.1080p.BluRay.DTS.2Audio.x265-10bit-ENTHD.mkv
  5. Format                                   : Matroska
  6. Format version                           : Version 4
  7. File size                                : 6.14 GiB
  8. Duration                                 : 1 h 28 min
  9. Overall bit rate                         : 9 898 kb/s
  10. Movie name                               : Aces Go Places IV 1986 1080p BluRay DTS 2Audio x265-10bit-HDS
  11. Encoded date                             : UTC 2022-06-16 12:26:21
  12. Writing application                      : mkvmerge v67.0.0 ('Under Stars') 64-bit
  13. Writing library                          : libebml v1.4.2 + libmatroska v1.6.4 / Lavf59.17.101
  14. Video
  15. ID                                       : 1
  16. Format                                   : HEVC
  17. Format/Info                              : High Efficiency Video Coding
  18. Format profile                           : Main 10@L5.1@High
  19. Codec ID                                 : V_MPEGH/ISO/HEVC
  20. Duration                                 : 1 h 28 min
  21. Bit rate                                 : 7 717 kb/s
  22. Width                                    : 1 920 pixels
  23. Height                                   : 810 pixels
  24. Display aspect ratio                     : 2.40:1
  25. Frame rate mode                          : Constant
  26. Frame rate                               : 23.976 (24000/1001/53354) FPS
  27. Color space                              : YUV
  28. Chroma subsampling                       : 4:2:0
  29. Bit depth                                : 10 bits
  30. Bits/(Pixel*Frame)                       : 0.207
  31. Stream size                              : 4.79 GiB (78%)
  32. Title                                    : GalenMao@HDSky
  33. Default                                  : No
  34. Forced                                   : No
  35. Audio #1
  36. ID                                       : 2
  37. Format                                   : DTS
  38. Format/Info                              : Digital Theater Systems
  39. Codec ID                                 : A_DTS
  40. Duration                                 : 1 h 28 min
  41. Bit rate mode                            : Constant
  42. Bit rate                                 : 1 509 kb/s
  43. Channel(s)                               : 6 channels
  44. Channel layout                           : C L R Ls Rs LFE
  45. Sampling rate                            : 48.0 kHz
  46. Frame rate                               : 93.750 FPS (512 SPF)
  47. Bit depth                                : 24 bits
  48. Compression mode                         : Lossy
  49. Stream size                              : 957 MiB (15%)
  50. Title                                    : Cantonese
  51. Language                                 : Chinese
  52. Default                                  : Yes
  53. Forced                                   : No
  54. Audio #2
  55. ID                                       : 3
  56. Format                                   : AC-3
  57. Format/Info                              : Audio Coding 3
  58. Commercial name                          : Dolby Digital
  59. Codec ID                                 : A_AC3
  60. Duration                                 : 1 h 28 min
  61. Bit rate mode                            : Constant
  62. Bit rate                                 : 640 kb/s
  63. Channel(s)                               : 6 channels
  64. Channel layout                           : L R C LFE Ls Rs
  65. Sampling rate                            : 48.0 kHz
  66. Frame rate                               : 31.250 FPS (1536 SPF)
  67. Compression mode                         : Lossy
  68. Stream size                              : 406 MiB (6%)
  69. Title                                    : Mandarin
  70. Language                                 : Chinese
  71. Service kind                             : Complete Main
  72. Default                                  : Yes
  73. Forced                                   : No
  74. Text #1
  75. ID                                       : 4
  76. Format                                   : PGS
  77. Muxing mode                              : zlib
  78. Codec ID                                 : S_HDMV/PGS
  79. Codec ID/Info                            : Picture based subtitle format used on BDs/HD-DVDs
  80. Duration                                 : 1 h 25 min
  81. Bit rate                                 : 22.0 kb/s
  82. Count of elements                        : 1862
  83. Stream size                              : 13.5 MiB (0%)
  84. Title                                    : ENG
  85. Language                                 : English
  86. Default                                  : Yes
  87. Forced                                   : No
  88. Text #2
  89. ID                                       : 5
  90. Format                                   : PGS
  91. Muxing mode                              : zlib
  92. Codec ID                                 : S_HDMV/PGS
  93. Codec ID/Info                            : Picture based subtitle format used on BDs/HD-DVDs
  94. Duration                                 : 1 h 27 min
  95. Bit rate                                 : 20.6 kb/s
  96. Count of elements                        : 2078
  97. Stream size                              : 12.9 MiB (0%)
  98. Title                                    : CHS
  99. Language                                 : Chinese
  100. Default                                  : Yes
  101. Forced                                   : No
  102. Text #3
  103. ID                                       : 6
  104. Format                                   : PGS
  105. Muxing mode                              : zlib
  106. Codec ID                                 : S_HDMV/PGS
  107. Codec ID/Info                            : Picture based subtitle format used on BDs/HD-DVDs
  108. Duration                                 : 1 h 27 min
  109. Bit rate                                 : 21.4 kb/s
  110. Count of elements                        : 2078
  111. Stream size                              : 13.4 MiB (0%)
  112. Title                                    : CHT
  113. Language                                 : Chinese
  114. Default                                  : Yes
  115. Forced                                   : No
  116. Menu
  117. 00:00:00.000                             : en:第 01 章
  118. 00:03:36.716                             : en:第 02 章
  119. 00:07:52.597                             : en:第 03 章
  120. 00:13:20.675                             : en:第 04 章
  121. 00:16:44.003                             : en:第 05 章
  122. 00:20:28.811                             : en:第 06 章
  123. 00:24:43.357                             : en:第 07 章
  124. 00:28:44.848                             : en:第 08 章
  125. 00:32:15.684                             : en:第 09 章
  126. 00:37:30.081                             : en:第 10 章
  127. 00:42:56.407                             : en:第 11 章
  128. 00:47:58.709                             : en:第 12 章
  129. 00:52:07.249                             : en:第 13 章
  130. 00:56:26.049                             : en:第 14 章
  131. 01:02:42.008                             : en:第 15 章
  132. 01:07:09.734                             : en:第 16 章
  133. 01:11:06.888                             : en:第 17 章
  134. 01:16:03.267                             : en:第 18 章
  135. 01:19:09.286                             : en:第 19 章
  136. 01:25:08.437                             : en:第 20 章





此处一般会放置磁力链或种子下载链接,不过此链接需要注册会员才能看到,点击“立即注册”
磁力链下载【下载链接仅对注册会员开放,登陆后可见】
BT9527电影天堂 1、BT9527电影天堂提供的BT文件均来源于互联网抓取,只供网友学习交流、技术提升使用。
2、我们遵守BitTorrent点对点协议原则,任何版权问题请联系原资源发布商,我们不处理任何版权纠纷,谢谢!如有争议请联系邮箱:BT9527#hotmail.com(#换成@)
3、如果您发现某页面或地址有错误,请联系站长邮箱BT9527#hotmail.com(#换成@),我们会尽快处理。您的热心是对BT9527电影天堂最大的支持。
4、本站建议去正规影院观看电影以支持电影行业发展。
最新回复 (0)

你可以在 登录 or 注册 后,对此帖发表评论!

返回
发新帖