异灵灵异2002[国语配音/中文字幕].2002.2001.1080p.BluRay.DD2.0.x265-10bit-ENTHD 5.47GB

版主小s 13天前 53

✔资源类型:暂未分类   ✔电影年份:更 早   ✔电影地区:香港   ✔电影分类:喜剧

◎译  名 异灵灵异2002 / 异灵灵异-2002
◎片  名 2002
◎年  代 2001
◎产  地 中国香港
◎类  别 喜剧 / 爱情 / 科幻 / 恐怖
◎语  言 粤语
◎上映日期 2001-12-15
◎IMDb链接 https://www.imdb.com/title/tt0294251/
◎豆瓣评分 6.7/10 (8907人评价)
◎豆瓣链接 https://movie.douban.com/subject/1298065/
◎片  长 96分钟
◎导  演 叶伟信 Wilson Yip (id:1274472)
◎编  剧 谷德昭 Vincent Kok (id:1025526)
       叶伟信 Wilson Yip (id:1274472)
       郭子健 Derek Kwok Chi-kin  (id:1274244)
       司徒锦源 Kam-Yuen Szeto (id:1298766)
◎演  员 谢霆锋 Nicholas Tse (id:1050053)
       冯德伦 Stephen Fung (id:1023278)
       罗家英 Kar-Ying Law (id:1108968)
       李彩桦 Rain Li (id:1042200)
       李灿森 Sam Lee (id:1028522)
       方力申 Lik-Sun Fong (id:1171687)
       安雅 Anya (id:1005185)
       李力持 Lik-Chi Lee (id:1274246)
       侯焕玲 Woon Ling Hau (id:1275424)
       谷德昭 Vincent Kok (id:1025526)
       丹妮拉·格拉翰 Danielle Graham (id:1010865)
       谷德昭 Vincent Kok (id:1025526)
       韦启良 Yee-Leung Wai (id:1300261)
       潘恒生 Hang-Sang Poon (id:1294721)
       张嘉辉 Ka-fai Cheung (id:1280620)
       麦国强 Kenneth Mak (id:1290782)
       曾伯铨 Steven Tsang (id:1310849)
       邓汝好 Pat Tang Yu-Ho (id:1403989)
       黄庆勋 Danny Wong (id:1400030)
       黄宏显 Eddy Wong (id:1302455)
       黄宏达 Victor Wong (id:1307421)
       邹文怀 Raymond Chow (id:1016883)

◎简  介
  警方设立一个名为“2002”的部门,专门对付祸害人间的游魂野鬼。部门内潮(谢霆锋 饰)是拥有阴阳眼的人类,Sam(李灿森 饰)则是个鬼魂,整个部门便由这一人一鬼组成。期间他们遇到了形形式式的加害人类的鬼魂,并一一收复了。后来潮受死去的四婆所托,帮忙照顾住院中的孙女Rain(李彩桦 饰)。潮爱上了医院中的一名护士。但他要专心于Sam一起对付水鬼,这场争斗将决定他们的生死。

◎获奖情况 (共1项)
  第21届香港电影金像奖 (2002)
  最佳视觉效果(提名)
   └──黄宏达 (id:1307421)

  1. ##### MediaInfo ######
  2. General
  3. Unique ID                                : 11082407889535182153064441427455091467 (0x85664E51DC437F887E4839B37CBA30B)
  4. Complete name                            : 二零零二.2001.1080p.BluRay.DD2.0.x265-10bit-ENTHD.mkv
  5. Format                                   : Matroska
  6. Format version                           : Version 4
  7. File size                                : 5.47 GiB
  8. Duration                                 : 1 h 36 min
  9. Overall bit rate                         : 8 092 kb/s
  10. Movie name                               : 二零零二 2001 1080p BluRay DD2.0 x265-10bit-HDS
  11. Encoded date                             : UTC 2022-06-17 02:56:20
  12. Writing application                      : mkvmerge v67.0.0 ('Under Stars') 64-bit
  13. Writing library                          : libebml v1.4.2 + libmatroska v1.6.4
  14. Video
  15. ID                                       : 1
  16. Format                                   : HEVC
  17. Format/Info                              : High Efficiency Video Coding
  18. Format profile                           : Main 10@L5.1@High
  19. Codec ID                                 : V_MPEGH/ISO/HEVC
  20. Duration                                 : 1 h 36 min
  21. Bit rate                                 : 7 696 kb/s
  22. Width                                    : 1 920 pixels
  23. Height                                   : 1 080 pixels
  24. Display aspect ratio                     : 16:9
  25. Frame rate mode                          : Constant
  26. Frame rate                               : 24.000 FPS
  27. Color space                              : YUV
  28. Chroma subsampling                       : 4:2:0
  29. Bit depth                                : 10 bits
  30. Bits/(Pixel*Frame)                       : 0.155
  31. Stream size                              : 5.20 GiB (95%)
  32. Title                                    : 735674307@HDSky
  33. Writing library                          : x265 - H.265/HEVC codec
  34. Default                                  : Yes
  35. Forced                                   : No
  36. Audio
  37. ID                                       : 2
  38. Format                                   : AC-3
  39. Format/Info                              : Audio Coding 3
  40. Commercial name                          : Dolby Digital
  41. Codec ID                                 : A_AC3
  42. Duration                                 : 1 h 36 min
  43. Bit rate mode                            : Constant
  44. Bit rate                                 : 384 kb/s
  45. Channel(s)                               : 2 channels
  46. Channel layout                           : L R
  47. Sampling rate                            : 48.0 kHz
  48. Frame rate                               : 31.250 FPS (1536 SPF)
  49. Compression mode                         : Lossy
  50. Stream size                              : 266 MiB (5%)
  51. Title                                    : Mandarin
  52. Language                                 : Chinese
  53. Service kind                             : Complete Main
  54. Default                                  : Yes
  55. Forced                                   : No
  56. Text
  57. ID                                       : 3
  58. Format                                   : PGS
  59. Muxing mode                              : zlib
  60. Codec ID                                 : S_HDMV/PGS
  61. Codec ID/Info                            : Picture based subtitle format used on BDs/HD-DVDs
  62. Duration                                 : 1 h 32 min
  63. Bit rate                                 : 27.9 kb/s
  64. Count of elements                        : 1596
  65. Stream size                              : 18.5 MiB (0%)
  66. Title                                    : CHS
  67. Language                                 : Chinese
  68. Default                                  : Yes
  69. Forced                                   : No
  70. Menu
  71. 00:00:00.000                             : en:第 01 章
  72. 00:06:58.458                             : en:第 02 章
  73. 00:14:08.542                             : en:第 03 章
  74. 00:23:42.583                             : en:第 04 章
  75. 00:32:22.083                             : en:第 05 章
  76. 00:40:03.250                             : en:第 06 章
  77. 00:49:33.083                             : en:第 07 章
  78. 00:55:44.833                             : en:第 08 章
  79. 01:03:31.583                             : en:第 09 章
  80. 01:11:48.250                             : en:第 10 章
  81. 01:19:46.250                             : en:第 11 章
  82. 01:33:47.250                             : en:第 12 章





此处一般会放置磁力链或种子下载链接,不过此链接需要注册会员才能看到,点击“立即注册”
磁力链下载【下载链接仅对注册会员开放,登陆后可见】
BT9527电影天堂 1、BT9527电影天堂提供的BT文件均来源于互联网抓取,只供网友学习交流、技术提升使用。
2、我们遵守BitTorrent点对点协议原则,任何版权问题请联系原资源发布商,我们不处理任何版权纠纷,谢谢!如有争议请联系邮箱:BT9527#hotmail.com(#换成@)
3、如果您发现某页面或地址有错误,请联系站长邮箱BT9527#hotmail.com(#换成@),我们会尽快处理。您的热心是对BT9527电影天堂最大的支持。
4、本站建议去正规影院观看电影以支持电影行业发展。
最新回复 (0)

你可以在 登录 or 注册 后,对此帖发表评论!

返回
发新帖