渔港的肉子酱[中文字幕].Fortune.Favors.Lady.Nikuko.2021.1080p.BluRay.DTS.x265-10bit-ENTHD 4.04GB

版主小s 3月前 165

✔资源类型:暂未分类   ✔电影年份:2021   ✔电影地区:日本   ✔电影分类:动画

◎译  名 渔港的肉子酱 / 渔港的肉子 / Fortune Favors Lady Nikuko
◎片  名 漁港の肉子ちゃん
◎年  代 2021
◎产  地 日本
◎类  别 动画
◎语  言 日语
◎上映日期 2021-06-11(日本)
◎IMDb链接 https://www.imdb.com/title/tt13758684/
◎豆瓣评分 8.1/10 (10910人评价)
◎豆瓣链接 https://movie.douban.com/subject/35307624/
◎片  长 97分钟
◎导  演 渡边步 Ayumu Watanabe (id:1317548)
◎编  剧 西加奈子 Kanako Nishi (id:1333026)
       大岛里美 Satomi Oshima (id:1275923)
◎演  员 大竹忍 Shinobu ?take (id:1129062)
       木村心美 Cocomi Kimura (id:1454148)
       花江夏树 Natsuki Hanae (id:1323704)
       吉冈里帆 Riho Yoshioka (id:1348382)
       松子DELUXE Matsuko Deluxe (id:1330494)
       石井泉 Izumi Ishii  (id:1471662)
       中村育二 Ikuji Nakamura (id:1039341)
       山西惇 Atsushi Yamanishi (id:1353174)
       八十田勇一 Y?ichi Yasoda (id:1431511)
       明石家秋刀鱼 Sanma Akashiya (id:1011565)
       村松崇継 Takatsugu Muramatsu (id:1345774)

◎简  介
  明石家秋刀鱼首度企画动画电影作品!改编西加柰子原作小说,STUDIO4℃制作的动画电影《渔港的肉子酱》将于今年初夏公映!                                    
                                故事围绕着生活在渔港的“肉子酱”母女的成长展开。《海兽之子》导演渡边步执导,小西贤一担任作画导演,剧本则由《凪的新生活》的大岛里美担当。

◎获奖情况 (共2项)
  第45届日本电影学院奖 (2022)
  最佳动画片(提名)

  第49届动画安妮奖 (2022)
  最佳独立动画长片(提名)

  1. ##### MediaInfo ######
  2. General
  3. Unique ID                                : 291450175951765140405970837679652237615 (0xDB43431A0CD4C8D2F1926C691BF0712F)
  4. Complete name                            : Fortune.Favors.Lady.Nikuko.2021.1080p.BluRay.DTS.x265-10bit-ENTHD.mkv
  5. Format                                   : Matroska
  6. Format version                           : Version 4
  7. File size                                : 4.04 GiB
  8. Duration                                 : 1 h 36 min
  9. Overall bit rate                         : 6 013 kb/s
  10. Movie name                               : Fortune Favors Lady Nikuko 2021 1080p BluRay DTS x265-10bit-HDS
  11. Encoded date                             : UTC 2022-06-16 12:42:29
  12. Writing application                      : mkvmerge v67.0.0 ('Under Stars') 64-bit
  13. Writing library                          : libebml v1.4.2 + libmatroska v1.6.4
  14. Video
  15. ID                                       : 1
  16. Format                                   : HEVC
  17. Format/Info                              : High Efficiency Video Coding
  18. Format profile                           : Main 10@L5.1@High
  19. Codec ID                                 : V_MPEGH/ISO/HEVC
  20. Duration                                 : 1 h 36 min
  21. Bit rate                                 : 4 385 kb/s
  22. Width                                    : 1 920 pixels
  23. Height                                   : 816 pixels
  24. Display aspect ratio                     : 2.35:1
  25. Frame rate mode                          : Constant
  26. Frame rate                               : 24.000 FPS
  27. Color space                              : YUV
  28. Chroma subsampling                       : 4:2:0
  29. Bit depth                                : 10 bits
  30. Bits/(Pixel*Frame)                       : 0.117
  31. Stream size                              : 2.95 GiB (73%)
  32. Title                                    : meyu@HDSky
  33. Writing library                          : x265 - H.265/HEVC codec
  34. Default                                  : Yes
  35. Forced                                   : No
  36. Audio
  37. ID                                       : 2
  38. Format                                   : DTS
  39. Format/Info                              : Digital Theater Systems
  40. Codec ID                                 : A_DTS
  41. Duration                                 : 1 h 36 min
  42. Bit rate mode                            : Constant
  43. Bit rate                                 : 1 509 kb/s
  44. Channel(s)                               : 6 channels
  45. Channel layout                           : C L R Ls Rs LFE
  46. Sampling rate                            : 48.0 kHz
  47. Frame rate                               : 93.750 FPS (512 SPF)
  48. Bit depth                                : 24 bits
  49. Compression mode                         : Lossy
  50. Stream size                              : 1.01 GiB (25%)
  51. Title                                    : Japanese
  52. Language                                 : Japanese
  53. Default                                  : Yes
  54. Forced                                   : No
  55. Text #1
  56. ID                                       : 3
  57. Format                                   : PGS
  58. Muxing mode                              : zlib
  59. Codec ID                                 : S_HDMV/PGS
  60. Codec ID/Info                            : Picture based subtitle format used on BDs/HD-DVDs
  61. Duration                                 : 1 h 35 min
  62. Bit rate                                 : 28.8 kb/s
  63. Count of elements                        : 2299
  64. Stream size                              : 19.7 MiB (0%)
  65. Title                                    : CHS
  66. Language                                 : Chinese
  67. Default                                  : Yes
  68. Forced                                   : No
  69. Text #2
  70. ID                                       : 4
  71. Format                                   : PGS
  72. Muxing mode                              : zlib
  73. Codec ID                                 : S_HDMV/PGS
  74. Codec ID/Info                            : Picture based subtitle format used on BDs/HD-DVDs
  75. Duration                                 : 1 h 35 min
  76. Bit rate                                 : 29.5 kb/s
  77. Count of elements                        : 2299
  78. Stream size                              : 20.2 MiB (0%)
  79. Title                                    : CHT
  80. Language                                 : Chinese
  81. Default                                  : Yes
  82. Forced                                   : No
  83. Text #3
  84. ID                                       : 5
  85. Format                                   : PGS
  86. Muxing mode                              : zlib
  87. Codec ID                                 : S_HDMV/PGS
  88. Codec ID/Info                            : Picture based subtitle format used on BDs/HD-DVDs
  89. Duration                                 : 1 h 36 min
  90. Bit rate                                 : 205 kb/s
  91. Count of elements                        : 10253
  92. Stream size                              : 141 MiB (3%)
  93. Title                                    : JPN
  94. Language                                 : Japanese
  95. Default                                  : Yes
  96. Forced                                   : No
  97. Menu
  98. 00:00:00.000                             : en:第 01 章
  99. 00:05:38.000                             : en:第 02 章
  100. 00:05:54.500                             : en:第 03 章
  101. 00:10:48.833                             : en:第 04 章
  102. 00:16:44.250                             : en:第 05 章
  103. 00:21:37.417                             : en:第 06 章
  104. 00:31:09.083                             : en:第 07 章
  105. 00:37:40.542                             : en:第 08 章
  106. 00:41:04.042                             : en:第 09 章
  107. 00:50:43.458                             : en:第 10 章
  108. 00:57:09.333                             : en:第 11 章
  109. 01:04:32.500                             : en:第 12 章
  110. 01:06:30.875                             : en:第 13 章
  111. 01:11:17.667                             : en:第 14 章
  112. 01:15:12.000                             : en:第 15 章
  113. 01:18:57.167                             : en:第 16 章
  114. 01:27:26.833                             : en:第 17 章
  115. 01:30:33.875                             : en:第 18 章
  116. 01:32:02.750                             : en:第 19 章





此处一般会放置磁力链或种子下载链接,不过此链接需要注册会员才能看到,点击“立即注册”
磁力链下载【下载链接仅对注册会员开放,登陆后可见】
BT9527电影天堂 1、BT9527电影天堂提供的BT文件均来源于互联网抓取,只供网友学习交流、技术提升使用。
2、我们遵守BitTorrent点对点协议原则,任何版权问题请联系原资源发布商,我们不处理任何版权纠纷,谢谢!如有争议请联系邮箱:BT9527#hotmail.com(#换成@)
3、如果您发现某页面或地址有错误,请联系站长邮箱BT9527#hotmail.com(#换成@),我们会尽快处理。您的热心是对BT9527电影天堂最大的支持。
4、本站建议去正规影院观看电影以支持电影行业发展。
最新回复 (0)

你可以在 登录 or 注册 后,对此帖发表评论!

返回
发新帖