玛莎·米切尔效应[中文字幕].The.Martha.Mitchell.Effect.2022.1080p.NF.WEBRip.DDP5.1.x264-SMURF 2.22GB

版主小s 3月前 202

◎标 题 玛莎·米切尔效应

◎片 名 The Martha Mitchell Effect

◎年 代 2022

◎产 地 美国

◎类 别 纪录片 / 短片

◎语 言 英语

◎上映日期 2022-01-20(圣丹斯电影节)

◎IMDb评分 7.5/10 (12人评价)

◎IMDb链接 https://www.imdb.com/title/tt16379454/

◎豆瓣链接 https://movie.douban.com/subject/35700505/

◎片 长 40分钟

◎简 介

尼克松曾说,如果不是玛莎,水门事件根本不会发生。这部档案纪录片讲述了水门事件第一吹哨人玛莎·米切尔的故事:为了让玛莎闭嘴,尼克松政府在对外的宣传中对外界进行煤气灯操控,将她塑造为一个疯女子。通过这些历史档案,我们得以从玛莎的女性视角重新审视水门事件。

  1. Video

  2. ID : 1

  3. Format : AVC

  4. Format/Info : Advanced Video Codec

  5. Format profile : High@L4

  6. Format settings : CABAC / 4 Ref Frames

  7. Format settings, CABAC : Yes

  8. Format settings, Reference frames : 4 frames

  9. Codec ID : V_MPEG4/ISO/AVC

  10. Duration : 40 min 50 s

  11. Bit rate mode : Variable

  12. Bit rate : 7 130 kb/s

  13. Maximum bit rate : 20.0 Mb/s

  14. Width : 1 920 pixels

  15. Height : 1 080 pixels

  16. Display aspect ratio : 16:9

  17. Frame rate mode : Constant

  18. Frame rate : 23.976 (24000/1001/53354) FPS

  19. Color space : YUV

  20. Chroma subsampling : 4:2:0

  21. Bit depth : 8 bits

  22. Scan type : Progressive

  23. Bits/(Pixel*Frame) : 0.143

  24. Stream size : 2.03 GiB (92%)

  25. Writing library : x264 core 148 r2727 7d026e8

  26. Encoding settings : cabac=1 / ref=4 / deblock=1:0:0 / analyse=0x3:0x111 / me=umh / subme=10 / psy=1 / psy_rd=1.00:0.00 / mixed_ref=1 / me_range=120 / chroma_me=1 / trellis=2 / 8x8dct=1 / cqm=0 / deadzone=21,11 / fast_pskip=1 / chroma_qp_offset=-2 / threads=8 / lookahead_threads=2 / sliced_threads=0 / nr=0 / decimate=1 / interlaced=0 / NTMzNTQ= / bluray_compat=0 / stitchable=1 / constrained_intra=0 / bframes=16 / b_pyramid=2 / b_adapt=2 / b_bias=0 / direct=3 / weightb=1 / open_gop=0 / weightp=2 / keyint=240 / keyint_min=121 / scenecut=0 / intra_refresh=0 / rc_lookahead=240 / rc=crf / mbtree=1 / crf=16.0 / qcomp=0.50 / qpmin=6 / qpmax=51 / qpstep=4 / vbv_maxrate=20000 / vbv_bufsize=25000 / crf_max=0.0 / nal_hrd=vbr / filler=0 / NTMzNTQ=LmsMAP37EqsCpk / ip_ratio=1.40 / aq=1:0.80

  27. Default : Yes

  28. Forced : No


  29. Audio

  30. ID : 2

  31. Format : E-AC-3

  32. Format/Info : Enhanced AC-3

  33. Commercial name : Dolby Digital Plus

  34. Codec ID : A_EAC3

  35. Duration : 40 min 51 s

  36. Bit rate mode : Constant

  37. Bit rate : 640 kb/s

  38. Channel(s) : 6 channels

  39. Channel layout : L R C LFE Ls Rs

  40. Sampling rate : 48.0 kHz

  41. Frame rate : 31.250 FPS (1536 SPF)

  42. Compression mode : Lossy

  43. Stream size : 187 MiB (8%)

  44. Language : English

  45. Service kind : Complete Main

  46. Default : Yes

  47. Forced : No


  48. Text #1

  49. ID : 3

  50. Format : UTF-8

  51. Codec ID : S_TEXT/UTF8

  52. Codec ID/Info : UTF-8 Plain Text

  53. Duration : 31 min 17 s

  54. Bit rate : 8 b/s

  55. Count of elements : 39

  56. Stream size : 2.00 KiB (0%)

  57. Title : Forced

  58. Language : English

  59. Default : Yes

  60. Forced : Yes


  61. Text #2

  62. ID : 4

  63. Format : UTF-8

  64. Codec ID : S_TEXT/UTF8

  65. Codec ID/Info : UTF-8 Plain Text

  66. Duration : 37 min 5 s

  67. Bit rate : 92 b/s

  68. Count of elements : 527

  69. Stream size : 25.3 KiB (0%)

  70. Language : English

  71. Default : No

  72. Forced : No


  73. Text #3

  74. ID : 5

  75. Format : UTF-8

  76. Codec ID : S_TEXT/UTF8

  77. Codec ID/Info : UTF-8 Plain Text

  78. Duration : 39 min 35 s

  79. Bit rate : 97 b/s

  80. Count of elements : 611

  81. Stream size : 28.3 KiB (0%)

  82. Title : SDH

  83. Language : English

  84. Default : No

  85. Forced : No


  86. Text #4

  87. ID : 6

  88. Format : UTF-8

  89. Codec ID : S_TEXT/UTF8

  90. Codec ID/Info : UTF-8 Plain Text

  91. Duration : 39 min 36 s

  92. Bit rate : 153 b/s

  93. Count of elements : 658

  94. Stream size : 44.4 KiB (0%)

  95. Language : Arabic

  96. Default : No

  97. Forced : No


  98. Text #5

  99. ID : 7

  100. Format : UTF-8

  101. Codec ID : S_TEXT/UTF8

  102. Codec ID/Info : UTF-8 Plain Text

  103. Duration : 39 min 36 s

  104. Bit rate : 90 b/s

  105. Count of elements : 560

  106. Stream size : 26.4 KiB (0%)

  107. Language : Czech

  108. Default : No

  109. Forced : No


  110. Text #6

  111. ID : 8

  112. Format : UTF-8

  113. Codec ID : S_TEXT/UTF8

  114. Codec ID/Info : UTF-8 Plain Text

  115. Duration : 39 min 36 s

  116. Bit rate : 84 b/s

  117. Count of elements : 537

  118. Stream size : 24.5 KiB (0%)

  119. Language : Danish

  120. Default : No

  121. Forced : No


  122. Text #7

  123. ID : 9

  124. Format : UTF-8

  125. Codec ID : S_TEXT/UTF8

  126. Codec ID/Info : UTF-8 Plain Text

  127. Duration : 39 min 33 s

  128. Bit rate : 90 b/s

  129. Count of elements : 584

  130. Stream size : 26.1 KiB (0%)

  131. Language : German

  132. Default : No

  133. Forced : No


  134. Text #8

  135. ID : 10

  136. Format : UTF-8

  137. Codec ID : S_TEXT/UTF8

  138. Codec ID/Info : UTF-8 Plain Text

  139. Duration : 39 min 36 s

  140. Bit rate : 147 b/s

  141. Count of elements : 556

  142. Stream size : 42.8 KiB (0%)

  143. Language : Greek

  144. Default : No

  145. Forced : No


  146. Text #9

  147. ID : 11

  148. Format : UTF-8

  149. Codec ID : S_TEXT/UTF8

  150. Codec ID/Info : UTF-8 Plain Text

  151. Duration : 39 min 36 s

  152. Bit rate : 87 b/s

  153. Count of elements : 591

  154. Stream size : 25.4 KiB (0%)

  155. Title : Latin American

  156. Language : Spanish

  157. Default : No

  158. Forced : No


  159. Text #10

  160. ID : 12

  161. Format : UTF-8

  162. Codec ID : S_TEXT/UTF8

  163. Codec ID/Info : UTF-8 Plain Text

  164. Duration : 39 min 36 s

  165. Bit rate : 88 b/s

  166. Count of elements : 562

  167. Stream size : 25.5 KiB (0%)

  168. Language : Spanish

  169. Default : No

  170. Forced : No


  171. Text #11

  172. ID : 13

  173. Format : UTF-8

  174. Codec ID : S_TEXT/UTF8

  175. Codec ID/Info : UTF-8 Plain Text

  176. Duration : 39 min 36 s

  177. Bit rate : 80 b/s

  178. Count of elements : 450

  179. Stream size : 23.5 KiB (0%)

  180. Language : Finnish

  181. Default : No

  182. Forced : No


  183. Text #12

  184. ID : 14

  185. Format : UTF-8

  186. Codec ID : S_TEXT/UTF8

  187. Codec ID/Info : UTF-8 Plain Text

  188. Duration : 39 min 36 s

  189. Bit rate : 92 b/s

  190. Count of elements : 581

  191. Stream size : 26.8 KiB (0%)

  192. Language : French

  193. Default : No

  194. Forced : No


  195. Text #13

  196. ID : 15

  197. Format : UTF-8

  198. Codec ID : S_TEXT/UTF8

  199. Codec ID/Info : UTF-8 Plain Text

  200. Duration : 39 min 36 s

  201. Bit rate : 131 b/s

  202. Count of elements : 607

  203. Stream size : 38.1 KiB (0%)

  204. Language : Hebrew

  205. Default : No

  206. Forced : No


  207. Text #14

  208. ID : 16

  209. Format : UTF-8

  210. Codec ID : S_TEXT/UTF8

  211. Codec ID/Info : UTF-8 Plain Text

  212. Duration : 39 min 36 s

  213. Bit rate : 82 b/s

  214. Count of elements : 582

  215. Stream size : 24.0 KiB (0%)

  216. Language : Croatian

  217. Default : No

  218. Forced : No


  219. Text #15

  220. ID : 17

  221. Format : UTF-8

  222. Codec ID : S_TEXT/UTF8

  223. Codec ID/Info : UTF-8 Plain Text

  224. Duration : 39 min 36 s

  225. Bit rate : 89 b/s

  226. Count of elements : 564

  227. Stream size : 25.9 KiB (0%)

  228. Language : Hungarian

  229. Default : No

  230. Forced : No


  231. Text #16

  232. ID : 18

  233. Format : UTF-8

  234. Codec ID : S_TEXT/UTF8

  235. Codec ID/Info : UTF-8 Plain Text

  236. Duration : 39 min 36 s

  237. Bit rate : 86 b/s

  238. Count of elements : 562

  239. Stream size : 25.0 KiB (0%)

  240. Language : Indonesian

  241. Default : No

  242. Forced : No


  243. Text #17

  244. ID : 19

  245. Format : UTF-8

  246. Codec ID : S_TEXT/UTF8

  247. Codec ID/Info : UTF-8 Plain Text

  248. Duration : 39 min 36 s

  249. Bit rate : 91 b/s

  250. Count of elements : 534

  251. Stream size : 26.6 KiB (0%)

  252. Language : Italian

  253. Default : No

  254. Forced : No


  255. Text #18

  256. ID : 20

  257. Format : UTF-8

  258. Codec ID : S_TEXT/UTF8

  259. Codec ID/Info : UTF-8 Plain Text

  260. Duration : 39 min 22 s

  261. Bit rate : 117 b/s

  262. Count of elements : 615

  263. Stream size : 34.0 KiB (0%)

  264. Language : Japanese

  265. Default : No

  266. Forced : No


  267. Text #19

  268. ID : 21

  269. Format : UTF-8

  270. Codec ID : S_TEXT/UTF8

  271. Codec ID/Info : UTF-8 Plain Text

  272. Duration : 39 min 36 s

  273. Bit rate : 113 b/s

  274. Count of elements : 644

  275. Stream size : 32.8 KiB (0%)

  276. Language : Korean

  277. Default : No

  278. Forced : No


  279. Text #20

  280. ID : 22

  281. Format : UTF-8

  282. Codec ID : S_TEXT/UTF8

  283. Codec ID/Info : UTF-8 Plain Text

  284. Duration : 39 min 36 s

  285. Bit rate : 86 b/s

  286. Count of elements : 591

  287. Stream size : 25.1 KiB (0%)

  288. Language : Malay

  289. Default : No

  290. Forced : No


  291. Text #21

  292. ID : 23

  293. Format : UTF-8

  294. Codec ID : S_TEXT/UTF8

  295. Codec ID/Info : UTF-8 Plain Text

  296. Duration : 39 min 35 s

  297. Bit rate : 74 b/s

  298. Count of elements : 492

  299. Stream size : 21.5 KiB (0%)

  300. Language : Norwegian Bokmal

  301. Default : No

  302. Forced : No


  303. Text #22

  304. ID : 24

  305. Format : UTF-8

  306. Codec ID : S_TEXT/UTF8

  307. Codec ID/Info : UTF-8 Plain Text

  308. Duration : 39 min 36 s

  309. Bit rate : 76 b/s

  310. Count of elements : 501

  311. Stream size : 22.3 KiB (0%)

  312. Language : Dutch

  313. Default : No

  314. Forced : No


  315. Text #23

  316. ID : 25

  317. Format : UTF-8

  318. Codec ID : S_TEXT/UTF8

  319. Codec ID/Info : UTF-8 Plain Text

  320. Duration : 39 min 33 s

  321. Bit rate : 83 b/s

  322. Count of elements : 580

  323. Stream size : 24.1 KiB (0%)

  324. Language : Polish

  325. Default : No

  326. Forced : No


  327. Text #24

  328. ID : 26

  329. Format : UTF-8

  330. Codec ID : S_TEXT/UTF8

  331. Codec ID/Info : UTF-8 Plain Text

  332. Duration : 39 min 19 s

  333. Bit rate : 89 b/s

  334. Count of elements : 579

  335. Stream size : 25.6 KiB (0%)

  336. Title : Brazilian

  337. Language : Portuguese

  338. Default : No

  339. Forced : No


  340. Text #25

  341. ID : 27

  342. Format : UTF-8

  343. Codec ID : S_TEXT/UTF8

  344. Codec ID/Info : UTF-8 Plain Text

  345. Duration : 39 min 36 s

  346. Bit rate : 88 b/s

  347. Count of elements : 568

  348. Stream size : 25.7 KiB (0%)

  349. Language : Portuguese

  350. Default : No

  351. Forced : No


  352. Text #26

  353. ID : 28

  354. Format : UTF-8

  355. Codec ID : S_TEXT/UTF8

  356. Codec ID/Info : UTF-8 Plain Text

  357. Duration : 39 min 36 s

  358. Bit rate : 98 b/s

  359. Count of elements : 582

  360. Stream size : 28.6 KiB (0%)

  361. Language : Romanian

  362. Default : No

  363. Forced : No


  364. Text #27

  365. ID : 29

  366. Format : UTF-8

  367. Codec ID : S_TEXT/UTF8

  368. Codec ID/Info : UTF-8 Plain Text

  369. Duration : 39 min 36 s

  370. Bit rate : 141 b/s

  371. Count of elements : 575

  372. Stream size : 40.9 KiB (0%)

  373. Language : Russian

  374. Default : No

  375. Forced : No


  376. Text #28

  377. ID : 30

  378. Format : UTF-8

  379. Codec ID : S_TEXT/UTF8

  380. Codec ID/Info : UTF-8 Plain Text

  381. Duration : 39 min 36 s

  382. Bit rate : 83 b/s

  383. Count of elements : 458

  384. Stream size : 24.4 KiB (0%)

  385. Language : Swedish

  386. Default : No

  387. Forced : No


  388. Text #29

  389. ID : 31

  390. Format : UTF-8

  391. Codec ID : S_TEXT/UTF8

  392. Codec ID/Info : UTF-8 Plain Text

  393. Duration : 39 min 36 s

  394. Bit rate : 237 b/s

  395. Count of elements : 615

  396. Stream size : 68.8 KiB (0%)

  397. Language : Thai

  398. Default : No

  399. Forced : No


  400. Text #30

  401. ID : 32

  402. Format : UTF-8

  403. Codec ID : S_TEXT/UTF8

  404. Codec ID/Info : UTF-8 Plain Text

  405. Duration : 39 min 36 s

  406. Bit rate : 85 b/s

  407. Count of elements : 572

  408. Stream size : 24.9 KiB (0%)

  409. Language : Turkish

  410. Default : No

  411. Forced : No


  412. Text #31

  413. ID : 33

  414. Format : UTF-8

  415. Codec ID : S_TEXT/UTF8

  416. Codec ID/Info : UTF-8 Plain Text

  417. Duration : 39 min 36 s

  418. Bit rate : 143 b/s

  419. Count of elements : 564

  420. Stream size : 41.7 KiB (0%)

  421. Language : Ukrainian

  422. Default : No

  423. Forced : No


  424. Text #32

  425. ID : 34

  426. Format : UTF-8

  427. Codec ID : S_TEXT/UTF8

  428. Codec ID/Info : UTF-8 Plain Text

  429. Duration : 39 min 36 s

  430. Bit rate : 118 b/s

  431. Count of elements : 590

  432. Stream size : 34.4 KiB (0%)

  433. Language : Vietnamese

  434. Default : No

  435. Forced : No


  436. Text #33

  437. ID : 35

  438. Format : UTF-8

  439. Codec ID : S_TEXT/UTF8

  440. Codec ID/Info : UTF-8 Plain Text

  441. Duration : 39 min 36 s

  442. Bit rate : 80 b/s

  443. Count of elements : 605

  444. Stream size : 23.2 KiB (0%)

  445. Title : Simplified

  446. Language : Chinese

  447. Default : No

  448. Forced : No


  449. Text #34

  450. ID : 36

  451. Format : UTF-8

  452. Codec ID : S_TEXT/UTF8

  453. Codec ID/Info : UTF-8 Plain Text

  454. Duration : 39 min 32 s

  455. Bit rate : 77 b/s

  456. Count of elements : 609

  457. Stream size : 22.5 KiB (0%)

  458. Title : Traditional

  459. Language : Chinese

  460. Default : No

  461. Forced : No


  462. Menu

  463. 00:38:11.000 : en:Credits

复制代码

  


磁力链:
  • magnet:?xt=urn:btih:33D6811420CF333990025BA1754F9FA8288E9C82
上传的附件:
BT9527电影天堂 1、BT9527电影天堂提供的BT文件均来源于互联网抓取,只供网友学习交流、技术提升使用。
2、我们遵守BitTorrent点对点协议原则,任何版权问题请联系原资源发布商,我们不处理任何版权纠纷,谢谢!如有争议请联系邮箱:BT9527#hotmail.com(#换成@)
3、如果您发现某页面或地址有错误,请联系站长邮箱BT9527#hotmail.com(#换成@),我们会尽快处理。您的热心是对BT9527电影天堂最大的支持。
4、本站建议去正规影院观看电影以支持电影行业发展。
最新回复 (0)

你可以在 登录 or 注册 后,对此帖发表评论!

返回