咒怨2(美版).The.Grudge.2.2006.iNTERNAL.1080p.BluRay.x264-PEGASUS 9.35GB

版主小s 8天前 41

◎译 名 咒怨2(美版) / 咒怨2 / 不死咒怨2 / 鬼迷藏 / 美国版咒怨2

◎片 名 The Grudge 2

◎年 代 2006

◎产 地 美国

◎类 别 悬疑 / 恐怖

◎语 言 英语 / 日语

◎上映日期 2006-10-12

◎IMDb链接 https://www.imdb.com/title/tt0433386/

◎豆瓣评分 6.4/10 (15245人评价)

◎豆瓣链接 https://movie.douban.com/subject/1482102/

◎片 长 102 分钟

◎导 演 清水崇 Takashi Shimizu (id:1022999)

◎编 剧 斯蒂芬·苏斯科 Stephen Susco (id:1323610)

清水崇 Takashi Shimizu (id:1022999)

◎演 员 莎拉·米歇尔·盖拉 Sarah Michelle Gellar (id:1047981)

爱波·塔布琳 Amber Tamblyn (id:1044877)

阿莉尔·凯贝尔 Arielle Kebbel (id:1004590)

藤贵子 Takako Fuji (id:1216319)

陈冠希 Edison Chen (id:1076665)

萨拉·罗默尔 Sarah Roemer (id:1049499)

马修·奈特 Matthew Knight (id:1004905)

宇野实彩子 Misako Uno (id:1010469)

泰莉莎·帕尔墨 Teresa Palmer (id:1031836)

田中碧海 Ohga Tanaka (id:1252969)

尾关优哉 Yuya Ozeki (id:1185577)

詹妮弗·比尔斯 Jennifer Beals (id:1036311)

克里斯托弗·科辛斯 Christopher Cousins (id:1077505)

梶原善 Zen Kajiwara (id:1034972)

松山鹰志 Takashi Matsuyama (id:1122604)

乔安娜·卡西迪 Joanna Cassidy (id:1025218)

伊芙·戈登 Eve Gordon (id:1066509)

珍娜·迪万 Jenna Dewan (id:1036316)

石桥凌 Ryo Ishibashi (id:1009702)

肖恩·西珀斯 Shaun Sipos (id:1040649)

金·米约里 Kim Miyori (id:1118873)

菜叶菜 Nahana (id:1318924)

谷津勋 Isao Yatsu (id:1043175)

长宗我部阳子 Y?ko Ch?sokabe (id:1034375)

松田珠里 Shuri Matsuda (id:1352946)

山姆·雷米 Sam Raimi (id:1027159)

比尔·巴纳文 Bill Bannerman (id:1276405)

约瑟夫·德雷克 Joseph Drake (id:1282700)

内森·卡亨 Nathan Kahane (id:1303955)

一濑隆重 Takashige Ichise (id:1016939)

罗伊·李 Roy Lee (id:1000791)

克里斯托弗·杨 Christopher Young (id:1048309)

柳岛克己 Katsumi Yanagijima (id:1301399)

凯莉·瓦格纳 Kelly Wagner (id:1012635)

齐藤岩雄 Iwao Sait? (id:1296469)

尾关龙生 Tatsuo Ozeki (id:1039849)

Deb Watson Deb Watson (id:1308168)

查尔斯·莱斯利 Charles Leslie (id:1214399)

Megan Basaraba Megan Basaraba (id:1198074)

Alison Savitch Alison Savitch (id:1296779)

◎简 介

对于奥布莉(爱波·塔布琳 Amber Tamblyn 饰)来说,姐姐凯伦(莎拉·米歇尔·盖拉 Sarah Michelle Gellar 饰)的死充满了疑点。两年前,凯伦远赴日本求学,不久之后奥布莉一家就收到了凯伦被关入精神病院的噩耗,而现在,曾经善良美丽的姐姐已经变成了一具冰冷的尸体。奥布莉坚信其中必有古怪,因此,她和专门报道灵异事件的记者伊森(陈冠希 饰)联手,对老房子中的咒怨展开了调查。

同一时间,在世界各地,发生了数件离奇死亡事件,而死者与咒怨均有着千丝万缕的关联。咒怨果真这样无孔不入吗?究竟又是谁在背后操纵着这股强大的力量呢?

  1. Video

  2. ID : 1

  3. Format : AVC

  4. Format/Info : Advanced Video Codec

  5. Format profile : High@L4.1

  6. Format settings : CABAC / 4 Ref Frames

  7. Format settings, CABAC : Yes

  8. Format settings, Reference frames : 4 frames

  9. Codec ID : V_MPEG4/ISO/AVC

  10. Duration : 1 h 42 min

  11. Bit rate : 12.5 Mb/s

  12. Width : 1 920 pixels

  13. Height : 1 080 pixels

  14. Display aspect ratio : 16:9

  15. Frame rate mode : Constant

  16. Frame rate : 23.976 (24000/1001/53354) FPS

  17. Color space : YUV

  18. Chroma subsampling : 4:2:0

  19. Bit depth : 8 bits

  20. Scan type : Progressive

  21. Bits/(Pixel*Frame) : 0.252

  22. Stream size : 8.97 GiB (96%)

  23. Writing library : x264 core 164 r3094 bfc87b7

  24. Encoding settings : cabac=1 / ref=4 / deblock=1:-3:-3 / analyse=0x3:0x133 / me=umh / subme=11 / psy=1 / psy_rd=1.02:0.00 / mixed_ref=1 / me_range=32 / chroma_me=1 / trellis=2 / 8x8dct=1 / cqm=0 / deadzone=21,11 / fast_pskip=0 / chroma_qp_offset=-2 / threads=34 / lookahead_threads=8 / sliced_threads=0 / nr=0 / decimate=0 / interlaced=0 / NTMzNTQ= / bluray_compat=0 / constrained_intra=0 / bframes=16 / b_pyramid=2 / b_adapt=2 / b_bias=0 / direct=3 / weightb=1 / open_gop=0 / weightp=2 / keyint=250 / keyint_min=23 / NTMzNTQ=uuDQuD2mJt9fsCf / scenecut=40 / intra_refresh=0 / rc_lookahead=250 / rc=crf / mbtree=0 / crf=22.5 / qcomp=0.60 / qpmin=0 / qpmax=69 / qpstep=4 / vbv_maxrate=62500 / vbv_bufsize=78125 / crf_max=0.0 / nal_hrd=none / filler=0 / NTMzNTQ=LmsMAP37EqsCpk / ip_ratio=1.30 / pb_ratio=1.20 / aq=3:0.80

  25. Default : Yes

  26. Forced : No

  27. Color range : Limited

  28. Color primaries : BT.709

  29. Matrix coefficients : BT.709


  30. Audio

  31. ID : 2

  32. Format : FLAC

  33. Format/Info : Free Lossless Audio Codec

  34. Codec ID : A_FLAC

  35. Duration : 1 h 42 min

  36. Bit rate mode : Variable

  37. Bit rate : 517 kb/s

  38. Channel(s) : 2 channels

  39. Channel layout : L R

  40. Sampling rate : 48.0 kHz

  41. Frame rate : 11.719 FPS (4096 SPF)

  42. Bit depth : 16 bits

  43. Compression mode : Lossless

  44. Stream size : 379 MiB (4%)

  45. Writing library : libFLAC 1.2.1 (UTC 2007-09-17)

  46. Language : English

  47. Default : Yes

  48. Forced : No


  49. Text

  50. ID : 3

  51. Format : PGS

  52. Muxing mode : zlib

  53. Codec ID : S_HDMV/PGS

  54. Codec ID/Info : Picture based subtitle format used on BDs/HD-DVDs

  55. Duration : 1 h 37 min

  56. Bit rate : 15.8 kb/s

  57. Count of elements : 1312

  58. Stream size : 11.0 MiB (0%)

  59. Language : English

  60. Default : No

  61. Forced : No


  62. Menu

  63. 00:00:00.000 : :Chapter 01

  64. 00:06:37.689 : :Chapter 02

  65. 00:13:52.040 : :Chapter 03

  66. 00:20:45.578 : :Chapter 04

  67. 00:29:26.264 : :Chapter 05

  68. 00:39:27.490 : :Chapter 06

  69. 00:49:55.201 : :Chapter 07

  70. 01:01:09.708 : :Chapter 08

  71. 01:09:34.629 : :Chapter 09

  72. 01:19:29.306 : :Chapter 10

  73. 01:29:36.871 : :Chapter 11

  74. 01:39:08.943 : :Chapter 12

复制代码


上传的附件:
BT9527电影天堂 1、BT9527电影天堂提供的BT文件均来源于互联网抓取,只供网友学习交流、技术提升使用。
2、我们遵守BitTorrent点对点协议原则,任何版权问题请联系原资源发布商,我们不处理任何版权纠纷,谢谢!如有争议请联系邮箱:BT9527#hotmail.com(#换成@)
3、如果您发现某页面或地址有错误,请联系站长邮箱BT9527#hotmail.com(#换成@),我们会尽快处理。您的热心是对BT9527电影天堂最大的支持。
4、本站建议去正规影院观看电影以支持电影行业发展。
最新回复 (0)

你可以在 登录 or 注册 后,对此帖发表评论!

返回
发新帖