暗夜博士:莫比亚斯[中文字幕].Morbius.2022.2160p.HDR.UHD.BluRay.TrueHD.7.1.Atmos.x265-10bit-ENTHD 17.43GB

版主小s 3月前 250

✔资源类型:BD-4K   ✔电影年份:2022   ✔电影地区:欧美   ✔电影分类:动作

◎译  名 暗夜博士:莫比亚斯 / 莫比亚斯 / 魔比煞(港) / 魔比斯(台) / 莫比亚斯:暗夜博士 / 吸血鬼莫比亚斯 / Morbius the Living Vampire
◎片  名 Morbius
◎年  代 2022
◎产  地 美国
◎类  别 动作 / 科幻 / 惊悚 / 恐怖 / 冒险
◎语  言 英语 / 西班牙语 / 俄语
◎上映日期 2022-04-01(美国)
◎IMDb链接 https://www.imdb.com/title/tt5108870/
◎豆瓣评分 5.7/10 (28384人评价)
◎豆瓣链接 https://movie.douban.com/subject/27199850/
◎片  长 104分钟
◎导  演 丹尼尔·伊斯皮诺萨 Daniel Espinosa (id:1000735)
◎编  剧 马特·萨兹马 Matt Sazama (id:1340742)
       伯克·沙普利斯 Burk Sharpless (id:1340743)
       罗伊·托马斯 Roy Thomas (id:1042277)
       吉尔·凯恩 Gil Kane (id:1112670)
◎演  员 杰瑞德·莱托 Jared Leto (id:1013764)
       马特·史密斯 Matt Smith (id:1197648)
       阿德里娅·阿霍纳 Adria Arjona (id:1348880)
       杰瑞德·哈里斯 Jared Harris (id:1049700)
       泰瑞斯·吉布森 Tyrese Gibson (id:1010486)
       艾尔·马德里加尔 Al Madrigal (id:1433413)
       迈克尔·基顿 Michael Keaton (id:1049486)
       查理·肖特韦尔 Charlie Shotwell (id:1363353)
       汤姆·福布斯 Tom Forbes (id:1434668)
       克拉拉·罗萨杰 Clara Rosager (id:1411126)
       克里·约翰逊 Corey Johnson (id:1045054)
       宾利·卡鲁 Bentley Kalu (id:1340239)
       阿奇·雷诺 Archie Renaux (id:1426494)
       乔乔·马卡里 Jojo Macari (id:1419156)
       亚伯拉罕·波波拉 Abraham Popoola (id:1457672)
       巴里·艾尔德 Barry Aird (id:1368194)
       克里斯·雷曼 Chris Ryman (id:1192122)
       马诺伊·阿南德 Manoj Anand (id:1395012)
       卡德罗莎·奥娜·卡罗尔  (id:1459808)
       露丝·霍洛克斯 Ruth Horrocks (id:1397361)
       贝恩·科拉科 Bern Colla?o (id:1394212)
       丹尼尔·厄根 Daniel Eghan (id:1367202)
       菲利普·加斯科因 Philip Gascoyne (id:1443992)
       通恰伊·古奈什 Tuncay Gunes (id:1391308)
       豪尔赫·莱昂·马丁内斯 Jorge Leon Martinez (id:1340070)
       尼克·欧文福特 Nick Owenford (id:1362807)
       贾格·帕特尔 Jag Patel (id:1392994)
       黛博拉·洛克 Deborah Rock (id:1395006)
       阿图尔·夏尔马 Atul Sharma (id:1397360)
       戴维娜·西塔拉姆 Davina Sitaram (id:1407303)
       吉米·斯达 Jimmy Star (id:1273873)
       斯图尔特·惠兰 Stuart Whelan (id:1447200)
       亚当·柯林斯 Adam Collins (id:1413373)
       迪索·拉莫斯 Diezel Ramos (id:1341036)
       J·K·西蒙斯 J.K. Simmons (id:1147911)
       伊斯雷尔·鲁兹 Israel Ruiz (id:1199375)
       辛迪·埃文斯 Cindy Evans (id:1427039)

◎简  介
  《暗夜博士:莫比亚斯》将首次把漫威宇宙中最另类的暗黑超级英雄莫比亚斯呈现于大银幕。由奥斯卡最佳男配得主杰瑞德·莱托饰演的莫比亚斯博士身患一种罕见的血液疾病,命不久矣的他决心找到治疗方法拯救其他同病患者。为此,他孤注一掷试图根除疾病。一开始一切似乎都成功了,但他的内心深处有一股黑暗却无端释放。善念能否压制住邪恶,还是莫比亚斯会屈服于这神秘的欲望?
  1. ##### MediaInfo ######
  2. General
  3. Unique ID                                : 52677100392609616336125354690413257935 (0x27A13D919A2428358C90281AE642E4CF)
  4. Complete name                            : Morbius.2022.2160p.HDR.UHD.BluRay.TrueHD.7.1.Atmos.x265-10bit-ENTHD.mkv
  5. Format                                   : Matroska
  6. Format version                           : Version 4
  7. File size                                : 17.4 GiB
  8. Duration                                 : 1 h 44 min
  9. Overall bit rate mode                    : Variable
  10. Overall bit rate                         : 24.0 Mb/s
  11. Movie name                               : Morbius 2022 2160p HDR UHD BluRay TrueHD 7.1 Atmos x265-10bit-HDS
  12. Encoded date                             : UTC 2022-06-15 23:16:47
  13. Writing application                      : mkvmerge v67.0.0 ('Under Stars') 64-bit
  14. Writing library                          : libebml v1.4.2 + libmatroska v1.6.4
  15. Video
  16. ID                                       : 1
  17. Format                                   : HEVC
  18. Format/Info                              : High Efficiency Video Coding
  19. Format profile                           : Main 10@L5.1@High
  20. HDR format                               : SMPTE ST 2086, HDR10 compatible
  21. Codec ID                                 : V_MPEGH/ISO/HEVC
  22. Duration                                 : 1 h 44 min
  23. Bit rate                                 : 18.5 Mb/s
  24. Width                                    : 3 840 pixels
  25. Height                                   : 1 608 pixels
  26. Display aspect ratio                     : 2.40:1
  27. Frame rate mode                          : Constant
  28. Frame rate                               : 23.976 (24000/1001/53354) FPS
  29. Color space                              : YUV
  30. Chroma subsampling                       : 4:2:0
  31. Bit depth                                : 10 bits
  32. Bits/(Pixel*Frame)                       : 0.125
  33. Stream size                              : 13.4 GiB (77%)
  34. Title                                    : @HDSky
  35. Writing library                          : x265 - H.265/HEVC codec
  36. Default                                  : Yes
  37. Forced                                   : No
  38. Color range                              : Limited
  39. Color primaries                          : BT.2020
  40. Transfer characteristics                 : PQ
  41. Matrix coefficients                      : BT.2020 non-constant
  42. Mastering display color primaries        : Display P3
  43. Mastering display luminance              : min: 0.0050 cd/m2, max: 4000 cd/m2
  44. Maximum Content Light Level              : 1098 cd/m2
  45. Maximum Frame-Average Light Level        : 297 cd/m2
  46. Audio #1
  47. ID                                       : 2
  48. Format                                   : MLP FBA 16-ch
  49. Format/Info                              : Meridian Lossless Packing FBA with 16-channel presentation
  50. Commercial name                          : Dolby TrueHD with Dolby Atmos
  51. Codec ID                                 : A_TRUEHD
  52. Duration                                 : 1 h 44 min
  53. Bit rate mode                            : Variable
  54. Bit rate                                 : 4 696 kb/s
  55. Maximum bit rate                         : 7 740 kb/s
  56. Channel(s)                               : 8 channels
  57. Channel layout                           : L R C LFE Ls Rs Lb Rb
  58. Sampling rate                            : 48.0 kHz
  59. Frame rate                               : 1 200.000 FPS (40 SPF)
  60. Compression mode                         : Lossless
  61. Stream size                              : 3.42 GiB (20%)
  62. Title                                    : English
  63. Language                                 : English
  64. Default                                  : Yes
  65. Forced                                   : No
  66. Number of dynamic objects                : 11
  67. Bed channel count                        : 1 channel
  68. Bed channel configuration                : LFE
  69. Audio #2
  70. ID                                       : 3
  71. Format                                   : AC-3
  72. Format/Info                              : Audio Coding 3
  73. Commercial name                          : Dolby Digital
  74. Codec ID                                 : A_AC3
  75. Duration                                 : 1 h 44 min
  76. Bit rate mode                            : Constant
  77. Bit rate                                 : 640 kb/s
  78. Channel(s)                               : 6 channels
  79. Channel layout                           : L R C LFE Ls Rs
  80. Sampling rate                            : 48.0 kHz
  81. Frame rate                               : 31.250 FPS (1536 SPF)
  82. Compression mode                         : Lossy
  83. Stream size                              : 477 MiB (3%)
  84. Service kind                             : Complete Main
  85. Default                                  : Yes
  86. Forced                                   : No
  87. Text #1
  88. ID                                       : 4
  89. Format                                   : PGS
  90. Muxing mode                              : zlib
  91. Codec ID                                 : S_HDMV/PGS
  92. Codec ID/Info                            : Picture based subtitle format used on BDs/HD-DVDs
  93. Duration                                 : 1 h 37 min
  94. Bit rate                                 : 58.9 kb/s
  95. Count of elements                        : 4050
  96. Stream size                              : 41.0 MiB (0%)
  97. Title                                    : CHS
  98. Language                                 : Chinese
  99. Default                                  : Yes
  100. Forced                                   : No
  101. Text #2
  102. ID                                       : 5
  103. Format                                   : PGS
  104. Muxing mode                              : zlib
  105. Codec ID                                 : S_HDMV/PGS
  106. Codec ID/Info                            : Picture based subtitle format used on BDs/HD-DVDs
  107. Duration                                 : 1 h 37 min
  108. Bit rate                                 : 59.9 kb/s
  109. Count of elements                        : 4050
  110. Stream size                              : 41.7 MiB (0%)
  111. Title                                    : CHT
  112. Language                                 : Chinese
  113. Default                                  : Yes
  114. Forced                                   : No
  115. Text #3
  116. ID                                       : 6
  117. Format                                   : PGS
  118. Muxing mode                              : zlib
  119. Codec ID                                 : S_HDMV/PGS
  120. Codec ID/Info                            : Picture based subtitle format used on BDs/HD-DVDs
  121. Duration                                 : 1 h 36 min
  122. Bit rate                                 : 28.4 kb/s
  123. Count of elements                        : 1962
  124. Stream size                              : 19.5 MiB (0%)
  125. Title                                    : CHS&ENG
  126. Language                                 : Chinese
  127. Default                                  : Yes
  128. Forced                                   : No
  129. Text #4
  130. ID                                       : 7
  131. Format                                   : PGS
  132. Muxing mode                              : zlib
  133. Codec ID                                 : S_HDMV/PGS
  134. Codec ID/Info                            : Picture based subtitle format used on BDs/HD-DVDs
  135. Duration                                 : 1 h 36 min
  136. Bit rate                                 : 28.9 kb/s
  137. Count of elements                        : 1962
  138. Stream size                              : 19.8 MiB (0%)
  139. Title                                    : CHT&ENG
  140. Language                                 : Chinese
  141. Default                                  : Yes
  142. Forced                                   : No
  143. Menu
  144. 00:00:00.000                             : en:第 01 章
  145. 00:05:06.932                             : en:第 02 章
  146. 00:10:15.824                             : en:第 03 章
  147. 00:16:57.350                             : en:第 04 章
  148. 00:21:36.754                             : en:第 05 章
  149. 00:27:58.385                             : en:第 06 章
  150. 00:32:58.476                             : en:第 07 章
  151. 00:38:04.157                             : en:第 08 章
  152. 00:43:17.762                             : en:第 09 章
  153. 00:48:58.102                             : en:第 10 章
  154. 00:55:10.557                             : en:第 11 章
  155. 01:01:11.877                             : en:第 12 章
  156. 01:05:28.424                             : en:第 13 章
  157. 01:13:07.049                             : en:第 14 章
  158. 01:20:06.385                             : en:第 15 章
  159. 01:26:32.729                             : en:第 16 章





此处一般会放置磁力链或种子下载链接,不过此链接需要注册会员才能看到,点击“立即注册”
磁力链下载【下载链接仅对注册会员开放,登陆后可见】
BT9527电影天堂 1、BT9527电影天堂提供的BT文件均来源于互联网抓取,只供网友学习交流、技术提升使用。
2、我们遵守BitTorrent点对点协议原则,任何版权问题请联系原资源发布商,我们不处理任何版权纠纷,谢谢!如有争议请联系邮箱:BT9527#hotmail.com(#换成@)
3、如果您发现某页面或地址有错误,请联系站长邮箱BT9527#hotmail.com(#换成@),我们会尽快处理。您的热心是对BT9527电影天堂最大的支持。
4、本站建议去正规影院观看电影以支持电影行业发展。
最新回复 (0)

你可以在 登录 or 注册 后,对此帖发表评论!

返回
发新帖