霸主[简繁英字幕].Overlord.2018.BluRay.2160p.x265.10bit.HDR.2Audio-MiniHD 22.89GB

版主小s 12天前 83

✔资源类型:BD-4K   ✔电影年份:2018   ✔电影地区:欧美   ✔电影分类:动作

◎译  名 霸主 / 大君主之役(港) / 大君主行动(台) / 霸王行动 / 君主
◎片  名 Overlord
◎年  代 2018
◎产  地 美国 / 加拿大
◎类  别 动作 / 科幻 / 恐怖 / 战争
◎语  言 英语 / 俄语 / 法语 / 德语
◎上映日期 2018-09-22(奥斯汀奇幻电影节) / 2018-11-09(美国)
◎IMDb链接 https://www.imdb.com/title/tt4530422/
◎豆瓣评分 6.5/10 (21967人评价)
◎豆瓣链接 https://movie.douban.com/subject/26969115/
◎片  长 110分钟
◎导  演 朱利叶斯·艾弗里 Julius Avery (id:1334258)
◎编  剧 比利·雷 Billy Ray (id:1295291)
       马克·L·史密斯 Mark L. Smith (id:1353628)
◎演  员 约翰·艾德坡 Jovan Adepo (id:1366311)
       怀亚特·拉塞尔 Wyatt Russell (id:1140515)
       马蒂尔德·奥利维耶 Mathilde Ollivier (id:1404244)
       皮鲁·埃斯贝克 Pilou Asb?k (id:1032805)
       约翰·马加罗 John Magaro (id:1317515)
       伊恩·德·卡斯泰克 Iain De Caestecker (id:1316025)
       雅各布·安德森 Jacob Anderson (id:1323647)
       多米尼克·阿普尔怀特 Dominic Applewhite (id:1313439)
       博基姆·伍德拜因 Bokeem Woodbine (id:1000287)
       恩里奇·雷德曼 Erich Redman (id:1404245)
       马克·麦克肯纳 Mark McKenna (id:1357405)
       海莉·卡迈克尔 Hayley Carmichael (id:1356532)
       米迦勒·埃普 Michael Epp (id:1052118)
       罗斯·汤姆林森 Ross Tomlinson (id:1393957)
       本·特瓦索里 Ben Tavassoli (id:1358845)
       安迪·韦勒姆 Andy Wareham (id:1342148)
       帕特里克·布拉莫尔 Patrick Brammall (id:1386400)
       肖恩·狄克逊 Shawn Dixon (id:1392991)
       豪尔赫·莱昂·马丁内斯 Jorge Leon Martinez (id:1340070)
       伊娃·马格亚 éva Magyar (id:1122696)
       埃莱娜·卡多纳 Hélène Cardona (id:1344847)
       罗伯特·施坦布勒 Robert Stambler (id:1227568)
       杰德·库泽尔 Jed Kurzel (id:1376075)
       格兰特·阿姆斯特朗 Grant Armstrong (id:1460558)

◎简  介
  J·J·艾布拉姆斯监制的科幻片、他的坏机器人制片公司的首部R级电影《霸王行动》发布海报,伞兵降落带着血腥。该片被很多影迷戏称为“《使命召唤》的僵尸模式”,讲述二战时期的诺曼底登陆遇上生化丧尸:                                    
                                诺曼底“霸王行动”前夕,美国伞兵深入敌人后方,执行一项对入侵的成功至关重要的任务。但当接近目标时,他们开始意识到,在这个纳粹占领的村庄里发生的事情比简单军事行动要复杂许多,他们将与超自然力量斗争,而这些是纳粹实验的一部分。
  1. ##### MediaInfo ######
  2. General
  3. Unique ID                                : 102107032356414570743676912025545415897 (0x4CD1195F95F6D24A4195F5B61C4F1CD9)
  4. Complete name                            : Overlord.2018.BluRay.2160p.x265.10bit.HDR.2Audio-MiniHD.mkv
  5. Format                                   : Matroska
  6. Format version                           : Version 4
  7. File size                                : 22.9 GiB
  8. Duration                                 : 1 h 49 min
  9. Overall bit rate mode                    : Variable
  10. Overall bit rate                         : 29.9 Mb/s
  11. Movie name                               : Overlord.2018.2160p.UHD.Blu-ray.Remux.HEVC.Atmos-HDU
  12. Encoded date                             : UTC 2019-02-17 02:23:22
  13. Writing application                      : mkvmerge v27.0.0 ('Metropolis') 64-bit
  14. Writing library                          : libebml v1.3.6 + libmatroska v1.4.9
  15. Cover                                    : Yes
  16. Attachments                              : cover.jpg
  17. Video
  18. ID                                       : 1
  19. Format                                   : HEVC
  20. Format/Info                              : High Efficiency Video Coding
  21. Format profile                           : Main 10@L5.1@High
  22. HDR format                               : SMPTE ST 2086, HDR10 compatible
  23. Codec ID                                 : V_MPEGH/ISO/HEVC
  24. Duration                                 : 1 h 49 min
  25. Bit rate                                 : 24.4 Mb/s
  26. Width                                    : 3 840 pixels
  27. Height                                   : 1 600 pixels
  28. Display aspect ratio                     : 2.40:1
  29. Frame rate mode                          : Constant
  30. Frame rate                               : 23.976 (24000/1001/53354) FPS
  31. Color space                              : YUV
  32. Chroma subsampling                       : 4:2:0
  33. Bit depth                                : 10 bits
  34. Bits/(Pixel*Frame)                       : 0.166
  35. Stream size                              : 18.7 GiB (82%)
  36. Title                                    : mUHD-FRDS
  37. Writing library                          : x265 2.9+2-g3691e1f72+19:[Windows][GCC 7.1.0][64 bit] Yuuki 10bit
  38. Encoding settings                        : rc=crf / crf=19.5000 / qcomp=0.70 / qpstep=4 / vbv-maxrate=160000 / vbv-bufsize=160000 / vbv-init=0.9 / crf-max=0.0 / crf-min=0.0 / aq-mode=1 / aq-strength=0.90 / cbqpoffs=-3 / crqpoffs=-3 / ipratio=1.40 / pbratio=1.30 / psy-rd=2.00 / psy-rdoq=5.00 / deblock=-1:-1 / ref=5 / bframes=9 / b-adapt=2 / bframe-bias=0 / b-pyramid / b-intra / weightp / weightb / min-keyint=23 / max-keyint=300 / rc-lookahead=40 / gop-lookahead=0 / NTMzNTQ=uuDQuD2mJt9fsCf / scenecut=40 / radl=0 / max-cu-size=32 / min-cu-size=8 / me=3 / subme=4 / merange=25 / rdoq-level=2 / rd=4 / rdpenalty=1 / ----- / cutree / no-sao / no-rect / no-amp / no-open-gop / wpp / no-pmode / no-pme / no-psnr / no-ssim / nr-intra=0 / nr-inter=0 / no-constrained-intra / no-strong-intra-smoothing / max-tu-size=32 / tu-inter-depth=2 / tu-intra-depth=2 / limit-tu=4 / qg-size=32 / qpmax=69 / qpmin=0 / ----- / cpuid=533541111039 / frame-threads=5 / numa-pools=84,- / log-level=2 / input-csp=1 / input-res=3840x1600 / interlace=0 / level-idc=0 / high-tier=1 / uhd-bd=0 / no-allow-non-conformance / no-repeat-headers / no-aud / hrd / info / hash=0 / no-temporal-layers / lookahead-slices=4 / no-intra-refresh / dynamic-rd=0.00 / no-ssim-rd / signhide / no-tskip / max-merge=3 / limit-refs=2 / limit-modes / temporal-mvp / no-analyze-src-pics / no-sao-non-deblock / no-early-skip / no-rskip / no-fast-intra / no-tskip-fast / no-cu-lossless / no-splitrd-skip / no-rd-refine / no-lossless / zone-count=0 / no-strict-cbr / no-rc-grain / no-const-vbv / sar=0 / overscan=0 / videoformat=5 / range=0 / colorprim=9 / transfer=16 / colormatrix=9 / chromaloc=0 / display-window=0 / master-display=G(13250,34500)B(7500,3000)R(34000,16000)WP(15635,16450)L(10000000,1) / max-cll=0,0 / min-luma=0 / max-luma=1023 / log2-max-poc-lsb=8 / vui-timing-info / vui-hrd-info / slices=1 / no-opt-qp-pps / no-opt-ref-list-length-pps / no-multi-pass-opt-rps / scenecut-bias=0.05 / no-opt-cu-delta-qp / no-aq-motion / hdr / hdr-opt / no-dhdr10-opt / no-idr-recovery-sei / analysis-reuse-level=5 / scale-factor=0 / refine-intra=0 / refine-inter=0 / refine-mv=0 / no-limit-sao / ctu-info=0 / no-lowpass-dct / refine-mv-type=0 / copy-pic=1 / max-ausize-factor=1.0 / no-dynamic-refine / no-single-sei
  39. Default                                  : Yes
  40. Forced                                   : No
  41. Color range                              : Limited
  42. Color primaries                          : BT.2020
  43. Transfer characteristics                 : PQ
  44. Matrix coefficients                      : BT.2020 non-constant
  45. Mastering display color primaries        : Display P3
  46. Mastering display luminance              : min: 0.0001 cd/m2, max: 1000 cd/m2
  47. Audio #1
  48. ID                                       : 2
  49. Format                                   : MLP FBA 16-ch
  50. Format/Info                              : Meridian Lossless Packing FBA with 16-channel presentation
  51. Commercial name                          : Dolby TrueHD with Dolby Atmos
  52. Codec ID                                 : A_TRUEHD
  53. Duration                                 : 1 h 49 min
  54. Bit rate mode                            : Variable
  55. Bit rate                                 : 4 723 kb/s
  56. Maximum bit rate                         : 8 355 kb/s
  57. Channel(s)                               : 8 channels
  58. Channel layout                           : L R C LFE Ls Rs Lb Rb
  59. Sampling rate                            : 48.0 kHz
  60. Frame rate                               : 1 200.000 FPS (40 SPF)
  61. Compression mode                         : Lossless
  62. Stream size                              : 3.62 GiB (16%)
  63. Title                                    : Atmos:7.1 / 48 kHz / 4723 kbps
  64. Language                                 : English
  65. Default                                  : Yes
  66. Forced                                   : No
  67. Number of dynamic objects                : 11
  68. Bed channel count                        : 1 channel
  69. Bed channel configuration                : LFE
  70. Audio #2
  71. ID                                       : 3
  72. Format                                   : AC-3
  73. Format/Info                              : Audio Coding 3
  74. Commercial name                          : Dolby Digital
  75. Codec ID                                 : A_AC3
  76. Duration                                 : 1 h 49 min
  77. Bit rate mode                            : Constant
  78. Bit rate                                 : 640 kb/s
  79. Channel(s)                               : 6 channels
  80. Channel layout                           : L R C LFE Ls Rs
  81. Sampling rate                            : 48.0 kHz
  82. Frame rate                               : 31.250 FPS (1536 SPF)
  83. Compression mode                         : Lossy
  84. Stream size                              : 502 MiB (2%)
  85. Title                                    : AC3:5.1 / 48 kHz / 640 kbps
  86. Language                                 : English
  87. Service kind                             : Complete Main
  88. Default                                  : No
  89. Forced                                   : No
  90. Text #1
  91. ID                                       : 4
  92. Format                                   : PGS
  93. Muxing mode                              : zlib
  94. Codec ID                                 : S_HDMV/PGS
  95. Codec ID/Info                            : Picture based subtitle format used on BDs/HD-DVDs
  96. Duration                                 : 1 h 42 min
  97. Bit rate                                 : 10.1 kb/s
  98. Count of elements                        : 2034
  99. Stream size                              : 7.40 MiB (0%)
  100. Title                                    : ENG
  101. Language                                 : English
  102. Default                                  : No
  103. Forced                                   : No
  104. Text #2
  105. ID                                       : 5
  106. Format                                   : PGS
  107. Muxing mode                              : zlib
  108. Codec ID                                 : S_HDMV/PGS
  109. Codec ID/Info                            : Picture based subtitle format used on BDs/HD-DVDs
  110. Duration                                 : 1 h 49 min
  111. Bit rate                                 : 13.0 kb/s
  112. Count of elements                        : 1758
  113. Stream size                              : 10.2 MiB (0%)
  114. Title                                    : 原盘繁体
  115. Language                                 : Chinese
  116. Default                                  : No
  117. Forced                                   : No
  118. Text #3
  119. ID                                       : 6
  120. Format                                   : PGS
  121. Muxing mode                              : zlib
  122. Codec ID                                 : S_HDMV/PGS
  123. Codec ID/Info                            : Picture based subtitle format used on BDs/HD-DVDs
  124. Duration                                 : 1 h 42 min
  125. Bit rate                                 : 20.5 kb/s
  126. Count of elements                        : 1485
  127. Stream size                              : 15.0 MiB (0%)
  128. Title                                    : 简体中文
  129. Language                                 : Chinese
  130. Default                                  : No
  131. Forced                                   : No
  132. Text #4
  133. ID                                       : 7
  134. Format                                   : PGS
  135. Muxing mode                              : zlib
  136. Codec ID                                 : S_HDMV/PGS
  137. Codec ID/Info                            : Picture based subtitle format used on BDs/HD-DVDs
  138. Duration                                 : 1 h 42 min
  139. Bit rate                                 : 33.2 kb/s
  140. Count of elements                        : 1488
  141. Stream size                              : 24.3 MiB (0%)
  142. Title                                    : 简英双语
  143. Language                                 : Chinese
  144. Default                                  : Yes
  145. Forced                                   : No
  146. Menu
  147. 00:00:00.000                             : en:Chapter 01
  148. 00:06:30.265                             : en:Chapter 02
  149. 00:13:46.659                             : en:Chapter 03
  150. 00:20:30.479                             : en:Chapter 04
  151. 00:26:26.960                             : en:Chapter 05
  152. 00:34:08.129                             : en:Chapter 06
  153. 00:41:09.759                             : en:Chapter 07
  154. 00:48:40.543                             : en:Chapter 08
  155. 00:55:50.055                             : en:Chapter 09
  156. 01:03:20.630                             : en:Chapter 10
  157. 01:10:27.765                             : en:Chapter 11
  158. 01:17:21.053                             : en:Chapter 12
  159. 01:25:46.767                             : en:Chapter 13
  160. 01:32:18.324                             : en:Chapter 14
  161. 01:38:47.630                             : en:Chapter 15
  162. 01:42:38.361                             : en:Chapter 16



此处一般会放置磁力链或种子下载链接,不过此链接需要注册会员才能看到,点击“立即注册”
磁力链下载【下载链接仅对注册会员开放,登陆后可见】
BT9527电影天堂 1、BT9527电影天堂提供的BT文件均来源于互联网抓取,只供网友学习交流、技术提升使用。
2、我们遵守BitTorrent点对点协议原则,任何版权问题请联系原资源发布商,我们不处理任何版权纠纷,谢谢!如有争议请联系邮箱:BT9527#hotmail.com(#换成@)
3、如果您发现某页面或地址有错误,请联系站长邮箱BT9527#hotmail.com(#换成@),我们会尽快处理。您的热心是对BT9527电影天堂最大的支持。
4、本站建议去正规影院观看电影以支持电影行业发展。
最新回复 (0)

你可以在 登录 or 注册 后,对此帖发表评论!

返回
发新帖