阿甘正传[中英字幕].Forrest.Gump.1994.Bluray.2160p.x265.10bit.HDR.2Audio-MiniHD 29.57GB

版主小s 3月前 174

✔资源类型:BD-4K   ✔电影年份:更 早   ✔电影地区:欧美   ✔电影分类:剧情

◎译  名 阿甘正传 / 福雷斯特·冈普
◎片  名 Forrest Gump
◎年  代 1994
◎产  地 美国
◎类  别 剧情 / 爱情
◎语  言 英语
◎上映日期 1994-06-23(洛杉矶首映) / 1994-07-06(美国)
◎IMDb链接 https://www.imdb.com/title/tt0109830/
◎豆瓣评分 9.5/10 (1980872人评价)
◎豆瓣链接 https://movie.douban.com/subject/1292720/
◎片  长 142分钟
◎导  演 罗伯特·泽米吉斯 Robert Zemeckis (id:1053564)
◎编  剧 艾瑞克·罗斯 Eric Roth (id:1000393)
       温斯顿·格鲁姆 Winston Groom (id:1285512)
◎演  员 汤姆·汉克斯 Tom Hanks (id:1054450)
       罗宾·怀特 Robin Wright (id:1002676)
       加里·西尼斯 Gary Sinise (id:1031848)
       麦凯尔泰·威廉逊 Mykelti Williamson (id:1031912)
       莎莉·菲尔德 Sally Field (id:1041112)
       海利·乔·奥斯蒙 Haley Joel Osment (id:1025137)
       迈克尔·康纳·亨弗里斯 Michael Conner Humphreys (id:1287151)
       哈罗德·G·赫瑟姆 Harold G. Herthum (id:1101200)
       山姆·安德森 Sam Anderson (id:1057231)
       伊俄涅·M·特雷奇 Ione M. Telech (id:1157541)
       彼得·道博森 Peter Dobson (id:1009527)
       希博汗·法隆 Siobhan Fallon (id:1080248)
       伊丽莎白·汉克斯 Elizabeth Hanks (id:1102459)
       汉娜·豪尔 Hanna Hall (id:1009340)
       克里斯托弗·琼斯 Christopher Jones (id:1112005)
       罗布·兰德里 Rob Landry (id:1289360)
       杰森·麦克奎尔 Jason McGuire (id:1125236)
       桑尼·施罗耶 Sonny Shroyer (id:1145663)
       艾德·戴维斯 Ed Davis (id:1081644)
       丹尼尔C.斯瑞派克 Daniel C. Striepeke (id:1028832)
       大卫·布里斯宾 David Brisbin (id:1067651)
       德博拉·麦克蒂尔 Deborah McTeer (id:1115167)
       艾尔·哈林顿 Al Harrington (id:1095746)
       阿非莫·奥米拉 Afemo Omilami (id:1037024)
       约翰·沃德斯塔德 John Voldstad (id:1164655)
       迈克尔·伯吉斯 Michael Burgess (id:1077989)
       埃里克·安德伍德 Eric Underwood (id:1156633)
       拜伦·明斯 Byron Minns (id:1292173)
       斯蒂芬·布吉格沃特 Stephen Bridgewater (id:1050503)
       约翰·威廉·高尔特 John William Galt (id:1102416)
       希拉里·沙普兰 Hilary Chaplain (id:1069270)
       伊莎贝尔·罗斯 Isabel Rose (id:1296038)
       理查德·达历山德罗 Richard D'Alessandro (id:1075120)
       迪克·史迪威 Dick Stilwell (id:1157301)
       迈克尔-杰斯 Michael Jace (id:1114521)
       杰弗里·布莱克 Geoffrey Blake (id:1066340)
       瓦妮莎·罗斯 Vanessa Roth (id:1296180)
       迪克·卡维特 Dick Cavett (id:1041384)
       马拉·苏查雷特扎 Marla Sucharetza (id:1155461)
       乔·阿拉斯奇 Joe Alaskey (id:1059676)
       W·本森·泰瑞 W. Benson Terry (id:1152599)
       约翰·列侬 John Lennon (id:1027302)
       埃尔维斯·普雷斯利 Elvis Presley (id:1013848)
       罗纳德·里根 Ronald Reagan (id:1007039)
       鲍勃·霍普 Bob Hope (id:1019087)
       约翰·肯尼迪 John F. Kennedy (id:1018205)
       理查德·尼克松 Richard Nixon (id:1014230)
       吴俊全 Junquan Wu (id:1328417)
       蒂莫西·麦克尼尔 Timothy McNeil (id:1361911)
       杰拉尔德·福特 Gerald Ford (id:1056050)
       布雷特·赖斯 Brett Rice (id:1414281)
       亚伦·史维斯查 Alan Silvestri (id:1002819)
       唐·伯吉斯 Don Burgess (id:1018519)
       江道格 Doug Chiang (id:1073585)
       斯蒂芬·罗森包姆 Stephen Rosenbaum (id:1042026)
       肯·拉斯顿 Ken Ralston (id:1295178)

◎简  介
  阿甘(汤姆·汉克斯 饰)于二战结束后不久出生在美国南方阿拉巴马州一个闭塞的小镇,他先天弱智,智商只有75,然而他的妈妈是一个性格坚强的女性,她常常鼓励阿甘“傻人有傻福”,要他自强不息。                                    
                                阿甘像普通孩子一样上学,并且认识了一生的朋友和至爱珍妮(罗宾·莱特·潘 饰),在珍妮 和妈妈的爱护下,阿甘凭着上帝赐予的“飞毛腿”开始了一生不停的奔跑。                                    
                                阿甘成为橄榄球巨星、越战英雄、乒乓球外交使者、亿万富翁,但是,他始终忘不了珍妮,几次匆匆的相聚和离别,更是加深了阿甘的思念。                                    
                                有一天,阿甘收到珍妮的信,他们终于又要见面……

◎获奖情况 (共30项)
  第67届奥斯卡金像奖 (1995)
  最佳影片
  最佳导演
   └──罗伯特·泽米吉斯 (id:1053564)
  最佳男主角
   └──汤姆·汉克斯 (id:1054450)
  最佳男配角(提名)
   └──加里·西尼斯 (id:1031848)
  最佳改编剧本
   └──艾瑞克·罗斯 (id:1000393)
  最佳摄影(提名)
   └──唐·伯吉斯 (id:1018519)
  最佳剪辑
   └──阿瑟·施密特 (id:1296896)
  最佳视觉效果
  最佳音效剪辑(提名)
  最佳音响(提名)
  最佳艺术指导(提名)
  最佳化妆(提名)
  最佳原创配乐(提名)
   └──亚伦·史维斯查 (id:1002819)

  第52届金球奖 (1995)
  电影类 最佳剧情片
  电影类 最佳导演
   └──罗伯特·泽米吉斯 (id:1053564)
  电影类 剧情片最佳男主角
   └──汤姆·汉克斯 (id:1054450)
  电影类 最佳男配角(提名)
   └──加里·西尼斯 (id:1031848)
  电影类 最佳女配角(提名)
   └──罗宾·怀特 (id:1002676)
  电影类 最佳编剧(提名)
   └──艾瑞克·罗斯 (id:1000393)
  电影类 最佳原创配乐(提名)
   └──亚伦·史维斯查 (id:1002819)

  第48届英国电影学院奖 (1995)
  电影奖 最佳影片(提名)
  电影奖 最佳导演(提名)
   └──罗伯特·泽米吉斯 (id:1053564)
  电影奖 最佳男主角(提名)
   └──汤姆·汉克斯 (id:1054450)
  电影奖 最佳女配角(提名)
   └──莎莉·菲尔德 (id:1041112)
  电影奖 最佳改编剧本(提名)
   └──艾瑞克·罗斯 (id:1000393)
  电影奖 最佳摄影(提名)
   └──唐·伯吉斯 (id:1018519)
  电影奖 最佳剪辑(提名)
   └──阿瑟·施密特 (id:1296896)
  电影奖 最佳特殊视觉效果

  第19届日本电影学院奖 (1996)
  最佳外语片(提名)

  第16届中国电影金鸡奖 (1996)
  最佳外国影片译制奖

  1. ##### MediaInfo ######
  2. General
  3. Unique ID                                : 296508763367318527872867806954762345340 (0xDF1182B79D4F45CDA012321EA6391B7C)
  4. Complete name                            : Forrest.Gump.1994.Bluray.2160p.x265.10bit.HDR.2Audio-MiniHD.mkv
  5. Format                                   : Matroska
  6. Format version                           : Version 4
  7. File size                                : 29.6 GiB
  8. Duration                                 : 2 h 22 min
  9. Overall bit rate mode                    : Variable
  10. Overall bit rate                         : 29.8 Mb/s
  11. Encoded date                             : UTC 2018-06-27 12:34:54
  12. Writing application                      : mkvmerge v23.0.0 ('The Bride Said No') 64-bit
  13. Writing library                          : libebml v1.3.6 + libmatroska v1.4.9
  14. Video #1
  15. ID                                       : 1
  16. Format                                   : HEVC
  17. Format/Info                              : High Efficiency Video Coding
  18. Format profile                           : Main 10@L5.1@High
  19. HDR format                               : SMPTE ST 2086, HDR10 compatible
  20. Codec ID                                 : V_MPEGH/ISO/HEVC
  21. Duration                                 : 2 h 22 min
  22. Bit rate                                 : 17.6 Mb/s
  23. Width                                    : 3 840 pixels
  24. Height                                   : 1 608 pixels
  25. Display aspect ratio                     : 2.40:1
  26. Frame rate mode                          : Constant
  27. Frame rate                               : 23.976 (24000/1001/53354) FPS
  28. Color space                              : YUV
  29. Chroma subsampling                       : 4:2:0 (Type 2)
  30. Bit depth                                : 10 bits
  31. Bits/(Pixel*Frame)                       : 0.119
  32. Stream size                              : 17.5 GiB (59%)
  33. Writing library                          : x265 2.8+4-g0ad419482+18:[Windows][GCC 7.1.0][64 bit] Yuuki 10bit
  34. Encoding settings                        : rc=crf / crf=18.0000 / qcomp=0.65 / qpstep=4 / vbv-maxrate=120000 / vbv-bufsize=120000 / vbv-init=0.9 / crf-max=0.0 / crf-min=0.0 / aq-mode=1 / aq-strength=0.80 / cbqpoffs=-2 / crqpoffs=-2 / ipratio=1.40 / pbratio=1.30 / psy-rd=0.00 / psy-rdoq=8.00 / deblock=-1:-1 / ref=4 / bframes=8 / b-adapt=2 / bframe-bias=0 / b-pyramid / b-intra / weightp / weightb / min-keyint=1 / max-keyint=360 / rc-lookahead=60 / gop-lookahead=0 / NTMzNTQ=uuDQuD2mJt9fsCf / scenecut=40 / radl=0 / max-cu-size=32 / min-cu-size=8 / me=3 / subme=5 / merange=25 / rdoq-level=2 / rd=4 / rdpenalty=1 / ----- / cutree / no-sao / no-rect / no-amp / no-open-gop / wpp / no-pmode / no-pme / no-psnr / no-ssim / nr-intra=0 / nr-inter=0 / no-constrained-intra / no-strong-intra-smoothing / max-tu-size=32 / tu-inter-depth=2 / tu-intra-depth=2 / limit-tu=3 / qg-size=32 / qpmax=69 / qpmin=0 / ----- / cpuid=533541111039 / frame-threads=4 / numa-pools=16 / log-level=2 / input-csp=1 / input-res=3840x1608 / interlace=0 / level-idc=51 / high-tier=1 / uhd-bd=0 / no-allow-non-conformance / repeat-headers / aud / hrd / info / hash=0 / no-temporal-layers / lookahead-slices=4 / no-intra-refresh / dynamic-rd=0.00 / ssim-rd / signhide / no-tskip / max-merge=3 / limit-refs=2 / limit-modes / temporal-mvp / no-analyze-src-pics / no-sao-non-deblock / no-early-skip / no-rskip / no-fast-intra / no-tskip-fast / no-cu-lossless / no-splitrd-skip / no-rd-refine / no-lossless / zone-count=0 / no-strict-cbr / no-rc-grain / no-const-vbv / sar=0 / overscan=0 / videoformat=5 / range=0 / colorprim=9 / transfer=16 / colormatrix=9 / chromaloc=1 / chromaloc-top=2 / chromaloc-bottom=2 / display-window=0 / master-display=G(13250,34500)B(7500,3000)R(34000,16000)WP(15635,16450)L(10000000,1) / max-cll=0,0 / min-luma=0 / max-luma=1023 / log2-max-poc-lsb=8 / vui-timing-info / vui-hrd-info / slices=1 / no-opt-qp-pps / no-opt-ref-list-length-pps / no-multi-pass-opt-rps / scenecut-bias=0.05 / no-opt-cu-delta-qp / no-aq-motion / hdr / hdr-opt / no-dhdr10-opt / no-idr-recovery-sei / analysis-reuse-level=5 / scale-factor=0 / refine-intra=0 / refine-inter=0 / refine-mv=0 / no-limit-sao / ctu-info=0 / no-lowpass-dct / refine-mv-type=0 / copy-pic=1 / max-ausize-factor=1.0 / no-dynamic-refine / no-single-sei
  35. Default                                  : Yes
  36. Forced                                   : No
  37. Color range                              : Limited
  38. Color primaries                          : BT.2020
  39. Transfer characteristics                 : PQ
  40. Matrix coefficients                      : BT.2020 non-constant
  41. Mastering display color primaries        : Display P3
  42. Mastering display luminance              : min: 0.0001 cd/m2, max: 1000 cd/m2
  43. Video #2
  44. ID                                       : 2
  45. Format                                   : HEVC
  46. Format/Info                              : High Efficiency Video Coding
  47. Format profile                           : Main 10@L5.1@High
  48. HDR format                               : SMPTE ST 2086, HDR10 compatible
  49. Codec ID                                 : V_MPEGH/ISO/HEVC
  50. Duration                                 : 2 h 22 min
  51. Bit rate                                 : 7 439 kb/s
  52. Width                                    : 1 920 pixels
  53. Height                                   : 1 080 pixels
  54. Display aspect ratio                     : 16:9
  55. Frame rate mode                          : Constant
  56. Frame rate                               : 23.976 (24000/1001/53354) FPS
  57. Color space                              : YUV
  58. Chroma subsampling                       : 4:2:0 (Type 2)
  59. Bit depth                                : 10 bits
  60. Bits/(Pixel*Frame)                       : 0.150
  61. Stream size                              : 7.39 GiB (25%)
  62. Default                                  : No
  63. Forced                                   : No
  64. Color range                              : Limited
  65. Color primaries                          : BT.2020
  66. Transfer characteristics                 : PQ
  67. Matrix coefficients                      : BT.2020 non-constant
  68. Mastering display color primaries        : Display P3
  69. Mastering display luminance              : min: 0.0001 cd/m2, max: 1000 cd/m2
  70. Audio #1
  71. ID                                       : 3
  72. Format                                   : MLP FBA 16-ch
  73. Format/Info                              : Meridian Lossless Packing FBA with 16-channel presentation
  74. Commercial name                          : Dolby TrueHD with Dolby Atmos
  75. Codec ID                                 : A_TRUEHD
  76. Duration                                 : 2 h 22 min
  77. Bit rate mode                            : Variable
  78. Bit rate                                 : 4 271 kb/s
  79. Maximum bit rate                         : 7 926 kb/s
  80. Channel(s)                               : 8 channels
  81. Channel layout                           : L R C LFE Ls Rs Lb Rb
  82. Sampling rate                            : 48.0 kHz
  83. Frame rate                               : 1 200.000 FPS (40 SPF)
  84. Compression mode                         : Lossless
  85. Delay relative to video                  : 501 ms
  86. Stream size                              : 4.24 GiB (14%)
  87. Default                                  : Yes
  88. Forced                                   : No
  89. Number of dynamic objects                : 11
  90. Bed channel count                        : 1 channel
  91. Bed channel configuration                : LFE
  92. Audio #2
  93. ID                                       : 4
  94. Format                                   : AC-3
  95. Format/Info                              : Audio Coding 3
  96. Commercial name                          : Dolby Digital
  97. Codec ID                                 : A_AC3
  98. Duration                                 : 2 h 22 min
  99. Bit rate mode                            : Constant
  100. Bit rate                                 : 384 kb/s
  101. Channel(s)                               : 6 channels
  102. Channel layout                           : L R C LFE Ls Rs
  103. Sampling rate                            : 48.0 kHz
  104. Frame rate                               : 31.250 FPS (1536 SPF)
  105. Compression mode                         : Lossy
  106. Stream size                              : 390 MiB (1%)
  107. Service kind                             : Complete Main
  108. Default                                  : No
  109. Forced                                   : No
  110. Text #1
  111. ID                                       : 5
  112. Format                                   : ASS
  113. Codec ID                                 : S_TEXT/ASS
  114. Codec ID/Info                            : Advanced Sub Station Alpha
  115. Duration                                 : 2 h 13 min
  116. Bit rate                                 : 218 b/s
  117. Count of elements                        : 2029
  118. Compression mode                         : Lossless
  119. Stream size                              : 213 KiB (0%)
  120. Title                                    : 中英双语
  121. Language                                 : Chinese
  122. Default                                  : Yes
  123. Forced                                   : No
  124. Text #2
  125. ID                                       : 6
  126. Format                                   : PGS
  127. Muxing mode                              : zlib
  128. Codec ID                                 : S_HDMV/PGS
  129. Codec ID/Info                            : Picture based subtitle format used on BDs/HD-DVDs
  130. Duration                                 : 2 h 10 min
  131. Bit rate                                 : 37.4 kb/s
  132. Count of elements                        : 3084
  133. Stream size                              : 35.0 MiB (0%)
  134. Title                                    : 英文字幕
  135. Language                                 : English
  136. Default                                  : No
  137. Forced                                   : No





此处一般会放置磁力链或种子下载链接,不过此链接需要注册会员才能看到,点击“立即注册”
磁力链下载【下载链接仅对注册会员开放,登陆后可见】
BT9527电影天堂 1、BT9527电影天堂提供的BT文件均来源于互联网抓取,只供网友学习交流、技术提升使用。
2、我们遵守BitTorrent点对点协议原则,任何版权问题请联系原资源发布商,我们不处理任何版权纠纷,谢谢!如有争议请联系邮箱:BT9527#hotmail.com(#换成@)
3、如果您发现某页面或地址有错误,请联系站长邮箱BT9527#hotmail.com(#换成@),我们会尽快处理。您的热心是对BT9527电影天堂最大的支持。
4、本站建议去正规影院观看电影以支持电影行业发展。
最新回复 (0)

你可以在 登录 or 注册 后,对此帖发表评论!

返回