阿甘正传[国英多音轨/简繁英特效字幕].Forrest.Gump.1994.Bluray.2160p.x265.10bit.HDR.5Audios-MiniHD 22.64GB

版主小s 9天前 35

✔资源类型:BD-4K   ✔电影年份:更 早   ✔电影地区:欧美   ✔电影分类:剧情

◎译  名 阿甘正传 / 福雷斯特·冈普
◎片  名 Forrest Gump
◎年  代 1994
◎产  地 美国
◎类  别 剧情 / 爱情
◎语  言 英语
◎上映日期 1994-06-23(洛杉矶首映) / 1994-07-06(美国)
◎IMDb链接 https://www.imdb.com/title/tt0109830/
◎豆瓣评分 9.5/10 (1980872人评价)
◎豆瓣链接 https://movie.douban.com/subject/1292720/
◎片  长 142分钟
◎导  演 罗伯特·泽米吉斯 Robert Zemeckis (id:1053564)
◎编  剧 艾瑞克·罗斯 Eric Roth (id:1000393)
       温斯顿·格鲁姆 Winston Groom (id:1285512)
◎演  员 汤姆·汉克斯 Tom Hanks (id:1054450)
       罗宾·怀特 Robin Wright (id:1002676)
       加里·西尼斯 Gary Sinise (id:1031848)
       麦凯尔泰·威廉逊 Mykelti Williamson (id:1031912)
       莎莉·菲尔德 Sally Field (id:1041112)
       海利·乔·奥斯蒙 Haley Joel Osment (id:1025137)
       迈克尔·康纳·亨弗里斯 Michael Conner Humphreys (id:1287151)
       哈罗德·G·赫瑟姆 Harold G. Herthum (id:1101200)
       山姆·安德森 Sam Anderson (id:1057231)
       伊俄涅·M·特雷奇 Ione M. Telech (id:1157541)
       彼得·道博森 Peter Dobson (id:1009527)
       希博汗·法隆 Siobhan Fallon (id:1080248)
       伊丽莎白·汉克斯 Elizabeth Hanks (id:1102459)
       汉娜·豪尔 Hanna Hall (id:1009340)
       克里斯托弗·琼斯 Christopher Jones (id:1112005)
       罗布·兰德里 Rob Landry (id:1289360)
       杰森·麦克奎尔 Jason McGuire (id:1125236)
       桑尼·施罗耶 Sonny Shroyer (id:1145663)
       艾德·戴维斯 Ed Davis (id:1081644)
       丹尼尔C.斯瑞派克 Daniel C. Striepeke (id:1028832)
       大卫·布里斯宾 David Brisbin (id:1067651)
       德博拉·麦克蒂尔 Deborah McTeer (id:1115167)
       艾尔·哈林顿 Al Harrington (id:1095746)
       阿非莫·奥米拉 Afemo Omilami (id:1037024)
       约翰·沃德斯塔德 John Voldstad (id:1164655)
       迈克尔·伯吉斯 Michael Burgess (id:1077989)
       埃里克·安德伍德 Eric Underwood (id:1156633)
       拜伦·明斯 Byron Minns (id:1292173)
       斯蒂芬·布吉格沃特 Stephen Bridgewater (id:1050503)
       约翰·威廉·高尔特 John William Galt (id:1102416)
       希拉里·沙普兰 Hilary Chaplain (id:1069270)
       伊莎贝尔·罗斯 Isabel Rose (id:1296038)
       理查德·达历山德罗 Richard D'Alessandro (id:1075120)
       迪克·史迪威 Dick Stilwell (id:1157301)
       迈克尔-杰斯 Michael Jace (id:1114521)
       杰弗里·布莱克 Geoffrey Blake (id:1066340)
       瓦妮莎·罗斯 Vanessa Roth (id:1296180)
       迪克·卡维特 Dick Cavett (id:1041384)
       马拉·苏查雷特扎 Marla Sucharetza (id:1155461)
       乔·阿拉斯奇 Joe Alaskey (id:1059676)
       W·本森·泰瑞 W. Benson Terry (id:1152599)
       约翰·列侬 John Lennon (id:1027302)
       埃尔维斯·普雷斯利 Elvis Presley (id:1013848)
       罗纳德·里根 Ronald Reagan (id:1007039)
       鲍勃·霍普 Bob Hope (id:1019087)
       约翰·肯尼迪 John F. Kennedy (id:1018205)
       理查德·尼克松 Richard Nixon (id:1014230)
       吴俊全 Junquan Wu (id:1328417)
       蒂莫西·麦克尼尔 Timothy McNeil (id:1361911)
       杰拉尔德·福特 Gerald Ford (id:1056050)
       布雷特·赖斯 Brett Rice (id:1414281)
       亚伦·史维斯查 Alan Silvestri (id:1002819)
       唐·伯吉斯 Don Burgess (id:1018519)
       江道格 Doug Chiang (id:1073585)
       斯蒂芬·罗森包姆 Stephen Rosenbaum (id:1042026)
       肯·拉斯顿 Ken Ralston (id:1295178)

◎简  介
  阿甘(汤姆·汉克斯 饰)于二战结束后不久出生在美国南方阿拉巴马州一个闭塞的小镇,他先天弱智,智商只有75,然而他的妈妈是一个性格坚强的女性,她常常鼓励阿甘“傻人有傻福”,要他自强不息。                                    
                                阿甘像普通孩子一样上学,并且认识了一生的朋友和至爱珍妮(罗宾·莱特·潘 饰),在珍妮 和妈妈的爱护下,阿甘凭着上帝赐予的“飞毛腿”开始了一生不停的奔跑。                                    
                                阿甘成为橄榄球巨星、越战英雄、乒乓球外交使者、亿万富翁,但是,他始终忘不了珍妮,几次匆匆的相聚和离别,更是加深了阿甘的思念。                                    
                                有一天,阿甘收到珍妮的信,他们终于又要见面……

◎获奖情况 (共30项)
  第67届奥斯卡金像奖 (1995)
  最佳影片
  最佳导演
   └──罗伯特·泽米吉斯 (id:1053564)
  最佳男主角
   └──汤姆·汉克斯 (id:1054450)
  最佳男配角(提名)
   └──加里·西尼斯 (id:1031848)
  最佳改编剧本
   └──艾瑞克·罗斯 (id:1000393)
  最佳摄影(提名)
   └──唐·伯吉斯 (id:1018519)
  最佳剪辑
   └──阿瑟·施密特 (id:1296896)
  最佳视觉效果
  最佳音效剪辑(提名)
  最佳音响(提名)
  最佳艺术指导(提名)
  最佳化妆(提名)
  最佳原创配乐(提名)
   └──亚伦·史维斯查 (id:1002819)

  第52届金球奖 (1995)
  电影类 最佳剧情片
  电影类 最佳导演
   └──罗伯特·泽米吉斯 (id:1053564)
  电影类 剧情片最佳男主角
   └──汤姆·汉克斯 (id:1054450)
  电影类 最佳男配角(提名)
   └──加里·西尼斯 (id:1031848)
  电影类 最佳女配角(提名)
   └──罗宾·怀特 (id:1002676)
  电影类 最佳编剧(提名)
   └──艾瑞克·罗斯 (id:1000393)
  电影类 最佳原创配乐(提名)
   └──亚伦·史维斯查 (id:1002819)

  第48届英国电影学院奖 (1995)
  电影奖 最佳影片(提名)
  电影奖 最佳导演(提名)
   └──罗伯特·泽米吉斯 (id:1053564)
  电影奖 最佳男主角(提名)
   └──汤姆·汉克斯 (id:1054450)
  电影奖 最佳女配角(提名)
   └──莎莉·菲尔德 (id:1041112)
  电影奖 最佳改编剧本(提名)
   └──艾瑞克·罗斯 (id:1000393)
  电影奖 最佳摄影(提名)
   └──唐·伯吉斯 (id:1018519)
  电影奖 最佳剪辑(提名)
   └──阿瑟·施密特 (id:1296896)
  电影奖 最佳特殊视觉效果

  第19届日本电影学院奖 (1996)
  最佳外语片(提名)

  第16届中国电影金鸡奖 (1996)
  最佳外国影片译制奖

  1. ##### MediaInfo ######
  2. General
  3. Unique ID                                : 205231252773877468294505621848187952934 (0x9A6619FD7C49397044F0CED7AA435F26)
  4. Complete name                            : Forrest.Gump.1994.Bluray.2160p.x265.10bit.HDR.5Audios-MiniHD.mkv
  5. Format                                   : Matroska
  6. Format version                           : Version 4
  7. File size                                : 22.6 GiB
  8. Duration                                 : 2 h 22 min
  9. Overall bit rate mode                    : Variable
  10. Overall bit rate                         : 22.8 Mb/s
  11. Encoded date                             : UTC 2018-08-18 11:38:41
  12. Writing application                      : mkvmerge v20.0.0 ('I Am The Sun') 64-bit
  13. Writing library                          : libebml v1.3.5 + libmatroska v1.4.8
  14. Video
  15. ID                                       : 1
  16. Format                                   : HEVC
  17. Format/Info                              : High Efficiency Video Coding
  18. Format profile                           : Main 10@L5.1@High
  19. Codec ID                                 : V_MPEGH/ISO/HEVC
  20. Duration                                 : 2 h 22 min
  21. Bit rate                                 : 15.9 Mb/s
  22. Width                                    : 3 840 pixels
  23. Height                                   : 1 608 pixels
  24. Display aspect ratio                     : 2.40:1
  25. Frame rate mode                          : Constant
  26. Frame rate                               : 23.976 (24000/1001/53354) FPS
  27. Color space                              : YUV
  28. Chroma subsampling                       : 4:2:0
  29. Bit depth                                : 10 bits
  30. Bits/(Pixel*Frame)                       : 0.107
  31. Stream size                              : 15.7 GiB (70%)
  32. Default                                  : Yes
  33. Forced                                   : No
  34. Color range                              : Limited
  35. Color primaries                          : BT.2020
  36. Transfer characteristics                 : PQ
  37. Matrix coefficients                      : BT.2020 non-constant
  38. Audio #1
  39. ID                                       : 2
  40. Format                                   : MLP FBA 16-ch
  41. Format/Info                              : Meridian Lossless Packing FBA with 16-channel presentation
  42. Commercial name                          : Dolby TrueHD with Dolby Atmos
  43. Codec ID                                 : A_TRUEHD
  44. Duration                                 : 2 h 22 min
  45. Bit rate mode                            : Variable
  46. Bit rate                                 : 4 271 kb/s
  47. Maximum bit rate                         : 7 926 kb/s
  48. Channel(s)                               : 8 channels
  49. Channel layout                           : L R C LFE Ls Rs Lb Rb
  50. Sampling rate                            : 48.0 kHz
  51. Frame rate                               : 1 200.000 FPS (40 SPF)
  52. Compression mode                         : Lossless
  53. Delay relative to video                  : 501 ms
  54. Stream size                              : 4.24 GiB (19%)
  55. Title                                    : 英语全景声
  56. Language                                 : English
  57. Default                                  : Yes
  58. Forced                                   : No
  59. Number of dynamic objects                : 11
  60. Bed channel count                        : 1 channel
  61. Bed channel configuration                : LFE
  62. Audio #2
  63. ID                                       : 3
  64. Format                                   : DTS
  65. Format/Info                              : Digital Theater Systems
  66. Codec ID                                 : A_DTS
  67. Duration                                 : 2 h 22 min
  68. Bit rate mode                            : Constant
  69. Bit rate                                 : 1 509 kb/s
  70. Channel(s)                               : 6 channels
  71. Channel layout                           : C L R Ls Rs LFE
  72. Sampling rate                            : 48.0 kHz
  73. Frame rate                               : 93.750 FPS (512 SPF)
  74. Bit depth                                : 24 bits
  75. Compression mode                         : Lossy
  76. Stream size                              : 1.50 GiB (7%)
  77. Title                                    : 英语DTS
  78. Language                                 : English
  79. Default                                  : No
  80. Forced                                   : No
  81. Audio #3
  82. ID                                       : 4
  83. Format                                   : AC-3
  84. Format/Info                              : Audio Coding 3
  85. Commercial name                          : Dolby Digital
  86. Codec ID                                 : A_AC3
  87. Duration                                 : 2 h 22 min
  88. Bit rate mode                            : Constant
  89. Bit rate                                 : 384 kb/s
  90. Channel(s)                               : 6 channels
  91. Channel layout                           : L R C LFE Ls Rs
  92. Sampling rate                            : 48.0 kHz
  93. Frame rate                               : 31.250 FPS (1536 SPF)
  94. Compression mode                         : Lossy
  95. Stream size                              : 390 MiB (2%)
  96. Title                                    : 公映八一国语
  97. Language                                 : Chinese
  98. Service kind                             : Complete Main
  99. Default                                  : No
  100. Forced                                   : No
  101. Audio #4
  102. ID                                       : 5
  103. Format                                   : AC-3
  104. Format/Info                              : Audio Coding 3
  105. Commercial name                          : Dolby Digital
  106. Codec ID                                 : A_AC3
  107. Duration                                 : 2 h 22 min
  108. Bit rate mode                            : Constant
  109. Bit rate                                 : 384 kb/s
  110. Channel(s)                               : 6 channels
  111. Channel layout                           : L R C LFE Ls Rs
  112. Sampling rate                            : 48.0 kHz
  113. Frame rate                               : 31.250 FPS (1536 SPF)
  114. Compression mode                         : Lossy
  115. Stream size                              : 390 MiB (2%)
  116. Title                                    : 中录德加拉国语
  117. Language                                 : Chinese
  118. Service kind                             : Complete Main
  119. Default                                  : No
  120. Forced                                   : No
  121. Audio #5
  122. ID                                       : 6
  123. Format                                   : AC-3
  124. Format/Info                              : Audio Coding 3
  125. Commercial name                          : Dolby Digital
  126. Codec ID                                 : A_AC3
  127. Duration                                 : 2 h 22 min
  128. Bit rate mode                            : Constant
  129. Bit rate                                 : 192 kb/s
  130. Channel(s)                               : 2 channels
  131. Channel layout                           : L R
  132. Sampling rate                            : 48.0 kHz
  133. Frame rate                               : 31.250 FPS (1536 SPF)
  134. Compression mode                         : Lossy
  135. Stream size                              : 195 MiB (1%)
  136. Title                                    : 央视国语
  137. Language                                 : Chinese
  138. Service kind                             : Complete Main
  139. Default                                  : No
  140. Forced                                   : No
  141. Text #1
  142. ID                                       : 7
  143. Format                                   : PGS
  144. Muxing mode                              : zlib
  145. Codec ID                                 : S_HDMV/PGS
  146. Codec ID/Info                            : Picture based subtitle format used on BDs/HD-DVDs
  147. Duration                                 : 2 h 15 min
  148. Bit rate                                 : 25.3 kb/s
  149. Count of elements                        : 3414
  150. Stream size                              : 24.5 MiB (0%)
  151. Title                                    : 德加拉国配简中
  152. Language                                 : Chinese
  153. Default                                  : Yes
  154. Forced                                   : No
  155. Text #2
  156. ID                                       : 8
  157. Format                                   : PGS
  158. Muxing mode                              : zlib
  159. Codec ID                                 : S_HDMV/PGS
  160. Codec ID/Info                            : Picture based subtitle format used on BDs/HD-DVDs
  161. Duration                                 : 2 h 21 min
  162. Bit rate                                 : 31.1 kb/s
  163. Count of elements                        : 4409
  164. Stream size                              : 31.5 MiB (0%)
  165. Title                                    : 简体中文特效
  166. Language                                 : Chinese
  167. Default                                  : No
  168. Forced                                   : No
  169. Text #3
  170. ID                                       : 9
  171. Format                                   : PGS
  172. Muxing mode                              : zlib
  173. Codec ID                                 : S_HDMV/PGS
  174. Codec ID/Info                            : Picture based subtitle format used on BDs/HD-DVDs
  175. Duration                                 : 2 h 21 min
  176. Bit rate                                 : 32.6 kb/s
  177. Count of elements                        : 4409
  178. Stream size                              : 33.1 MiB (0%)
  179. Title                                    : 繁体中文特效
  180. Language                                 : Chinese
  181. Default                                  : No
  182. Forced                                   : No
  183. Text #4
  184. ID                                       : 10
  185. Format                                   : PGS
  186. Muxing mode                              : zlib
  187. Codec ID                                 : S_HDMV/PGS
  188. Codec ID/Info                            : Picture based subtitle format used on BDs/HD-DVDs
  189. Duration                                 : 2 h 21 min
  190. Bit rate                                 : 51.6 kb/s
  191. Count of elements                        : 4409
  192. Stream size                              : 52.4 MiB (0%)
  193. Title                                    : 简英双语特效
  194. Language                                 : Chinese
  195. Default                                  : No
  196. Forced                                   : No
  197. Text #5
  198. ID                                       : 11
  199. Format                                   : PGS
  200. Muxing mode                              : zlib
  201. Codec ID                                 : S_HDMV/PGS
  202. Codec ID/Info                            : Picture based subtitle format used on BDs/HD-DVDs
  203. Duration                                 : 2 h 21 min
  204. Bit rate                                 : 53.1 kb/s
  205. Count of elements                        : 4409
  206. Stream size                              : 54.0 MiB (0%)
  207. Title                                    : 繁英双语特效
  208. Language                                 : Chinese
  209. Default                                  : No
  210. Forced                                   : No
  211. Text #6
  212. ID                                       : 12
  213. Format                                   : PGS
  214. Muxing mode                              : zlib
  215. Codec ID                                 : S_HDMV/PGS
  216. Codec ID/Info                            : Picture based subtitle format used on BDs/HD-DVDs
  217. Duration                                 : 2 h 10 min
  218. Bit rate                                 : 37.4 kb/s
  219. Count of elements                        : 3084
  220. Stream size                              : 35.0 MiB (0%)
  221. Title                                    : 英文
  222. Language                                 : English
  223. Default                                  : No
  224. Forced                                   : No
  225. Menu
  226. 00:00:00.000                             : en:00:00:00.000
  227. 00:06:43.570                             : en:00:06:43.570
  228. 00:12:24.577                             : en:00:12:24.577
  229. 00:19:56.946                             : en:00:19:56.946
  230. 00:31:13.705                             : en:00:31:13.705
  231. 00:40:40.188                             : en:00:40:40.188
  232. 00:44:18.114                             : en:00:44:18.114
  233. 00:56:34.474                             : en:00:56:34.474
  234. 01:03:32.267                             : en:01:03:32.267
  235. 01:13:34.076                             : en:01:13:34.076
  236. 01:17:02.827                             : en:01:17:02.827
  237. 01:23:52.277                             : en:01:23:52.277
  238. 01:34:59.944                             : en:01:34:59.944
  239. 01:38:55.596                             : en:01:38:55.596
  240. 01:43:52.893                             : en:01:43:52.893
  241. 01:51:28.307                             : en:01:51:28.307
  242. 01:58:54.711                             : en:01:58:54.711
  243. 02:04:48.564                             : en:02:04:48.564
  244. 02:15:25.200                             : en:02:15:25.200





此处一般会放置磁力链或种子下载链接,不过此链接需要注册会员才能看到,点击“立即注册”
磁力链下载【下载链接仅对注册会员开放,登陆后可见】
BT9527电影天堂 1、BT9527电影天堂提供的BT文件均来源于互联网抓取,只供网友学习交流、技术提升使用。
2、我们遵守BitTorrent点对点协议原则,任何版权问题请联系原资源发布商,我们不处理任何版权纠纷,谢谢!如有争议请联系邮箱:BT9527#hotmail.com(#换成@)
3、如果您发现某页面或地址有错误,请联系站长邮箱BT9527#hotmail.com(#换成@),我们会尽快处理。您的热心是对BT9527电影天堂最大的支持。
4、本站建议去正规影院观看电影以支持电影行业发展。
最新回复 (0)

你可以在 登录 or 注册 后,对此帖发表评论!

返回
发新帖