阿拉丁[国英多音轨/简英特效字幕].Aladdin.2019.BluRay.2160p.x265.10bit.HDR.2Audios-MiniHD 22.05GB

版主小s 3月前 176

✔资源类型:BD-4K   ✔电影年份:2019   ✔电影地区:欧美   ✔电影分类:爱情

◎译  名 阿拉丁 / 阿拉丁真人版
◎片  名 Aladdin
◎年  代 2019
◎产  地 美国
◎类  别 爱情 / 歌舞 / 奇幻 / 冒险
◎语  言 英语
◎上映日期 2019-05-24(美国/中国大陆)
◎IMDb链接 https://www.imdb.com/title/tt6139732/
◎豆瓣评分 7.4/10 (294941人评价)
◎豆瓣链接 https://movie.douban.com/subject/26891256/
◎片  长 128分钟
◎导  演 盖·里奇 Guy Ritchie (id:1025148)
◎编  剧 盖·里奇 Guy Ritchie (id:1025148)
       约翰·奥古斯特 John August (id:1022820)
◎演  员 梅纳·玛索德 Mena Massoud (id:1377224)
       娜奥米·斯科特 Naomi Scott (id:1325313)
       威尔·史密斯 Will Smith (id:1027138)
       马尔万·肯扎里 Marwan Kenzari (id:1273062)
       纳维德·内加班 Navid Negahban (id:1018227)
       纽曼·阿卡 Numan Acar (id:1344727)
       艾伦·图代克 Alan Tudyk (id:1031855)
       比利·马格努森 Billy Magnussen (id:1239332)
       纳西姆·帕杜雷德 Nasim Pedrad (id:1199058)
       卡米尔·雷米泽斯基 Kamil Lemieszewski (id:1390233)
       乔伊·安沙 Joey Ansah (id:1036954)
       贾格·帕特尔 Jag Patel (id:1392994)
       贝恩·科拉科 Bern Colla?o (id:1394212)
       凯西·克莱尔 Cassie Clare (id:1379827)
       威尔·布拉格罗夫 Will Blagrove (id:1205181)
       希滕·珀泰尔 Hiten Patel (id:1392995)
       阿米尔·鲍特罗斯 Amir Boutrous (id:1342214)
       埃里克·可可 Eric Coco (id:1274032)
       弗兰·塔格 Fran Targ (id:1395003)
       阿玛尔·阿达蒂亚 Amar Adatia (id:1410186)
       乔丹·A·纳什 Jordan A. Nash (id:1373103)
       通恰伊·古奈什 Tuncay Gunes (id:1391308)
       塞尔哈特·梅汀 Serhat Metin (id:1336754)
       凯文·马塔迪恩 Kevin Matadeen (id:1389253)
       保利娜·博内瓦 Paulina Boneva (id:1346574)
       塔希尔·布尔汉 Tahir Burhan (id:1392821)
       亚当·柯林斯 Adam Collins (id:1413373)
       木下晴香 Haruka Kinoshita (id:1417421)
       马克·普拉特 Marc Platt (id:1294606)
       艾伦·曼肯 Alan Menken (id:1009583)
       艾伦·斯图尔特 Alan Stewart (id:1051226)
       迈克尔·威尔金森 Michael Wilkinson (id:1300947)
       迈克尔·弗里德曼 Michael Freedman (id:1419119)

◎简  介
  故事发生在充满了异域风情的阿拉伯王国阿格拉巴,阿拉丁(梅纳·马苏德 Mena Massoud 饰)出生在一个贫穷的家庭之中,但这并没能够妨碍他成长为一个善良而有乐观的青年。一次偶然中,阿拉丁邂逅了茉莉公主(娜奥米·斯科特 Naomi Scott 饰),茉莉公主不满足于父亲为她安排的政治联姻,想要接替国王的宝座,亲手带领国家走向富强。与众不同的茉莉公主一下子就吸引了阿拉丁的注意,两人在经历了几次意外之后渐渐的走到了一起。                                    
                                贾方(马尔万·肯扎里 Marwan Kenzari 饰)是一名巫师,同时也是一国之首相,他通过计谋威逼利诱阿拉丁,迫使他踏上了为自己寻找能够实现三个愿望的神灯的旅途。

◎获奖情况 (共6项)
  第40届金酸莓奖 (2020)
  最佳赎莓奖(提名)
   └──威尔·史密斯 (id:1027138)

  第24届美国艺术指导工会奖 (2020)
  电影奖 最佳幻想电影艺术指导(提名)
   └──杰玛·杰克逊 (id:1287477)

  第22届美国服装设计工会奖 (2020)
  科幻/奇幻题材电影最佳服装设计(提名)
   └──迈克尔·威尔金森 (id:1300947)

  第18届美国视觉效果协会奖 (2020)
  最佳真人电影CG背景(提名)

  第25届美国评论家选择电影奖 (2020)
  最佳歌曲(提名)

  第6届豆瓣电影年度榜单 (2019)
  评分最高的爱情片(提名)

  1. ##### MediaInfo ######
  2. General
  3. Unique ID                                : 296591371366878593879598053749799829954 (0xDF216B9B27CD25F793ABA00E9064C1C2)
  4. Complete name                            : Aladdin.2019.BluRay.2160p.x265.10bit.HDR.2Audios-MiniHD.mkv
  5. Format                                   : Matroska
  6. Format version                           : Version 4
  7. File size                                : 22.0 GiB
  8. Duration                                 : 2 h 7 min
  9. Overall bit rate mode                    : Variable
  10. Overall bit rate                         : 24.7 Mb/s
  11. Encoded date                             : UTC 2019-09-06 00:14:08
  12. Writing application                      : mkvmerge v20.0.0 ('I Am The Sun') 64-bit
  13. Writing library                          : libebml v1.3.5 + libmatroska v1.4.8
  14. Video
  15. ID                                       : 1
  16. Format                                   : HEVC
  17. Format/Info                              : High Efficiency Video Coding
  18. Format profile                           : Main 10@L5.1@High
  19. HDR format                               : SMPTE ST 2086, HDR10 compatible
  20. Codec ID                                 : V_MPEGH/ISO/HEVC
  21. Duration                                 : 2 h 7 min
  22. Bit rate                                 : 19.2 Mb/s
  23. Width                                    : 3 840 pixels
  24. Height                                   : 1 608 pixels
  25. Display aspect ratio                     : 2.40:1
  26. Frame rate mode                          : Constant
  27. Frame rate                               : 23.976 (24000/1001/53354) FPS
  28. Color space                              : YUV
  29. Chroma subsampling                       : 4:2:0
  30. Bit depth                                : 10 bits
  31. Bits/(Pixel*Frame)                       : 0.129
  32. Stream size                              : 17.1 GiB (78%)
  33. Writing library                          : x265 3.1+2-g764455672+26:[Windows][GCC 8.3.0][64 bit] Yuuki 10bit+8bit+12bit
  34. Encoding settings                        : rc=crf / crf=18.5000 / qcomp=0.70 / qpstep=4 / stats-write=0 / stats-read=0 / vbv-maxrate=160000 / vbv-bufsize=160000 / vbv-init=0.9 / crf-max=0.0 / crf-min=0.0 / no-lossless / no-cu-lossless / aq-mode=1 / aq-strength=0.90 / cbqpoffs=-3 / crqpoffs=-3 / ipratio=1.40 / pbratio=1.30 / psy-rd=2.00 / psy-rdoq=3.00 / deblock=-1:-1 / ref=5 / limit-refs=0 / no-limit-modes / bframes=8 / b-adapt=2 / bframe-bias=0 / b-pyramid / b-intra / weightp / weightb / min-keyint=23 / max-keyint=240 / rc-lookahead=60 / gop-lookahead=0 / NTMzNTQ=uuDQuD2mJt9fsCf / scenecut=40 / radl=0 / max-cu-size=32 / min-cu-size=8 / me=3 / subme=4 / merange=25 / rdoq-level=2 / rd=4 / rdpenalty=1 / dynamic-rd=0.00 / no-rd-refine / ----- / no-cutree / no-sao / no-rect / no-amp / no-open-gop / wpp / pmode / pme / no-psnr / no-ssim / nr-intra=0 / nr-inter=0 / no-constrained-intra / no-strong-intra-smoothing / max-tu-size=32 / tu-inter-depth=2 / tu-intra-depth=2 / limit-tu=0 / qg-size=32 / qpmax=69 / qpmin=0 / ----- / cpuid=533541111039 / frame-threads=6 / numa-pools=54,- / log-level=2 / input-csp=1 / input-res=3840x1608 / interlace=0 / level-idc=0 / high-tier=1 / uhd-bd=0 / no-allow-non-conformance / no-repeat-headers / no-aud / hrd / info / hash=0 / no-temporal-layers / lookahead-slices=0 / no-splice / no-intra-refresh / no-ssim-rd / signhide / no-tskip / max-merge=3 / temporal-mvp / no-analyze-src-pics / no-sao-non-deblock / no-early-skip / no-rskip / no-fast-intra / no-tskip-fast / no-splitrd-skip / zone-count=0 / no-strict-cbr / no-rc-grain / no-const-vbv / sar=0 / overscan=0 / videoformat=5 / range=0 / colorprim=9 / transfer=16 / colormatrix=9 / chromaloc=0 / display-window=0 / master-display=G(13250,34500)B(7500,3000)R(34000,16000)WP(15635,16450)L(40000000,50)cll=0,0 / min-luma=0 / max-luma=1023 / log2-max-poc-lsb=8 / vui-timing-info / vui-hrd-info / slices=1 / no-opt-qp-pps / no-opt-ref-list-length-pps / no-multi-pass-opt-rps / scenecut-bias=0.05 / no-opt-cu-delta-qp / no-aq-motion / hdr / hdr-opt / no-dhdr10-opt / no-idr-recovery-sei / analysis-reuse-level=5 / scale-factor=0 / refine-intra=0 / refine-inter=0 / refine-mv=0 / refine-ctu-distortion=0 / no-limit-sao / ctu-info=0 / no-lowpass-dct / refine-analysis-type=0 / copy-pic=1 / max-ausize-factor=1.0 / no-dynamic-refine / no-single-sei / no-hevc-aq / no-svt / no-field / qp-adaptation-range=1.00
  35. Default                                  : Yes
  36. Forced                                   : No
  37. Color range                              : Limited
  38. Color primaries                          : BT.2020
  39. Transfer characteristics                 : PQ
  40. Matrix coefficients                      : BT.2020 non-constant
  41. Mastering display color primaries        : Display P3
  42. Mastering display luminance              : min: 0.0050 cd/m2, max: 4000 cd/m2
  43. Audio #1
  44. ID                                       : 2
  45. Format                                   : DTS XLL
  46. Format/Info                              : Digital Theater Systems
  47. Commercial name                          : DTS-HD Master Audio
  48. Codec ID                                 : A_DTS
  49. Duration                                 : 2 h 7 min
  50. Bit rate mode                            : Variable
  51. Bit rate                                 : 5 316 kb/s
  52. Channel(s)                               : 8 channels
  53. Channel layout                           : C L R LFE Lb Rb Lss Rss
  54. Sampling rate                            : 48.0 kHz
  55. Frame rate                               : 93.750 FPS (512 SPF)
  56. Bit depth                                : 24 bits
  57. Compression mode                         : Lossless
  58. Stream size                              : 4.75 GiB (22%)
  59. Title                                    : DTSHD
  60. Language                                 : English
  61. Default                                  : Yes
  62. Forced                                   : No
  63. Audio #2
  64. ID                                       : 3
  65. Format                                   : AAC LC
  66. Format/Info                              : Advanced Audio Codec Low Complexity
  67. Codec ID                                 : A_AAC-2
  68. Duration                                 : 2 h 7 min
  69. Bit rate                                 : 126 kb/s
  70. Channel(s)                               : 2 channels
  71. Channel layout                           : L R
  72. Sampling rate                            : 48.0 kHz
  73. Frame rate                               : 46.875 FPS (1024 SPF)
  74. Compression mode                         : Lossy
  75. Delay relative to video                  : 890 ms
  76. Stream size                              : 115 MiB (1%)
  77. Title                                    : 台配
  78. Language                                 : Chinese
  79. Default                                  : No
  80. Forced                                   : No
  81. Text #1
  82. ID                                       : 4
  83. Format                                   : PGS
  84. Muxing mode                              : zlib
  85. Codec ID                                 : S_HDMV/PGS
  86. Codec ID/Info                            : Picture based subtitle format used on BDs/HD-DVDs
  87. Duration                                 : 2 h 7 min
  88. Bit rate                                 : 46.8 kb/s
  89. Count of elements                        : 4858
  90. Stream size                              : 42.5 MiB (0%)
  91. Title                                    : 英文
  92. Language                                 : English
  93. Default                                  : Yes
  94. Forced                                   : No
  95. Text #2
  96. ID                                       : 5
  97. Format                                   : PGS
  98. Muxing mode                              : zlib
  99. Codec ID                                 : S_HDMV/PGS
  100. Codec ID/Info                            : Picture based subtitle format used on BDs/HD-DVDs
  101. Duration                                 : 2 h 7 min
  102. Bit rate                                 : 81.3 kb/s
  103. Count of elements                        : 5257
  104. Stream size                              : 74.2 MiB (0%)
  105. Title                                    : 简中特效
  106. Language                                 : Chinese
  107. Default                                  : No
  108. Forced                                   : No
  109. Menu
  110. 00:00:00.000                             : en:00:00:00.000
  111. 00:03:06.061                             : en:00:03:06.061
  112. 00:06:47.324                             : en:00:06:47.324
  113. 00:12:37.423                             : en:00:12:37.423
  114. 00:16:34.619                             : en:00:16:34.619
  115. 00:19:39.053                             : en:00:19:39.053
  116. 00:23:50.471                             : en:00:23:50.471
  117. 00:27:39.324                             : en:00:27:39.324
  118. 00:31:21.630                             : en:00:31:21.630
  119. 00:34:55.677                             : en:00:34:55.677
  120. 00:37:20.363                             : en:00:37:20.363
  121. 00:41:13.388                             : en:00:41:13.388
  122. 00:43:32.860                             : en:00:43:32.860
  123. 00:47:17.043                             : en:00:47:17.043
  124. 00:48:39.959                             : en:00:48:39.959
  125. 00:55:20.025                             : en:00:55:20.025
  126. 00:57:37.746                             : en:00:57:37.746
  127. 01:03:04.906                             : en:01:03:04.906
  128. 01:07:24.916                             : en:01:07:24.916
  129. 01:10:07.412                             : en:01:10:07.412
  130. 01:10:41.654                             : en:01:10:41.654
  131. 01:15:31.610                             : en:01:15:31.610
  132. 01:18:57.983                             : en:01:18:57.983
  133. 01:21:41.438                             : en:01:21:41.438
  134. 01:25:43.555                             : en:01:25:43.555





此处一般会放置磁力链或种子下载链接,不过此链接需要注册会员才能看到,点击“立即注册”
磁力链下载【下载链接仅对注册会员开放,登陆后可见】
BT9527电影天堂 1、BT9527电影天堂提供的BT文件均来源于互联网抓取,只供网友学习交流、技术提升使用。
2、我们遵守BitTorrent点对点协议原则,任何版权问题请联系原资源发布商,我们不处理任何版权纠纷,谢谢!如有争议请联系邮箱:BT9527#hotmail.com(#换成@)
3、如果您发现某页面或地址有错误,请联系站长邮箱BT9527#hotmail.com(#换成@),我们会尽快处理。您的热心是对BT9527电影天堂最大的支持。
4、本站建议去正规影院观看电影以支持电影行业发展。
最新回复 (0)

你可以在 登录 or 注册 后,对此帖发表评论!

返回
发新帖