极限网红[简繁字幕].Follow.Me.2020.UHD.Bluray.2160p.x265.HDR10/.DTS-HD.MA.5.1-MiniHD 25.08GB

版主小s 3月前 276

✔资源类型:BD-4K   ✔电影年份:2020   ✔电影地区:欧美   ✔电影分类:惊悚

◎译  名 极限网红 / 玩命直播(港) / 密弒直播(台) / 跟我来 / 跟着我 / 无处可逃 / No Escape
◎片  名 Follow Me
◎年  代 2020
◎产  地 美国
◎类  别 惊悚 / 恐怖
◎语  言 英语 / 俄语 Russian
◎上映日期 2020-07-11(德国幻想电影节) / 2020-09-18(美国)
◎IMDb链接 https://www.imdb.com/title/tt8160834/
◎豆瓣评分 6.0/10 (4541人评价)
◎豆瓣链接 https://movie.douban.com/subject/34889715/
◎片  长 92分钟
◎演  员 罗南·鲁宾斯坦 Ronen Rubinstein (id:1350633)
       霍兰·罗登 Holland Roden (id:1315264)
       丹泽尔·惠特克 Denzel Whitaker (id:1018096)
       金贝利·奎恩 Kimberly Quinn (id:1326643)
       基根·艾伦 Keegan Allen (id:1316484)

◎简  介
  一个社交媒体人物与他的朋友一起前往莫斯科,以获取他成功的VLOG的新内容。他们总是不断挑战极限,迎合不断增长的受众,他们进入了一个充满神秘,过度和危险的寒冷世界。当现实生活与社交媒体之间的界线变得模糊时,该组织必须为逃避和生存而战。
  1. ##### MediaInfo ######
  2. General
  3. Unique ID                                : 189707383773690670701673003121401453637 (0x8EB85027DA69C078D93A6FDC2D70DC45)
  4. Complete name                            : Follow.Me.2020.UHD.Bluray.2160p.x265.HDR10+.DTS-HD.MA.5.1-MiniHD.mkv
  5. Format                                   : Matroska
  6. Format version                           : Version 4
  7. File size                                : 25.1 GiB
  8. Duration                                 : 1 h 31 min
  9. Overall bit rate mode                    : Variable
  10. Overall bit rate                         : 39.1 Mb/s
  11. Movie name                               : Follow Me
  12. Encoded date                             : UTC 2021-02-28 02:23:19
  13. Writing application                      : mkvmerge v53.0.0 ('Fool's Gold') 64-bit
  14. Writing library                          : libebml v1.4.1 + libmatroska v1.6.2
  15. Cover                                    : Yes
  16. Attachments                              : cover.jpg
  17. Video
  18. ID                                       : 1
  19. Format                                   : HEVC
  20. Format/Info                              : High Efficiency Video Coding
  21. Format profile                           : Main 10@L5.1@High
  22. HDR format                               : SMPTE ST 2094 App 4, Version 1, HDR10+ Profile B compatible
  23. Codec ID                                 : V_MPEGH/ISO/HEVC
  24. Duration                                 : 1 h 31 min
  25. Bit rate                                 : 37.1 Mb/s
  26. Width                                    : 3 840 pixels
  27. Height                                   : 1 612 pixels
  28. Display aspect ratio                     : 2.40:1
  29. Frame rate mode                          : Constant
  30. Frame rate                               : 23.976 (24000/1001/53354) FPS
  31. Color space                              : YUV
  32. Chroma subsampling                       : 4:2:0 (Type 2)
  33. Bit depth                                : 10 bits
  34. Bits/(Pixel*Frame)                       : 0.250
  35. Stream size                              : 23.8 GiB (95%)
  36. Writing library                          : x265 3.4+33-606265ac7:[Windows][MSVC 1928][64 bit] 10bit
  37. Encoding settings                        : cpuid=533541111039 / frame-threads=5 / numa-pools=20,20 / wpp / pmode / no-pme / no-psnr / no-ssim / log-level=2 / input-csp=1 / input-res=3840x1612 / interlace=0 / total-frames=132168 / level-idc=51 / high-tier=1 / uhd-bd=0 / ref=6 / no-allow-non-conformance / repeat-headers / annexb / aud / hrd / info / hash=0 / no-temporal-layers / no-open-gop / min-keyint=1 / keyint=250 / gop-lookahead=0 / bframes=6 / b-adapt=2 / b-pyramid / bframe-bias=0 / rc-lookahead=60 / lookahead-slices=0 / NTMzNTQ=uuDQuD2mJt9fsCf / scenecut=40 / hist-scenecut=0 / radl=0 / no-splice / no-intra-refresh / ctu=64 / min-cu-size=8 / no-rect / no-amp / max-tu-size=32 / tu-inter-depth=4 / tu-intra-depth=4 / limit-tu=0 / rdoq-level=2 / dynamic-rd=0.00 / no-ssim-rd / signhide / no-tskip / nr-intra=0 / nr-inter=0 / no-constrained-intra / strong-intra-smoothing / max-merge=5 / limit-refs=0 / no-limit-modes / me=3 / subme=7 / merange=57 / temporal-mvp / no-frame-dup / no-hme / weightp / weightb / no-analyze-src-pics / deblock=-3:-3 / no-sao / no-sao-non-deblock / rd=4 / selective-sao=0 / no-early-skip / no-rskip / no-fast-intra / no-tskip-fast / no-cu-lossless / b-intra / no-splitrd-skip / rdpenalty=0 / psy-rd=1.25 / psy-rdoq=1.00 / no-rd-refine / no-lossless / cbqpoffs=0 / crqpoffs=0 / rc=crf / crf=18.0 / qcomp=0.60 / qpstep=4 / stats-write=0 / stats-read=0 / vbv-maxrate=160000 / vbv-bufsize=160000 / vbv-init=0.9 / min-vbv-fullness=50.0 / max-vbv-fullness=80.0 / crf-max=0.0 / crf-min=0.0 / ipratio=1.30 / pbratio=1.20 / aq-mode=1 / aq-strength=1.00 / no-cutree / zone-count=0 / no-strict-cbr / qg-size=8 / no-rc-grain / qpmax=69 / qpmin=0 / no-const-vbv / sar=0 / overscan=0 / videoformat=5 / range=0 / colorprim=9 / transfer=16 / colormatrix=9 / chromaloc=1 / chromaloc-top=2 / chromaloc-bottom=2 / display-window=0 / master-display=G(13250,34500)B(7500,3000)R(34000,16000)WP(15635,16450)L(10000000,1) / cll=2948,329 / min-luma=0 / max-luma=1023 / log2-max-poc-lsb=8 / vui-timing-info / vui-hrd-info / slices=1 / no-opt-qp-pps / no-opt-ref-list-length-pps / no-multi-pass-opt-rps / scenecut-bias=0.05 / hist-threshold=0.03 / no-opt-cu-delta-qp / no-aq-motion / hdr10 / hdr10-opt / no-dhdr10-opt / no-idr-recovery-sei / analysis-reuse-level=0 / analysis-save-reuse-level=0 / analysis-load-reuse-level=0 / scale-factor=0 / refine-intra=0 / refine-inter=0 / refine-mv=1 / refine-ctu-distortion=0 / no-limit-sao / ctu-info=0 / no-lowpass-dct / refine-analysis-type=0 / copy-pic=1 / max-ausize-factor=1.0 / no-dynamic-refine / no-single-sei / no-hevc-aq / no-svt / no-field / qp-adaptation-range=1.00 / scenecut-aware-qp=0conformance-window-offsets / right=0 / bottom=0 / NTMzNTQ= / decoder-max-rate=0 / no-vbv-live-multi-pass
  38. Default                                  : Yes
  39. Forced                                   : No
  40. Color range                              : Limited
  41. Color primaries                          : BT.2020
  42. Transfer characteristics                 : PQ
  43. Matrix coefficients                      : BT.2020 non-constant
  44. Mastering display color primaries        : Display P3
  45. Mastering display luminance              : min: 0.0001 cd/m2, max: 1000 cd/m2
  46. Maximum Content Light Level              : 2948 cd/m2
  47. Maximum Frame-Average Light Level        : 329 cd/m2
  48. Audio
  49. ID                                       : 2
  50. ID in the original source medium         : 4353 (0x1101)
  51. Format                                   : DTS XLL
  52. Format/Info                              : Digital Theater Systems
  53. Commercial name                          : DTS-HD Master Audio
  54. Codec ID                                 : A_DTS
  55. Duration                                 : 1 h 31 min
  56. Bit rate mode                            : Variable
  57. Bit rate                                 : 1 923 kb/s
  58. Channel(s)                               : 6 channels
  59. Channel layout                           : C L R Ls Rs LFE
  60. Sampling rate                            : 48.0 kHz
  61. Frame rate                               : 93.750 FPS (512 SPF)
  62. Bit depth                                : 16 bits
  63. Compression mode                         : Lossless
  64. Stream size                              : 1.23 GiB (5%)
  65. Language                                 : English
  66. Default                                  : Yes
  67. Forced                                   : No
  68. Original source medium                   : Blu-ray
  69. Text #1
  70. ID                                       : 3
  71. ID in the original source medium         : 4768 (0x12A0)
  72. Format                                   : PGS
  73. Muxing mode                              : zlib
  74. Codec ID                                 : S_HDMV/PGS
  75. Codec ID/Info                            : Picture based subtitle format used on BDs/HD-DVDs
  76. Duration                                 : 1 h 26 min
  77. Bit rate                                 : 40.1 kb/s
  78. Count of elements                        : 2764
  79. Stream size                              : 24.9 MiB (0%)
  80. Language                                 : German
  81. Default                                  : No
  82. Forced                                   : No
  83. Original source medium                   : Blu-ray
  84. Text #2
  85. ID                                       : 4
  86. ID in the original source medium         : 4769 (0x12A1)
  87. Format                                   : PGS
  88. Muxing mode                              : zlib
  89. Codec ID                                 : S_HDMV/PGS
  90. Codec ID/Info                            : Picture based subtitle format used on BDs/HD-DVDs
  91. Duration                                 : 1 h 23 min
  92. Bit rate                                 : 142 b/s
  93. Count of elements                        : 8
  94. Stream size                              : 87.2 KiB (0%)
  95. Language                                 : German
  96. Default                                  : No
  97. Forced                                   : No
  98. Original source medium                   : Blu-ray
  99. Text #3
  100. ID                                       : 5
  101. ID in the original source medium         : 4770 (0x12A2)
  102. Format                                   : PGS
  103. Muxing mode                              : zlib
  104. Codec ID                                 : S_HDMV/PGS
  105. Codec ID/Info                            : Picture based subtitle format used on BDs/HD-DVDs
  106. Duration                                 : 1 h 26 min
  107. Bit rate                                 : 27.6 kb/s
  108. Count of elements                        : 2576
  109. Stream size                              : 17.1 MiB (0%)
  110. Title                                    : CHS
  111. Language                                 : Chinese
  112. Default                                  : Yes
  113. Forced                                   : No
  114. Original source medium                   : Blu-ray
  115. Text #4
  116. ID                                       : 6
  117. ID in the original source medium         : 4771 (0x12A3)
  118. Format                                   : PGS
  119. Muxing mode                              : zlib
  120. Codec ID                                 : S_HDMV/PGS
  121. Codec ID/Info                            : Picture based subtitle format used on BDs/HD-DVDs
  122. Duration                                 : 1 h 26 min
  123. Bit rate                                 : 28.6 kb/s
  124. Count of elements                        : 2576
  125. Stream size                              : 17.7 MiB (0%)
  126. Title                                    : CHT
  127. Language                                 : Chinese
  128. Default                                  : No
  129. Forced                                   : No
  130. Original source medium                   : Blu-ray
  131. Menu
  132. 00:00:00.000                             : en:Chapter 01
  133. 00:07:55.308                             : en:Chapter 02
  134. 00:16:40.457                             : en:Chapter 03
  135. 00:26:28.378                             : en:Chapter 04
  136. 00:32:06.716                             : en:Chapter 05
  137. 00:41:24.148                             : en:Chapter 06
  138. 00:48:34.661                             : en:Chapter 07
  139. 00:55:25.155                             : en:Chapter 08
  140. 01:02:23.990                             : en:Chapter 09
  141. 01:09:59.403                             : en:Chapter 10
  142. 01:16:06.853                             : en:Chapter 11
  143. 01:23:16.741                             : en:Chapter 12



此处一般会放置磁力链或种子下载链接,不过此链接需要注册会员才能看到,点击“立即注册”
磁力链下载【下载链接仅对注册会员开放,登陆后可见】
BT9527电影天堂 1、BT9527电影天堂提供的BT文件均来源于互联网抓取,只供网友学习交流、技术提升使用。
2、我们遵守BitTorrent点对点协议原则,任何版权问题请联系原资源发布商,我们不处理任何版权纠纷,谢谢!如有争议请联系邮箱:BT9527#hotmail.com(#换成@)
3、如果您发现某页面或地址有错误,请联系站长邮箱BT9527#hotmail.com(#换成@),我们会尽快处理。您的热心是对BT9527电影天堂最大的支持。
4、本站建议去正规影院观看电影以支持电影行业发展。
最新回复 (0)

你可以在 登录 or 注册 后,对此帖发表评论!

返回
发新帖