BJ单身日记[杜比视界版本][简繁英字幕].Bridget.Jones's.Diary.2001.UHD.BluRay.2160p.x265.DV.HDR.DTS-HD.MA5.1-MiniHD 22.69GB

版主小s 18天前 93

✔资源类型:BD-4K   ✔电影年份:更 早   ✔电影地区:欧美   ✔电影分类:喜剧

◎译  名 BJ单身日记 / 布雷吉特·琼斯的日记
◎片  名 Bridget Jones's Diary
◎年  代 2001
◎产  地 英国 / 法国 / 美国 / 爱尔兰
◎类  别 喜剧 / 爱情
◎语  言 英语
◎上映日期 2001-04-04(英国)
◎IMDb链接 https://www.imdb.com/title/tt0243155/
◎豆瓣评分 7.5/10 (207593人评价)
◎豆瓣链接 https://movie.douban.com/subject/1304585/
◎片  长 97分钟
◎导  演 莎伦·马奎尔 Sharon Maguire (id:1290729)
◎编  剧 理查德·柯蒂斯 Richard Curtis (id:1040673)
       安德鲁·戴维斯 Andrew Davies (id:1050129)
       海伦·费尔丁 Helen Fielding (id:1005514)
◎演  员 蕾妮·齐薇格 Renée Zellweger (id:1054418)
       科林·费尔斯 Colin Firth (id:1031223)
       休·格兰特 Hugh Grant (id:1003493)
       吉姆·布劳德本特 Jim Broadbent (id:1019049)
       雪莉·亨德森 Shirley Henderson (id:1036426)
       莎莉·菲利普斯 Sally Phillips (id:1134765)
       詹姆斯·卡利斯 James Callis (id:1017992)
       艾伯丝·戴维兹 Embeth Davidtz (id:1022626)
       莎拉·亚历山大 Sarah Alexander (id:1060641)
       杰玛·琼斯 Gemma Jones (id:1036553)
       多莉·韦尔斯 Dolly Wells (id:1328518)
       霍纳尔·布莱克曼 Honor Blackman (id:1036548)
       西莉亚·伊姆里 Celia Imrie (id:1110391)
       克里斯平 伯汉姆-卡特 Crispin Bonham-Carter (id:1061420)
       詹姆斯·福克纳 James Faulkner (id:1012548)
       克莱尔·斯金纳 Claire Skinner (id:1327830)
       萨曼·拉什代 Salman Rushdie (id:1018385)
       杰弗里·阿切尔 Jeffrey Archer (id:1057369)
       费莉西蒂·蒙塔古 Felicity Montagu (id:1121542)
       朱利安·巴恩斯 Julian Barnes (id:1067320)
       埃玛·阿莫斯 Emma Amos (id:1056335)
       保罗·布洛克 Paul Brooke (id:1076545)
       Lisa Barbuscia Lisa Barbuscia (id:1061927)
       内尔·皮尔森 Neil Pearson (id:1131193)
       帕特里克·巴罗 Patrick Barlow (id:1032666)
        Christopher Kouros (id:1219595)
        Stefan Booth (id:1221787)
       Paul Ross Paul Ross (id:1014467)
       Ben Peyton Ben Peyton (id:1126971)
       查米恩·梅 Charmian May (id:1119273)
       Ben Illis Ben Illis (id:1103849)
       Christine Hewett Christine Hewett (id:1101416)
       唐纳德·道格拉斯 Donald Douglas (id:1436982)
       盖瑞斯·马克 Gareth Marks (id:1436980)
       马克·林伍德 Mark Lingwood (id:1436978)
       蒂姆·贝文 Tim Bevan (id:1278562)
       海伦·费尔丁 Helen Fielding (id:1005514)
       埃里克·菲尔纳 Eric Fellner (id:1283560)
       乔纳森·卡文迪许 Jonathan Cavendish (id:1280329)
       帕特里克·道尔 Patrick Doyle (id:1000556)
       斯图尔特·瑞伯 Stuart Dryburgh (id:1002952)
       马丁·沃尔什 Martin Walsh (id:1166278)
       杰玛·杰克逊 Gemma Jackson (id:1287477)
       大卫·沃伦 David Warren (id:1300458)
       Paul Cross Paul Cross (id:1281532)
       格拉汉姆·约翰斯通 Graham Johnston (id:1287830)
       Vanessa White Vanessa White (id:1300819)
       Marc Wolff Marc Wolff (id:1161955)
       西拉·韦尔 Cilla Ware (id:1300433)
       约翰·霍格沃德 Jan Hogevold (id:1101499)
       皮特·汉森 Pete Hanson (id:1102387)
       Alex Hope Alex Hope (id:1286891)
       弗雷泽·丘吉尔 Frazer Churchill (id:1034294)
       Paul Riddle Paul Riddle (id:1295646)
       加勒特·弘 Garrett Honn (id:1026619)
       马克·尼尔姆斯 Mark Nelmes (id:1293026)
       Merrin Jensen Merrin Jensen (id:1287700)
       加文·格雷厄姆 Gavin Graham (id:1096772)
       Robin Aristorenas Robin Aristorenas (id:1277388)

◎简  介
  布里奇特?琼斯(蕾妮?齐维格 饰)是一个32岁的单身女子。她的工作及生活都是平淡无奇的,她唯一想得到一份真挚的爱情,就算有一众好友在身边及时安慰,布里奇特还是没有好过点。新的一年里,她要过一种新的生活。她选择用日记把自己生活里的点点滴滴都记录下来,她开始变得喜悦起来。                                    
                                这时在她与风流倜傥的上司丹尼尔?克里弗(休?格兰特 饰)产生了感情,丹尼尔原来早与女友订婚,使布里奇特伤心不已。高傲却真实的马克?达西(科林?菲尔斯 饰)也表示对她的爱慕之情。布里奇特周旋在两个男人之间,不知如何选择。

◎获奖情况 (共3项)
  第74届奥斯卡金像奖 (2002)
  最佳女主角(提名)
   └──蕾妮·齐薇格 (id:1054418)

  第59届金球奖 (2002)
  电影类 最佳音乐/喜剧片(提名)
  电影类 音乐/喜剧片最佳女主角(提名)
   └──蕾妮·齐薇格 (id:1054418)

  1. ##### MediaInfo ######
  2. General
  3. Unique ID                                : 48114607904239414255473337413838817955 (0x2432895254C1817D176D499ECD1FCAA3)
  4. Complete name                            : Bridget.Jones's.Diary.2001.UHD.BluRay.2160p.x265.DV.HDR.DTS-HD.MA5.1-MiniHD.mkv
  5. Format                                   : Matroska
  6. Format version                           : Version 4
  7. File size                                : 22.7 GiB
  8. Duration                                 : 1 h 36 min
  9. Overall bit rate mode                    : Variable
  10. Overall bit rate                         : 33.5 Mb/s
  11. Movie name                               : Bridget Jones's Diary 2001 UHD BluRay 2160p - FRDS
  12. Encoded date                             : UTC 2022-03-18 11:52:51
  13. Writing application                      : mkvmerge v66.0.0 ('Josie') 64-bit
  14. Writing library                          : libebml v1.4.2 + libmatroska v1.6.4
  15. Cover                                    : Yes
  16. Attachments                              : cover.jpg
  17. Video
  18. ID                                       : 1
  19. Format                                   : HEVC
  20. Format/Info                              : High Efficiency Video Coding
  21. Format profile                           : Main 10@L5.1@High
  22. HDR format                               : SMPTE ST 2086, HDR10 compatible
  23. Codec ID                                 : V_MPEGH/ISO/HEVC
  24. Duration                                 : 1 h 36 min
  25. Bit rate                                 : 30.8 Mb/s
  26. Width                                    : 3 840 pixels
  27. Height                                   : 1 608 pixels
  28. Display aspect ratio                     : 2.40:1
  29. Frame rate mode                          : Constant
  30. Frame rate                               : 24.000 FPS
  31. Color space                              : YUV
  32. Chroma subsampling                       : 4:2:0
  33. Bit depth                                : 10 bits
  34. Bits/(Pixel*Frame)                       : 0.208
  35. Stream size                              : 20.9 GiB (92%)
  36. Writing library                          : x265 3.3+3-g8f8e332f1+29:[Windows][#Erg`Djh#][@Yuuki] made by @Dongfangbubai
  37. Encoding settings                        : rc=crf / crf=19.0000 / qcomp=0.70 / qpstep=4 / stats-write=0 / stats-read=0 / vbv-maxrate=160000 / vbv-bufsize=160000 / vbv-init=0.9 / crf-max=0.0 / crf-min=0.0 / no-lossless / no-cu-lossless / aq-mode=3 / aq-strength=0.80 / cbqpoffs=-3 / crqpoffs=-3 / ipratio=1.40 / pbratio=1.30 / psy-rd=2.00 / psy-rdoq=3.00 / deblock=-1:-1 / ref=5 / limit-refs=0 / no-limit-modes / bframes=8 / b-adapt=2 / bframe-bias=0 / b-pyramid / b-intra / weightp / weightb / min-keyint=24 / max-keyint=240 / rc-lookahead=60 / gop-lookahead=0 / NTMzNTQ=uuDQuD2mJt9fsCf / scenecut=40 / hist-scenecut=0 / radl=0 / max-cu-size=32 / min-cu-size=8 / me=3 / subme=4 / merange=25 / rdoq-level=2 / rd=4 / rdpenalty=1 / dynamic-rd=0.00 / no-rd-refine / ----- / no-cutree / no-sao / rect / no-amp / no-open-gop / wpp / pmode / pme / no-psnr / no-ssim / nr-intra=0 / nr-inter=0 / no-constrained-intra / no-strong-intra-smoothing / max-tu-size=32 / tu-inter-depth=2 / tu-intra-depth=2 / limit-tu=0 / qg-size=32 / qpmax=69 / qpmin=0 / ----- / cpuid=533541176575 / frame-threads=6 / numa-pools=54,- / log-level=2 / input-csp=1 / input-res=3840x1608 / interlace=0 / level-idc=0 / high-tier=1 / uhd-bd=0 / no-allow-non-conformance / repeat-headers / aud / hrd / info / hash=0 / no-temporal-layers / lookahead-slices=0 / no-splice / no-intra-refresh / no-ssim-rd / signhide / no-tskip / max-merge=3 / temporal-mvp / no-frame-dup / no-hme / no-analyze-src-pics / no-sao-non-deblock / selective-sao=0 / no-early-skip / no-rskip / no-fast-intra / no-tskip-fast / no-splitrd-skip / zone-count=0 / no-strict-cbr / no-rc-grain / no-const-vbv / sar=0 / overscan=0 / videoformat=5 / range=0 / colorprim=9 / transfer=16 / colormatrix=9 / chromaloc=0 / display-window=0 / master-display=G(13250,34500)B(7500,3000)R(34000,16000)WP(15635,16450)L(10000000,1) / cll=0,0 / min-luma=0 / max-luma=1023 / log2-max-poc-lsb=8 / vui-timing-info / vui-hrd-info / slices=1 / no-opt-qp-pps / no-opt-ref-list-length-pps / no-multi-pass-opt-rps / scenecut-bias=0.05 / hist-threshold=0.01 / no-opt-cu-delta-qp / no-aq-motion / hdr10 / hdr10-opt / no-dhdr10-opt / no-idr-recovery-sei / analysis-reuse-level=0 / analysis-save-reuse-level=0 / analysis-load-reuse-level=0 / scale-factor=0 / refine-intra=0 / refine-inter=0 / refine-mv=1 / refine-ctu-distortion=0 / no-limit-sao / ctu-info=0 / no-lowpass-dct / refine-analysis-type=0 / copy-pic=1 / max-ausize-factor=1.0 / no-dynamic-refine / no-single-sei / no-hevc-aq / no-svt / no-field / qp-adaptation-range=1.00 / no-scenecut-aware-qpconformance-window-offsets / right=0 / bottom=0 / NTMzNTQ=
  38. Default                                  : Yes
  39. Forced                                   : No
  40. Color range                              : Limited
  41. Color primaries                          : BT.2020
  42. Transfer characteristics                 : PQ
  43. Matrix coefficients                      : BT.2020 non-constant
  44. Mastering display color primaries        : Display P3
  45. Mastering display luminance              : min: 0.0001 cd/m2, max: 1000 cd/m2
  46. Audio #1
  47. ID                                       : 2
  48. ID in the original source medium         : 4353 (0x1101)
  49. Format                                   : DTS XLL
  50. Format/Info                              : Digital Theater Systems
  51. Commercial name                          : DTS-HD Master Audio
  52. Codec ID                                 : A_DTS
  53. Duration                                 : 1 h 36 min
  54. Bit rate mode                            : Variable
  55. Bit rate                                 : 2 087 kb/s
  56. Channel(s)                               : 6 channels
  57. Channel layout                           : C L R Ls Rs LFE
  58. Sampling rate                            : 48.0 kHz
  59. Frame rate                               : 93.750 FPS (512 SPF)
  60. Bit depth                                : 24 bits
  61. Compression mode                         : Lossless
  62. Stream size                              : 1.41 GiB (6%)
  63. Language                                 : English
  64. Default                                  : Yes
  65. Forced                                   : No
  66. Original source medium                   : Blu-ray
  67. Audio #2
  68. ID                                       : 3
  69. Format                                   : FLAC
  70. Format/Info                              : Free Lossless Audio Codec
  71. Codec ID                                 : A_FLAC
  72. Duration                                 : 1 h 36 min
  73. Bit rate mode                            : Variable
  74. Bit rate                                 : 448 kb/s
  75. Channel(s)                               : 2 channels
  76. Channel layout                           : L R
  77. Sampling rate                            : 48.0 kHz
  78. Frame rate                               : 11.719 FPS (4096 SPF)
  79. Bit depth                                : 16 bits
  80. Compression mode                         : Lossless
  81. Stream size                              : 311 MiB (1%)
  82. Title                                    : Commentary with Director Sharon Maguire
  83. Writing library                          : libFLAC 1.3.3 (UTC 2019-08-04)
  84. Language                                 : English
  85. Default                                  : No
  86. Forced                                   : No
  87. Text #1
  88. ID                                       : 4
  89. ID in the original source medium         : 4768 (0x12A0)
  90. Format                                   : PGS
  91. Muxing mode                              : zlib
  92. Codec ID                                 : S_HDMV/PGS
  93. Codec ID/Info                            : Picture based subtitle format used on BDs/HD-DVDs
  94. Duration                                 : 40 min 16 s
  95. Bit rate                                 : 394 b/s
  96. Count of elements                        : 14
  97. Stream size                              : 116 KiB (0%)
  98. Language                                 : French
  99. Default                                  : No
  100. Forced                                   : No
  101. Original source medium                   : Blu-ray
  102. Text #2
  103. ID                                       : 5
  104. ID in the original source medium         : 4769 (0x12A1)
  105. Format                                   : PGS
  106. Muxing mode                              : zlib
  107. Codec ID                                 : S_HDMV/PGS
  108. Codec ID/Info                            : Picture based subtitle format used on BDs/HD-DVDs
  109. Duration                                 : 1 h 35 min
  110. Bit rate                                 : 32.3 kb/s
  111. Count of elements                        : 2356
  112. Stream size                              : 21.9 MiB (0%)
  113. Language                                 : French
  114. Default                                  : No
  115. Forced                                   : No
  116. Original source medium                   : Blu-ray
  117. Text #3
  118. ID                                       : 6
  119. ID in the original source medium         : 4770 (0x12A2)
  120. Format                                   : PGS
  121. Muxing mode                              : zlib
  122. Codec ID                                 : S_HDMV/PGS
  123. Codec ID/Info                            : Picture based subtitle format used on BDs/HD-DVDs
  124. Duration                                 : 1 h 36 min
  125. Bit rate                                 : 35.8 kb/s
  126. Count of elements                        : 3438
  127. Stream size                              : 24.8 MiB (0%)
  128. Language                                 : French
  129. Default                                  : No
  130. Forced                                   : No
  131. Original source medium                   : Blu-ray
  132. Text #4
  133. ID                                       : 7
  134. ID in the original source medium         : 4771 (0x12A3)
  135. Format                                   : PGS
  136. Muxing mode                              : zlib
  137. Codec ID                                 : S_HDMV/PGS
  138. Codec ID/Info                            : Picture based subtitle format used on BDs/HD-DVDs
  139. Duration                                 : 1 h 36 min
  140. Bit rate                                 : 36.2 kb/s
  141. Count of elements                        : 2316
  142. Stream size                              : 25.0 MiB (0%)
  143. Language                                 : French
  144. Default                                  : No
  145. Forced                                   : No
  146. Original source medium                   : Blu-ray
  147. Text #5
  148. ID                                       : 8
  149. ID in the original source medium         : 4772 (0x12A4)
  150. Format                                   : PGS
  151. Muxing mode                              : zlib
  152. Codec ID                                 : S_HDMV/PGS
  153. Codec ID/Info                            : Picture based subtitle format used on BDs/HD-DVDs
  154. Duration                                 : 1 h 35 min
  155. Bit rate                                 : 49.6 kb/s
  156. Count of elements                        : 2417
  157. Stream size                              : 34.0 MiB (0%)
  158. Language                                 : English
  159. Default                                  : No
  160. Forced                                   : No
  161. Original source medium                   : Blu-ray
  162. Text #6
  163. ID                                       : 9
  164. ID in the original source medium         : 4773 (0x12A5)
  165. Format                                   : PGS
  166. Muxing mode                              : zlib
  167. Codec ID                                 : S_HDMV/PGS
  168. Codec ID/Info                            : Picture based subtitle format used on BDs/HD-DVDs
  169. Duration                                 : 1 h 33 min
  170. Bit rate                                 : 35.3 kb/s
  171. Count of elements                        : 2339
  172. Stream size                              : 23.5 MiB (0%)
  173. Title                                    : CHS
  174. Language                                 : Chinese
  175. Default                                  : No
  176. Forced                                   : No
  177. Original source medium                   : Blu-ray
  178. Text #7
  179. ID                                       : 10
  180. ID in the original source medium         : 4774 (0x12A6)
  181. Format                                   : PGS
  182. Muxing mode                              : zlib
  183. Codec ID                                 : S_HDMV/PGS
  184. Codec ID/Info                            : Picture based subtitle format used on BDs/HD-DVDs
  185. Duration                                 : 1 h 33 min
  186. Bit rate                                 : 36.0 kb/s
  187. Count of elements                        : 2339
  188. Stream size                              : 24.0 MiB (0%)
  189. Title                                    : CHT
  190. Language                                 : Chinese
  191. Default                                  : No
  192. Forced                                   : No
  193. Original source medium                   : Blu-ray
  194. Text #8
  195. ID                                       : 11
  196. ID in the original source medium         : 4775 (0x12A7)
  197. Format                                   : PGS
  198. Muxing mode                              : zlib
  199. Codec ID                                 : S_HDMV/PGS
  200. Codec ID/Info                            : Picture based subtitle format used on BDs/HD-DVDs
  201. Duration                                 : 1 h 33 min
  202. Bit rate                                 : 61.7 kb/s
  203. Count of elements                        : 2360
  204. Stream size                              : 41.1 MiB (0%)
  205. Title                                    : Chs&Eng
  206. Language                                 : Chinese
  207. Default                                  : Yes
  208. Forced                                   : No
  209. Original source medium                   : Blu-ray
  210. Text #9
  211. ID                                       : 12
  212. ID in the original source medium         : 4776 (0x12A8)
  213. Format                                   : PGS
  214. Muxing mode                              : zlib
  215. Codec ID                                 : S_HDMV/PGS
  216. Codec ID/Info                            : Picture based subtitle format used on BDs/HD-DVDs
  217. Duration                                 : 1 h 33 min
  218. Bit rate                                 : 62.4 kb/s
  219. Count of elements                        : 2360
  220. Stream size                              : 41.6 MiB (0%)
  221. Title                                    : Cht&Eng
  222. Language                                 : Chinese
  223. Default                                  : Yes
  224. Forced                                   : No
  225. Original source medium                   : Blu-ray
  226. Menu
  227. 00:00:00.000                             : en:Chapter 01
  228. 00:07:25.000                             : en:Chapter 02
  229. 00:16:11.375                             : en:Chapter 03
  230. 00:23:27.540                             : en:Chapter 04
  231. 00:31:25.125                             : en:Chapter 05
  232. 00:40:20.125                             : en:Chapter 06
  233. 00:48:57.625                             : en:Chapter 07
  234. 00:57:03.875                             : en:Chapter 08
  235. 01:04:00.333                             : en:Chapter 09
  236. 01:13:57.500                             : en:Chapter 10
  237. 01:23:25.041                             : en:Chapter 11
  238. 01:32:03.750                             : en:Chapter 12



此处一般会放置磁力链或种子下载链接,不过此链接需要注册会员才能看到,点击“立即注册”
磁力链下载【下载链接仅对注册会员开放,登陆后可见】
BT9527电影天堂 1、BT9527电影天堂提供的BT文件均来源于互联网抓取,只供网友学习交流、技术提升使用。
2、我们遵守BitTorrent点对点协议原则,任何版权问题请联系原资源发布商,我们不处理任何版权纠纷,谢谢!如有争议请联系邮箱:BT9527#hotmail.com(#换成@)
3、如果您发现某页面或地址有错误,请联系站长邮箱BT9527#hotmail.com(#换成@),我们会尽快处理。您的热心是对BT9527电影天堂最大的支持。
4、本站建议去正规影院观看电影以支持电影行业发展。
最新回复 (0)

你可以在 登录 or 注册 后,对此帖发表评论!

返回
发新帖