四十七浪人[简繁英字幕].47.Ronin.2013.UHD.BluRay.2160p.x265.HDR.DTS-X7.1-MiniHD 22.64GB

版主小s 14天前 55

✔资源类型:BD-4K   ✔电影年份:2013   ✔电影地区:欧美   ✔电影分类:剧情

◎译  名 四十七浪人 / 浪人四十七 / 浪魂 47(港)
◎片  名 47 Ronin
◎年  代 2013
◎产  地 美国
◎类  别 剧情 / 动作 / 奇幻
◎语  言 英语 / 日语
◎上映日期 2013-12-06(日本) / 2013-12-25(美国)
◎IMDb链接 https://www.imdb.com/title/tt1335975/
◎豆瓣评分 5.7/10 (16713人评价)
◎豆瓣链接 https://movie.douban.com/subject/3326730/
◎片  长 119分钟
◎导  演 卡尔·瑞奇 Carl Rinsch (id:1331891)
◎编  剧 卡尔·瑞奇 Carl Rinsch (id:1331891)
       霍辛·阿米尼 Hossein Amini (id:1277162)
       克里斯·摩根 Chris Morgan (id:1347624)
◎演  员 基努·里维斯 Keanu Reeves (id:1008070)
       真田广之 Hiroyuki Sanada (id:1027879)
       柴崎幸 Kou Shibasaki (id:1141865)
       浅野忠信 Tadanobu Asano (id:1036630)
       田中泯 Min Tanaka (id:1298890)
       赤西仁 Jin Akanishi (id:1010762)
       羽田正义 Masayoshi Haneda (id:1340067)
       中岛书 Sh? Nakajima (id:1389589)
       田川洋行 Cary-Hiroyuki Tagawa (id:1149250)
       尼尔·芬格尔顿 Neil Fingleton (id:1242769)
       菊地凛子 Rinko Kikuchi (id:1014006)
       国元夏希 Natsuki Kunimoto (id:1423286)
       伊川东吾 Togo Igawa (id:1027483)
       塔洛·艾什达 Tanroh Ishida (id:1354895)
       出合正幸 Masayuki Deai (id:1008922)
       约里克·范·韦杰宁根 Yorick van Wageningen (id:1000669)
       梶冈润一 Junichi Kajioka (id:1233386)
       克莱德·草津 Clyde Kusatsu (id:1103253)
       安部春香 Haruka Abe (id:1253645)
       小家山晃 Akira Koieyama (id:1318158)
       藤本正史 Masashi Fujimoto (id:1196734)
       渡边戈登 Gedde Watanabe (id:1162629)
       瑞克·格内斯特 Rick Genest (id:1331845)
       罗恩·博蒂塔 Ron Bottitta (id:1172334)
       维多利亚·格蕾丝 Victoria Grace (id:1438057)
       Raiden Integra Raiden Integra (id:1346037)
       李镇男 Aaron Lee (id:1384221)
       斯蒂芬·斯坦顿 Stephen Stanton (id:1336403)
       希·伍辛 Hiu Woong-Sin (id:1371114)
       彼得·奥索·斯内尔 Peter Oso Snell (id:1338068)
       安德鲁·西尔弗 Andrew Silver (id:1338067)
       扬·鲁洛尔夫斯 Jan Roelfs (id:1295893)
       莱斯利·汤姆金斯 Leslie Tomkins (id:1299377)
       大卫·R·艾里斯 David R. Ellis (id:1050082)
       张鹏 Peng Zhang (id:1307141)
       杨亮 Liang Yang (id:1398252)
       张鹏 Peng Zhang (id:1307141)

◎简  介
  古老的日本进入江户时代,德川幕府闭关锁国,维持着与世隔绝的和平和将军家的绝对统治。五代将军纲吉(田川洋行 饰)在吉良上野介(浅野忠信 饰)的陪同下造访浅野内匠头(田中泯 饰)所领导的播州赤穗藩。吉良阴险狭隘,野心勃勃,他利用妖女美月(菊地凛子 饰)迷惑浅野藩主,令其对吉良挥刀相向。震怒的将军责令浅野切腹,并严禁赤穗藩的家老大石内藏助(真田广之 饰)挟私报复。高傲的武士们一瞬间沦为浪人,而藩主自由收养的混血儿魁(基努·李维斯 Keanu Reeves 饰)更遭到不公的对待。经过一段时间的忍辱负重,大石将四十六位忠勇的赤穗藩武士集结麾下,暗中展开针对吉良的复仇。他辗转找到了魁,自幼爱慕藩主女儿美伽(柴崎幸 饰)的魁,为了防止心上人被吉良玷污,选择加入了复仇集团。                                    
                                四十七浪人的经典故事,以别样的形式呈现出来……

◎获奖情况 (共1项)
  第61届美国音效剪辑协会奖 (2014)
  金卷轴奖 最佳配乐剪辑(提名)

  1. ##### MediaInfo ######
  2. General
  3. Unique ID                                : 320118732523961576964910197317497075499 (0xF0D4A011DF755C37F4DCFE3CDE7D372B)
  4. Complete name                            : 47.Ronin.2013.UHD.BluRay.2160p.x265.HDR.DTS-X7.1-MiniHD.mkv
  5. Format                                   : Matroska
  6. Format version                           : Version 4
  7. File size                                : 22.6 GiB
  8. Duration                                 : 1 h 58 min
  9. Overall bit rate mode                    : Variable
  10. Overall bit rate                         : 27.3 Mb/s
  11. Movie name                               : 47 Ronin 2013 UHD BluRay 2160p - FRDS
  12. Encoded date                             : UTC 2022-03-04 14:50:26
  13. Writing application                      : mkvmerge v65.0.0 ('Too Much') 64-bit
  14. Writing library                          : libebml v1.4.2 + libmatroska v1.6.4
  15. Cover                                    : Yes
  16. Attachments                              : cover.jpg / cover.jpg
  17. Video
  18. ID                                       : 1
  19. Format                                   : HEVC
  20. Format/Info                              : High Efficiency Video Coding
  21. Format profile                           : Main 10@L5.1@High
  22. HDR format                               : SMPTE ST 2086, HDR10 compatible
  23. Codec ID                                 : V_MPEGH/ISO/HEVC
  24. Duration                                 : 1 h 58 min
  25. Bit rate                                 : 20.7 Mb/s
  26. Width                                    : 3 840 pixels
  27. Height                                   : 1 600 pixels
  28. Display aspect ratio                     : 2.40:1
  29. Frame rate mode                          : Constant
  30. Frame rate                               : 23.976 (24000/1001/53354) FPS
  31. Color space                              : YUV
  32. Chroma subsampling                       : 4:2:0
  33. Bit depth                                : 10 bits
  34. Bits/(Pixel*Frame)                       : 0.141
  35. Stream size                              : 17.2 GiB (76%)
  36. Writing library                          : x265 3.2+7-gb291a1c95+26:[Windows][#Erg`Djh#][@Yuuki] made by @Dongfangbubai
  37. Encoding settings                        : rc=crf / crf=18.0000 / qcomp=0.70 / qpstep=4 / stats-write=0 / stats-read=0 / vbv-maxrate=160000 / vbv-bufsize=160000 / vbv-init=0.9 / crf-max=0.0 / crf-min=0.0 / no-lossless / no-cu-lossless / aq-mode=3 / aq-strength=0.80 / cbqpoffs=-3 / crqpoffs=-3 / ipratio=1.40 / pbratio=1.30 / psy-rd=2.00 / psy-rdoq=3.00 / deblock=-1:-1 / ref=5 / limit-refs=0 / no-limit-modes / bframes=8 / b-adapt=2 / bframe-bias=0 / b-pyramid / b-intra / weightp / weightb / min-keyint=23 / max-keyint=240 / rc-lookahead=60 / gop-lookahead=0 / NTMzNTQ=uuDQuD2mJt9fsCf / scenecut=40 / radl=0 / max-cu-size=32 / min-cu-size=8 / me=3 / subme=4 / merange=25 / rdoq-level=2 / rd=4 / rdpenalty=1 / dynamic-rd=0.00 / no-rd-refine / ----- / no-cutree / no-sao / no-rect / no-amp / no-open-gop / wpp / pmode / pme / no-psnr / no-ssim / nr-intra=0 / nr-inter=0 / no-constrained-intra / no-strong-intra-smoothing / max-tu-size=32 / tu-inter-depth=2 / tu-intra-depth=2 / limit-tu=0 / qg-size=32 / qpmax=69 / qpmin=0 / ----- / cpuid=533541111039 / frame-threads=6 / numa-pools=54,- / log-level=2 / input-csp=1 / input-res=3840x1600 / interlace=0 / level-idc=0 / high-tier=1 / uhd-bd=0 / no-allow-non-conformance / no-repeat-headers / no-aud / hrd / info / hash=0 / no-temporal-layers / lookahead-slices=0 / no-splice / no-intra-refresh / no-ssim-rd / signhide / no-tskip / max-merge=3 / temporal-mvp / no-hme / no-analyze-src-pics / no-sao-non-deblock / selective-sao=0 / no-early-skip / no-rskip / no-fast-intra / no-tskip-fast / no-splitrd-skip / zone-count=0 / no-strict-cbr / no-rc-grain / no-const-vbv / sar=0 / overscan=0 / videoformat=5 / range=0 / colorprim=9 / transfer=16 / colormatrix=9 / chromaloc=0 / display-window=0 / master-display=G(13250,34500)B(7500,3000)R(34000,16000)WP(15635,16450)L(10000000,50) / cll=728,279 / min-luma=0 / max-luma=1023 / log2-max-poc-lsb=8 / vui-timing-info / vui-hrd-info / slices=1 / no-opt-qp-pps / no-opt-ref-list-length-pps / no-multi-pass-opt-rps / scenecut-bias=0.05 / no-opt-cu-delta-qp / no-aq-motion / hdr / hdr-opt / no-dhdr10-opt / no-idr-recovery-sei / analysis-reuse-level=5 / scale-factor=0 / refine-intra=0 / refine-inter=0 / refine-mv=1 / refine-ctu-distortion=0 / no-limit-sao / ctu-info=0 / no-lowpass-dct / refine-analysis-type=0 / copy-pic=1 / max-ausize-factor=1.0 / no-dynamic-refine / no-single-sei / no-hevc-aq / no-svt / no-field / qp-adaptation-range=1.00
  38. Default                                  : Yes
  39. Forced                                   : No
  40. Color range                              : Limited
  41. Color primaries                          : BT.2020
  42. Transfer characteristics                 : PQ
  43. Matrix coefficients                      : BT.2020 non-constant
  44. Mastering display color primaries        : Display P3
  45. Mastering display luminance              : min: 0.0050 cd/m2, max: 1000 cd/m2
  46. Maximum Content Light Level              : 728 cd/m2
  47. Maximum Frame-Average Light Level        : 279 cd/m2
  48. Audio
  49. ID                                       : 2
  50. Format                                   : DTS XLL X
  51. Format/Info                              : Digital Theater Systems
  52. Commercial name                          : DTS-HD Master Audio
  53. Codec ID                                 : A_DTS
  54. Duration                                 : 1 h 58 min
  55. Bit rate mode                            : Variable
  56. Bit rate                                 : 6 543 kb/s
  57. Channel(s)                               : 8 channels
  58. Channel(s)_Original                      : Object Based
  59. ChannelLayout_Original                   : Object Based
  60. Sampling rate                            : 48.0 kHz
  61. Frame rate                               : 93.750 FPS (512 SPF)
  62. Bit depth                                : 24 bits
  63. Stream size                              : 5.42 GiB (24%)
  64. Language                                 : English
  65. Default                                  : Yes
  66. Forced                                   : No
  67. Text #1
  68. ID                                       : 3
  69. ID in the original source medium         : 4775 (0x12A7)
  70. Format                                   : PGS
  71. Muxing mode                              : zlib
  72. Codec ID                                 : S_HDMV/PGS
  73. Codec ID/Info                            : Picture based subtitle format used on BDs/HD-DVDs
  74. Duration                                 : 1 h 49 min
  75. Bit rate                                 : 11.9 kb/s
  76. Count of elements                        : 1322
  77. Stream size                              : 9.31 MiB (0%)
  78. Title                                    : CHS
  79. Language                                 : Chinese
  80. Default                                  : No
  81. Forced                                   : No
  82. Original source medium                   : Blu-ray
  83. Text #2
  84. ID                                       : 4
  85. ID in the original source medium         : 4776 (0x12A8)
  86. Format                                   : PGS
  87. Muxing mode                              : zlib
  88. Codec ID                                 : S_HDMV/PGS
  89. Codec ID/Info                            : Picture based subtitle format used on BDs/HD-DVDs
  90. Duration                                 : 1 h 49 min
  91. Bit rate                                 : 12.1 kb/s
  92. Count of elements                        : 1322
  93. Stream size                              : 9.51 MiB (0%)
  94. Title                                    : CHT
  95. Language                                 : Chinese
  96. Default                                  : No
  97. Forced                                   : No
  98. Original source medium                   : Blu-ray
  99. Text #3
  100. ID                                       : 5
  101. ID in the original source medium         : 4777 (0x12A9)
  102. Format                                   : PGS
  103. Muxing mode                              : zlib
  104. Codec ID                                 : S_HDMV/PGS
  105. Codec ID/Info                            : Picture based subtitle format used on BDs/HD-DVDs
  106. Duration                                 : 1 h 49 min
  107. Bit rate                                 : 21.2 kb/s
  108. Count of elements                        : 1322
  109. Stream size                              : 16.6 MiB (0%)
  110. Title                                    : Chs&Eng
  111. Language                                 : Chinese
  112. Default                                  : Yes
  113. Forced                                   : No
  114. Original source medium                   : Blu-ray
  115. Text #4
  116. ID                                       : 6
  117. ID in the original source medium         : 4778 (0x12AA)
  118. Format                                   : PGS
  119. Muxing mode                              : zlib
  120. Codec ID                                 : S_HDMV/PGS
  121. Codec ID/Info                            : Picture based subtitle format used on BDs/HD-DVDs
  122. Duration                                 : 1 h 49 min
  123. Bit rate                                 : 21.5 kb/s
  124. Count of elements                        : 1322
  125. Stream size                              : 16.8 MiB (0%)
  126. Title                                    : Cht&Eng
  127. Language                                 : Chinese
  128. Default                                  : Yes
  129. Forced                                   : No
  130. Original source medium                   : Blu-ray
  131. Text #5
  132. ID                                       : 7
  133. ID in the original source medium         : 4768 (0x12A0)
  134. Format                                   : PGS
  135. Muxing mode                              : zlib
  136. Codec ID                                 : S_HDMV/PGS
  137. Codec ID/Info                            : Picture based subtitle format used on BDs/HD-DVDs
  138. Duration                                 : 1 h 47 min
  139. Bit rate                                 : 16.8 kb/s
  140. Count of elements                        : 1484
  141. Stream size                              : 13.0 MiB (0%)
  142. Language                                 : English
  143. Default                                  : No
  144. Forced                                   : No
  145. Original source medium                   : Blu-ray
  146. Text #6
  147. ID                                       : 8
  148. ID in the original source medium         : 4769 (0x12A1)
  149. Format                                   : PGS
  150. Muxing mode                              : zlib
  151. Codec ID                                 : S_HDMV/PGS
  152. Codec ID/Info                            : Picture based subtitle format used on BDs/HD-DVDs
  153. Duration                                 : 1 h 47 min
  154. Bit rate                                 : 16.5 kb/s
  155. Count of elements                        : 1336
  156. Stream size                              : 12.8 MiB (0%)
  157. Language                                 : French
  158. Default                                  : No
  159. Forced                                   : No
  160. Original source medium                   : Blu-ray
  161. Text #7
  162. ID                                       : 9
  163. ID in the original source medium         : 4770 (0x12A2)
  164. Format                                   : PGS
  165. Muxing mode                              : zlib
  166. Codec ID                                 : S_HDMV/PGS
  167. Codec ID/Info                            : Picture based subtitle format used on BDs/HD-DVDs
  168. Duration                                 : 1 h 47 min
  169. Bit rate                                 : 15.5 kb/s
  170. Count of elements                        : 1384
  171. Stream size                              : 12.0 MiB (0%)
  172. Language                                 : Spanish
  173. Default                                  : No
  174. Forced                                   : No
  175. Original source medium                   : Blu-ray
  176. Text #8
  177. ID                                       : 10
  178. ID in the original source medium         : 4771 (0x12A3)
  179. Format                                   : PGS
  180. Muxing mode                              : zlib
  181. Codec ID                                 : S_HDMV/PGS
  182. Codec ID/Info                            : Picture based subtitle format used on BDs/HD-DVDs
  183. Duration                                 : 1 h 57 min
  184. Bit rate                                 : 13.9 kb/s
  185. Count of elements                        : 1390
  186. Stream size                              : 11.7 MiB (0%)
  187. Language                                 : Portuguese
  188. Default                                  : No
  189. Forced                                   : No
  190. Original source medium                   : Blu-ray
  191. Text #9
  192. ID                                       : 11
  193. ID in the original source medium         : 4772 (0x12A4)
  194. Format                                   : PGS
  195. Muxing mode                              : zlib
  196. Codec ID                                 : S_HDMV/PGS
  197. Codec ID/Info                            : Picture based subtitle format used on BDs/HD-DVDs
  198. Duration                                 : 1 h 38 min
  199. Bit rate                                 : 232 b/s
  200. Count of elements                        : 12
  201. Stream size                              : 167 KiB (0%)
  202. Language                                 : French
  203. Default                                  : No
  204. Forced                                   : No
  205. Original source medium                   : Blu-ray
  206. Text #10
  207. ID                                       : 12
  208. ID in the original source medium         : 4773 (0x12A5)
  209. Format                                   : PGS
  210. Muxing mode                              : zlib
  211. Codec ID                                 : S_HDMV/PGS
  212. Codec ID/Info                            : Picture based subtitle format used on BDs/HD-DVDs
  213. Duration                                 : 1 h 38 min
  214. Bit rate                                 : 241 b/s
  215. Count of elements                        : 12
  216. Stream size                              : 173 KiB (0%)
  217. Language                                 : Spanish
  218. Default                                  : No
  219. Forced                                   : No
  220. Original source medium                   : Blu-ray
  221. Text #11
  222. ID                                       : 13
  223. ID in the original source medium         : 4774 (0x12A6)
  224. Format                                   : PGS
  225. Muxing mode                              : zlib
  226. Codec ID                                 : S_HDMV/PGS
  227. Codec ID/Info                            : Picture based subtitle format used on BDs/HD-DVDs
  228. Duration                                 : 1 h 57 min
  229. Bit rate                                 : 59 b/s
  230. Count of elements                        : 6
  231. Stream size                              : 51.4 KiB (0%)
  232. Language                                 : Portuguese
  233. Default                                  : No
  234. Forced                                   : No
  235. Original source medium                   : Blu-ray
  236. Menu
  237. 00:00:00.000                             : en:Chapter 01
  238. 00:04:27.558                             : en:Chapter 02
  239. 00:11:12.088                             : en:Chapter 03
  240. 00:16:27.820                             : en:Chapter 04
  241. 00:20:11.835                             : en:Chapter 05
  242. 00:26:52.319                             : en:Chapter 06
  243. 00:31:02.944                             : en:Chapter 07
  244. 00:36:10.626                             : en:Chapter 08
  245. 00:43:36.614                             : en:Chapter 09
  246. 00:50:14.511                             : en:Chapter 10
  247. 00:54:59.421                             : en:Chapter 11
  248. 00:59:54.048                             : en:Chapter 12
  249. 01:09:57.735                             : en:Chapter 13
  250. 01:13:59.017                             : en:Chapter 14
  251. 01:19:12.247                             : en:Chapter 15
  252. 01:24:17.385                             : en:Chapter 16
  253. 01:33:00.825                             : en:Chapter 17
  254. 01:38:55.554                             : en:Chapter 18
  255. 01:44:41.608                             : en:Chapter 19
  256. 01:48:38.303                             : en:Chapter 20



此处一般会放置磁力链或种子下载链接,不过此链接需要注册会员才能看到,点击“立即注册”
磁力链下载【下载链接仅对注册会员开放,登陆后可见】
BT9527电影天堂 1、BT9527电影天堂提供的BT文件均来源于互联网抓取,只供网友学习交流、技术提升使用。
2、我们遵守BitTorrent点对点协议原则,任何版权问题请联系原资源发布商,我们不处理任何版权纠纷,谢谢!如有争议请联系邮箱:BT9527#hotmail.com(#换成@)
3、如果您发现某页面或地址有错误,请联系站长邮箱BT9527#hotmail.com(#换成@),我们会尽快处理。您的热心是对BT9527电影天堂最大的支持。
4、本站建议去正规影院观看电影以支持电影行业发展。
最新回复 (0)

你可以在 登录 or 注册 后,对此帖发表评论!

返回
发新帖