黑鹰坠落[国英多音轨/简繁英特效字幕].Black.Hawk.Down.2001.BluRay.1080p.x265.10bit.4Audio-MiniHD 10.50GB

版主小s 9天前 68

✔资源类型:暂未分类   ✔电影年份:更 早   ✔电影地区:欧美   ✔电影分类:动作

◎译  名 黑鹰坠落 / 黑鹰15小时(港) / 黑鹰计划(台) / 黑鹰降落
◎片  名 Black Hawk Down
◎年  代 2001
◎产  地 美国 / 英国
◎类  别 动作 / 历史 / 战争
◎语  言 英语 / 阿拉伯语
◎上映日期 2001-12-18(美国)
◎IMDb链接 https://www.imdb.com/title/tt0265086/
◎豆瓣评分 8.7/10 (266255人评价)
◎豆瓣链接 https://movie.douban.com/subject/1291824/
◎片  长 144分钟
◎导  演 雷德利·斯科特 Ridley Scott (id:1054416)
◎编  剧 肯·诺兰 Ken Nolan (id:1293241)
       马克·鲍登 Mark Bowden (id:1009998)
◎演  员 乔什·哈奈特 Josh Hartnett (id:1025145)
       伊万·麦克格雷格 Ewan McGregor (id:1012532)
       汤姆·塞兹摩尔 Tom Sizemore (id:1036371)
       金·寇兹 Kim Coates (id:1013818)
       艾文·布莱纳 Ewen Bremner (id:1004679)
       艾瑞克·巴纳 Eric Bana (id:1016693)
       休·丹西 Hugh Dancy (id:1017931)
       威廉·菲克纳 William Fichtner (id:1036360)
       奥兰多·布鲁姆 Orlando Bloom (id:1008069)
       汤姆·哈迪 Tom Hardy (id:1049489)
       詹森·艾萨克 Jason Isaacs (id:1017916)
       强尼·斯特朗 Johnny Strong (id:1320862)
       恩里克·穆西安诺 Enrique Murciano (id:1009476)
       乔治·哈里斯 George Harris (id:1101481)
       泰·布利尔 Ty Burrell (id:1025048)
       尼古拉·科斯特-瓦尔道 Nikolaj Coster-Waldau (id:1076051)
       布莱恩·范·霍尔特 Brian Van Holt (id:1010596)
       理查德·泰森 Richard Tyson (id:1007041)
       卡迈因·吉欧凡纳佐 Carmine Giovinazzo (id:1049616)
       艾恩·格拉法德 Ioan Gruffudd (id:1027206)
       山姆·夏普德 Sam Shepard (id:1040574)
       加布里埃尔·卡塞斯 Gabriel Casseus (id:1045136)
       朗·埃达德 Ron Eldard (id:1031973)
       汤姆·盖里 Tom Guiry (id:1027220)
       查理·霍夫赫梅尔 Charlie Hofheimer (id:1000319)
       丹尼·霍奇 Danny Hoch (id:1036777)
       泽利科·伊万内克 Zeljko Ivanek (id:1027122)
       格伦·莫肖尔 Glenn Morshower (id:1048193)
       杰里米·皮文 Jeremy Piven (id:1027071)
       布兰登·萨克斯顿 Brendan Sexton III (id:1140622)
       马修·马斯登 Matthew Marsden (id:1031949)
       雷德利·斯科特 Ridley Scott (id:1054416)
       西蒙·韦斯特 Simon West (id:1300732)
       汉斯·季默 Hans Zimmer (id:1054386)
       斯拉沃米尔·埃迪扎克 Slawomir Idziak (id:1007231)
       邦妮·蒂默曼 Bonnie Timmermann (id:1299285)
       Cliff Robinson Cliff Robinson (id:1295811)
       Keith Pain Keith Pain (id:1293817)
       Pier Luigi Basile Pier Luigi Basile (id:1278043)
       Marco Trentini Marco Trentini (id:1299507)
       Elli Griff Elli Griff (id:1285443)
       萨米·谢尔顿 Sammy Sheldon (id:1286999)
       法布里齐奥·斯福尔扎 Fabrizio Sforza (id:1297279)
       Ana Bulajic-Crcek Ana Bulajic-Crcek (id:1279599)
       艾玛·诺顿 Emma Norton (id:1293292)
       Val Wardlaw Val Wardlaw (id:1300431)
       Stuart Cripps Stuart Cripps (id:1302245)
       Laurent Kermel Laurent Kermel (id:1302524)
       洛朗·乌格尼奥 Laurent Hugueniot (id:1302532)
       萨拉·班尼特 Sara Bennett (id:1302543)
       David Jones David Jones (id:1303780)
       David A.T. Bowman David A.T. Bowman (id:1303932)
       亚历克斯·G·奥托尔 Alex G. Ortoll (id:1293669)
       内森·麦克基尼斯 Nathan McGuinness (id:1291611)
       Robin Huffer Robin Huffer (id:1287098)
       阿雷托·埃切瓦里亚 Areito Echevarria (id:1306702)
       蒂姆·伯克 Tim Burke (id:1279651)

◎简  介
  1992年,连年的部落战争令东非国家索马里山河破败,民不聊生,由此引发的大饥荒更造成三十万人死亡。掌控首都摩加迪休的独裁者默罕默德?法拉?艾迪德抢走国际组织的救援物资,此举引起世人公愤。丧心病狂的艾迪德向国际维和组织宣战,美国方面派出160名特种部队成员前往摩加迪休以推翻艾迪德政权。                                    
                                这群满腔热血的战士信心十足,然而却因情报搜集不足而使战事陷入胶着状态。在一次追捕艾迪德政权两大高官的行动中,特种部队受到索马里民兵的顽强抵抗。双方在市中心展开激烈对峙,美军一架黑鹰直升机受到攻击坠落市区,机组人员危在旦夕。为了营救同伴,一小队特种部队士兵深入虎穴。在接下来的15小时里,他们经历了人间最难以想象的修罗场……

◎获奖情况 (共5项)
  第74届奥斯卡金像奖 (2002)
  最佳导演(提名)
   └──雷德利·斯科特 (id:1054416)
  最佳摄影(提名)
   └──斯拉沃米尔·埃迪扎克 (id:1007231)
  最佳剪辑
   └──彼得罗·斯卡利亚 (id:1032662)
  最佳音响

  第2届美国电影学会奖 (2001)
  年度佳片

  1. ##### MediaInfo ######
  2. General
  3. Unique ID                                : 227092619317295667271004295675552163987 (0xAAD87293E60027CD842B670EB4176893)
  4. Complete name                            : Black.Hawk.Down.2001.BluRay.1080p.x265.10bit.4Audio-MiniHD.mkv
  5. Format                                   : Matroska
  6. Format version                           : Version 4
  7. File size                                : 10.5 GiB
  8. Duration                                 : 2 h 24 min
  9. Overall bit rate                         : 10.4 Mb/s
  10. Encoded date                             : UTC 2017-10-25 17:11:29
  11. Writing application                      : mkvmerge v16.0.0 ('Protest') 64-bit
  12. Writing library                          : libebml v1.3.5 + libmatroska v1.4.8
  13. Video
  14. ID                                       : 1
  15. Format                                   : HEVC
  16. Format/Info                              : High Efficiency Video Coding
  17. Format profile                           : Main 10@L4@Main
  18. Codec ID                                 : V_MPEGH/ISO/HEVC
  19. Duration                                 : 2 h 24 min
  20. Bit rate                                 : 8 085 kb/s
  21. Width                                    : 1 920 pixels
  22. Height                                   : 802 pixels
  23. Display aspect ratio                     : 2.40:1
  24. Frame rate mode                          : Constant
  25. Frame rate                               : 23.976 (24000/1001/53354) FPS
  26. Color space                              : YUV
  27. Chroma subsampling                       : 4:2:0
  28. Bit depth                                : 10 bits
  29. Bits/(Pixel*Frame)                       : 0.219
  30. Stream size                              : 8.15 GiB (78%)
  31. Writing library                          : x265 1.9+200-6098ba3e0cf16b11:[Windows][GCC 5.3.0][64 bit] 10bit
  32. Encoding settings                        : wpp / ctu=32 / min-cu-size=8 / max-tu-size=16 / tu-intra-depth=2 / tu-inter-depth=2 / me=3 / subme=5 / merange=21 / no-rect / no-amp / max-merge=3 / temporal-mvp / no-early-skip / no-recursion-skip / rdpenalty=1 / no-tskip / no-tskip-fast / no-strong-intra-smoothing / no-lossless / no-cu-lossless / no-constrained-intra / no-fast-intra / no-open-gop / no-temporal-layers / interlace=0 / keyint=360 / min-keyint=1 / NTMzNTQ=uuDQuD2mJt9fsCf / scenecut=40 / rc-lookahead=60 / lookahead-slices=4 / bframes=8 / bframe-bias=0 / b-adapt=2 / ref=5 / limit-refs=3 / limit-modes / weightp / weightb / aq-mode=1 / qg-size=16 / aq-strength=1.00 / cbqpoffs=0 / crqpoffs=0 / rd=4 / psy-rd=0.30 / rdoq-level=1 / psy-rdoq=5.00 / no-rd-refine / signhide / deblock=-1:-1 / no-sao / no-sao-non-deblock / b-pyramid / cutree / no-intra-refresh / rc=crf / crf=20.0 / qcomp=0.70 / qpmin=0 / qpmax=51 / qpstep=4 / ipratio=1.40 / pbratio=1.30
  33. Default                                  : Yes
  34. Forced                                   : No
  35. Color range                              : Limited
  36. Color primaries                          : BT.709
  37. Audio #1
  38. ID                                       : 2
  39. Format                                   : AC-3
  40. Format/Info                              : Audio Coding 3
  41. Commercial name                          : Dolby Digital
  42. Codec ID                                 : A_AC3
  43. Duration                                 : 2 h 24 min
  44. Bit rate mode                            : Constant
  45. Bit rate                                 : 640 kb/s
  46. Channel(s)                               : 6 channels
  47. Channel layout                           : L R C LFE Ls Rs
  48. Sampling rate                            : 48.0 kHz
  49. Frame rate                               : 31.250 FPS (1536 SPF)
  50. Compression mode                         : Lossy
  51. Stream size                              : 661 MiB (6%)
  52. Title                                    : 英语原声
  53. Language                                 : English
  54. Service kind                             : Complete Main
  55. Default                                  : Yes
  56. Forced                                   : No
  57. Audio #2
  58. ID                                       : 3
  59. Format                                   : AC-3
  60. Format/Info                              : Audio Coding 3
  61. Commercial name                          : Dolby Digital
  62. Codec ID                                 : A_AC3
  63. Duration                                 : 2 h 24 min
  64. Bit rate mode                            : Constant
  65. Bit rate                                 : 640 kb/s
  66. Channel(s)                               : 6 channels
  67. Channel layout                           : L R C LFE Ls Rs
  68. Sampling rate                            : 48.0 kHz
  69. Frame rate                               : 31.250 FPS (1536 SPF)
  70. Compression mode                         : Lossy
  71. Stream size                              : 661 MiB (6%)
  72. Title                                    : 上译国配
  73. Language                                 : Chinese
  74. Service kind                             : Complete Main
  75. Default                                  : No
  76. Forced                                   : No
  77. Audio #3
  78. ID                                       : 4
  79. Format                                   : AC-3
  80. Format/Info                              : Audio Coding 3
  81. Commercial name                          : Dolby Digital
  82. Codec ID                                 : A_AC3
  83. Duration                                 : 2 h 24 min
  84. Bit rate mode                            : Constant
  85. Bit rate                                 : 640 kb/s
  86. Channel(s)                               : 6 channels
  87. Channel layout                           : L R C LFE Ls Rs
  88. Sampling rate                            : 48.0 kHz
  89. Frame rate                               : 31.250 FPS (1536 SPF)
  90. Compression mode                         : Lossy
  91. Stream size                              : 661 MiB (6%)
  92. Title                                    : 北影国配
  93. Language                                 : Chinese
  94. Service kind                             : Complete Main
  95. Default                                  : No
  96. Forced                                   : No
  97. Audio #4
  98. ID                                       : 5
  99. Format                                   : AC-3
  100. Format/Info                              : Audio Coding 3
  101. Commercial name                          : Dolby Digital
  102. Codec ID                                 : A_AC3
  103. Duration                                 : 2 h 24 min
  104. Bit rate mode                            : Constant
  105. Bit rate                                 : 192 kb/s
  106. Channel(s)                               : 2 channels
  107. Channel layout                           : L R
  108. Sampling rate                            : 48.0 kHz
  109. Frame rate                               : 31.250 FPS (1536 SPF)
  110. Compression mode                         : Lossy
  111. Stream size                              : 198 MiB (2%)
  112. Title                                    : 央视国配
  113. Language                                 : Chinese
  114. Service kind                             : Complete Main
  115. Default                                  : No
  116. Forced                                   : No
  117. Text #1
  118. ID                                       : 6
  119. Format                                   : PGS
  120. Muxing mode                              : zlib
  121. Codec ID                                 : S_HDMV/PGS
  122. Codec ID/Info                            : Picture based subtitle format used on BDs/HD-DVDs
  123. Duration                                 : 2 h 12 min
  124. Bit rate                                 : 45.4 kb/s
  125. Count of elements                        : 2796
  126. Stream size                              : 42.9 MiB (0%)
  127. Title                                    : 英文
  128. Language                                 : English
  129. Default                                  : Yes
  130. Forced                                   : No
  131. Text #2
  132. ID                                       : 7
  133. Format                                   : PGS
  134. Muxing mode                              : zlib
  135. Codec ID                                 : S_HDMV/PGS
  136. Codec ID/Info                            : Picture based subtitle format used on BDs/HD-DVDs
  137. Duration                                 : 2 h 18 min
  138. Bit rate                                 : 97.7 kb/s
  139. Count of elements                        : 6918
  140. Stream size                              : 96.8 MiB (1%)
  141. Title                                    : 上译国配简中特效
  142. Language                                 : Chinese
  143. Default                                  : No
  144. Forced                                   : No
  145. Text #3
  146. ID                                       : 8
  147. Format                                   : PGS
  148. Muxing mode                              : zlib
  149. Codec ID                                 : S_HDMV/PGS
  150. Codec ID/Info                            : Picture based subtitle format used on BDs/HD-DVDs
  151. Duration                                 : 2 h 18 min
  152. Bit rate                                 : 91.5 kb/s
  153. Count of elements                        : 6748
  154. Stream size                              : 90.6 MiB (1%)
  155. Title                                    : 简体中文特效
  156. Language                                 : Chinese
  157. Default                                  : No
  158. Forced                                   : No
  159. Text #4
  160. ID                                       : 9
  161. Format                                   : PGS
  162. Muxing mode                              : zlib
  163. Codec ID                                 : S_HDMV/PGS
  164. Codec ID/Info                            : Picture based subtitle format used on BDs/HD-DVDs
  165. Duration                                 : 2 h 18 min
  166. Bit rate                                 : 93.2 kb/s
  167. Count of elements                        : 6753
  168. Stream size                              : 92.3 MiB (1%)
  169. Title                                    : 繁体中文特效
  170. Language                                 : Chinese
  171. Default                                  : No
  172. Forced                                   : No
  173. Text #5
  174. ID                                       : 10
  175. Format                                   : PGS
  176. Muxing mode                              : zlib
  177. Codec ID                                 : S_HDMV/PGS
  178. Codec ID/Info                            : Picture based subtitle format used on BDs/HD-DVDs
  179. Duration                                 : 2 h 18 min
  180. Bit rate                                 : 99.0 kb/s
  181. Count of elements                        : 6747
  182. Stream size                              : 98.1 MiB (1%)
  183. Title                                    : 简英双语特效
  184. Language                                 : Chinese
  185. Default                                  : No
  186. Forced                                   : No
  187. Text #6
  188. ID                                       : 11
  189. Format                                   : PGS
  190. Muxing mode                              : zlib
  191. Codec ID                                 : S_HDMV/PGS
  192. Codec ID/Info                            : Picture based subtitle format used on BDs/HD-DVDs
  193. Duration                                 : 2 h 18 min
  194. Bit rate                                 : 33.0 kb/s
  195. Count of elements                        : 2934
  196. Stream size                              : 32.7 MiB (0%)
  197. Title                                    : 原盘繁体中文
  198. Language                                 : Chinese
  199. Default                                  : No
  200. Forced                                   : No
  201. Menu
  202. 00:00:00.000                             : en:Chapter 01
  203. 00:20:37.319                             : en:Chapter 02
  204. 00:29:40.528                             : en:Chapter 03
  205. 00:36:56.172                             : en:Chapter 04
  206. 00:40:50.739                             : en:Chapter 05
  207. 00:50:55.343                             : en:Chapter 06
  208. 00:59:10.129                             : en:Chapter 07
  209. 01:07:02.935                             : en:Chapter 08
  210. 01:24:54.923                             : en:Chapter 09
  211. 01:26:38.484                             : en:Chapter 10
  212. 01:38:54.178                             : en:Chapter 11
  213. 01:44:08.617                             : en:Chapter 12
  214. 01:57:38.676                             : en:Chapter 13
  215. 02:01:06.133                             : en:Chapter 14
  216. 02:05:48.624                             : en:Chapter 15
  217. 02:13:13.944                             : en:Chapter 16





此处一般会放置磁力链或种子下载链接,不过此链接需要注册会员才能看到,点击“立即注册”
磁力链下载【下载链接仅对注册会员开放,登陆后可见】
BT9527电影天堂 1、BT9527电影天堂提供的BT文件均来源于互联网抓取,只供网友学习交流、技术提升使用。
2、我们遵守BitTorrent点对点协议原则,任何版权问题请联系原资源发布商,我们不处理任何版权纠纷,谢谢!如有争议请联系邮箱:BT9527#hotmail.com(#换成@)
3、如果您发现某页面或地址有错误,请联系站长邮箱BT9527#hotmail.com(#换成@),我们会尽快处理。您的热心是对BT9527电影天堂最大的支持。
4、本站建议去正规影院观看电影以支持电影行业发展。
最新回复 (0)

你可以在 登录 or 注册 后,对此帖发表评论!

返回
发新帖