黑雨[国英多音轨/中英字幕].Black.Rain.1989.BluRay.1080p.x265.10bit.4Audio-MiniHD 6.34GB

版主小s 14天前 58

✔资源类型:暂未分类   ✔电影年份:更 早   ✔电影地区:欧美   ✔电影分类:动作

◎译  名 黑雨
◎片  名 Black Rain
◎年  代 1989
◎产  地 美国
◎类  别 动作 / 惊悚 / 犯罪
◎语  言 英语 / 日语
◎上映日期 1989-09-22
◎IMDb链接 https://www.imdb.com/title/tt0096933/
◎豆瓣评分 7.3/10 (4974人评价)
◎豆瓣链接 https://movie.douban.com/subject/1298608/
◎片  长 125 分钟
◎导  演 雷德利·斯科特 Ridley Scott (id:1054416)
◎编  剧 克雷格·博洛坦 Craig Bolotin (id:1020001)
◎演  员 迈克尔·道格拉斯 Michael Douglas (id:1053620)
       安迪·加西亚 Andy Garcia (id:1002695)
       高仓健 Ken Takakura (id:1007153)
       凯特·卡普肖 Kate Capshaw (id:1040572)
       松田优作 Yusaku Matsuda (id:1050321)
       若山富三郎 Tomisaburo Wakayama (id:1050454)
       小野美由纪 Miyuki Ono (id:1042593)
       斯蒂芬·鲁特 Stephen Root (id:1041136)
       路易斯·古兹曼 Luis Guzmán (id:1049639)
       布鲁斯·洛克 Bruce Locke (id:1322243)
       艾伦·保尔 Alan Poul (id:1294807)
       坂本龙一 Ryuichi Sakamoto (id:1148641)
       汉斯·季默 Hans Zimmer (id:1054386)
       迪安娜·克里滕登 Dianne Crittenden (id:1281490)
       莱斯利·布鲁姆 Leslie Bloom (id:1278821)
       约翰·M·德维尔 John M. Dwyer (id:1282892)
       Richard C. Goddard Richard C. Goddard (id:1284996)
       艾伦·米罗伊尼克 Ellen Mirojnick (id:1010099)
       小弗雷德·C·布鲁 Fred C. Blau Jr. (id:1278788)
       Neal Martz Neal Martz (id:1291165)
       苏珊·V·卡利诺夫斯基 Susan V. Kalinowski (id:1288039)
       迈克尔·汉考克 Michael Hancock (id:1285947)
       林戴尔·奎尤 Lyndell Quiyou (id:1295089)
       艾伦 A. 安彭 Allan A. Apone (id:1277325)
       Aldric La'Auli Porter Aldric La'Auli Porter (id:1294768)
       Dennis Maguire Dennis Maguire (id:1290727)
       朱迪·埃利希 Jodi Ehrlich (id:1283053)
       凯蒂·加瑞森 Katy Garretson (id:1276537)

◎简  介
  纽约探员尼克(迈克尔?道格拉斯 Michael Douglas 饰)是个桀骜不驯的离异男子,他最近因渎职嫌疑被风纪部门调查。某日尼克与搭档文森(安迪?加西亚 Andy Garcia 饰)在一家餐厅中偶然遇到日本黑帮的内部火并,二人虽将主犯佐藤(松田优作 饰)捕获,但佐藤抢到的神秘块状物却不翼而飞。日本方面要求引渡佐藤,尼克和文森只得押解佐藤到达大阪,岂料在飞机场,尼克误将佐藤交给了乔装后的黑帮分子。不甘心失去人犯的尼克和文森以观察员的身份,在日方助理兼翻译松本正弘(高仓健 饰)协助下继续调查佐藤一案,他们发现佐藤正与大老板菅井为了制造假钞的铜板火并。不久,文森被佐藤一伙杀害,尼克的处境也愈发艰难,但他固执的要在晦暗的陌生城市中抓到凶手……

◎获奖情况 (共3项)
  第62届奥斯卡金像奖 (1990)
  最佳音效剪辑(提名)
  最佳音响(提名)

  第13届日本电影学院奖 (1990)
  最佳外语片(提名)

  1. ##### MediaInfo ######
  2. General
  3. Unique ID                                : 220359096232179810461630884601280882147 (0xA5C79E4209D6117E951445C271F065E3)
  4. Complete name                            : Black.Rain.1989.BluRay.1080p.x265.10bit.4Audio-MiniHD.mkv
  5. Format                                   : Matroska
  6. Format version                           : Version 4
  7. File size                                : 6.34 GiB
  8. Duration                                 : 2 h 5 min
  9. Overall bit rate                         : 7 240 kb/s
  10. Encoded date                             : UTC 2017-09-25 02:14:19
  11. Writing application                      : mkvmerge v11.0.0 ('Alive') 64bit
  12. Writing library                          : libebml v1.3.4 + libmatroska v1.4.5
  13. Video
  14. ID                                       : 1
  15. Format                                   : HEVC
  16. Format/Info                              : High Efficiency Video Coding
  17. Codec ID                                 : V_MPEGH/ISO/HEVC
  18. Duration                                 : 2 h 5 min
  19. Bit rate                                 : 5 880 kb/s
  20. Width                                    : 1 920 pixels
  21. Height                                   : 800 pixels
  22. Display aspect ratio                     : 2.40:1
  23. Frame rate mode                          : Constant
  24. Frame rate                               : 23.976 (24000/1001/53354) FPS
  25. Bits/(Pixel*Frame)                       : 0.160
  26. Stream size                              : 5.15 GiB (81%)
  27. Default                                  : Yes
  28. Forced                                   : No
  29. Audio #1
  30. ID                                       : 2
  31. Format                                   : AC-3
  32. Format/Info                              : Audio Coding 3
  33. Commercial name                          : Dolby Digital
  34. Codec ID                                 : A_AC3
  35. Duration                                 : 2 h 5 min
  36. Bit rate mode                            : Constant
  37. Bit rate                                 : 640 kb/s
  38. Channel(s)                               : 6 channels
  39. Channel layout                           : L R C LFE Ls Rs
  40. Sampling rate                            : 48.0 kHz
  41. Frame rate                               : 31.250 FPS (1536 SPF)
  42. Compression mode                         : Lossy
  43. Stream size                              : 574 MiB (9%)
  44. Language                                 : English
  45. Service kind                             : Complete Main
  46. Default                                  : Yes
  47. Forced                                   : No
  48. Audio #2
  49. ID                                       : 3
  50. Format                                   : AC-3
  51. Format/Info                              : Audio Coding 3
  52. Commercial name                          : Dolby Digital
  53. Codec ID                                 : A_AC3
  54. Duration                                 : 2 h 5 min
  55. Bit rate mode                            : Constant
  56. Bit rate                                 : 192 kb/s
  57. Channel(s)                               : 2 channels
  58. Channel layout                           : L R
  59. Sampling rate                            : 48.0 kHz
  60. Frame rate                               : 31.250 FPS (1536 SPF)
  61. Compression mode                         : Lossy
  62. Stream size                              : 172 MiB (3%)
  63. Language                                 : Chinese
  64. Service kind                             : Complete Main
  65. Default                                  : No
  66. Forced                                   : No
  67. Audio #3
  68. ID                                       : 4
  69. Format                                   : AC-3
  70. Format/Info                              : Audio Coding 3
  71. Commercial name                          : Dolby Digital
  72. Codec ID                                 : A_AC3
  73. Duration                                 : 2 h 5 min
  74. Bit rate mode                            : Constant
  75. Bit rate                                 : 192 kb/s
  76. Channel(s)                               : 2 channels
  77. Channel layout                           : L R
  78. Sampling rate                            : 48.0 kHz
  79. Frame rate                               : 31.250 FPS (1536 SPF)
  80. Compression mode                         : Lossy
  81. Stream size                              : 172 MiB (3%)
  82. Language                                 : Chinese
  83. Service kind                             : Complete Main
  84. Default                                  : No
  85. Forced                                   : No
  86. Audio #4
  87. ID                                       : 5
  88. Format                                   : AC-3
  89. Format/Info                              : Audio Coding 3
  90. Commercial name                          : Dolby Digital
  91. Codec ID                                 : A_AC3
  92. Duration                                 : 2 h 5 min
  93. Bit rate mode                            : Constant
  94. Bit rate                                 : 192 kb/s
  95. Channel(s)                               : 2 channels
  96. Channel layout                           : L R
  97. Sampling rate                            : 48.0 kHz
  98. Frame rate                               : 31.250 FPS (1536 SPF)
  99. Compression mode                         : Lossy
  100. Stream size                              : 172 MiB (3%)
  101. Language                                 : Chinese
  102. Service kind                             : Complete Main
  103. Default                                  : No
  104. Forced                                   : No
  105. Text #1
  106. ID                                       : 6
  107. Format                                   : PGS
  108. Muxing mode                              : zlib
  109. Codec ID                                 : S_HDMV/PGS
  110. Codec ID/Info                            : Picture based subtitle format used on BDs/HD-DVDs
  111. Language                                 : English
  112. Default                                  : Yes
  113. Forced                                   : No
  114. Text #2
  115. ID                                       : 7
  116. Format                                   : PGS
  117. Muxing mode                              : zlib
  118. Codec ID                                 : S_HDMV/PGS
  119. Codec ID/Info                            : Picture based subtitle format used on BDs/HD-DVDs
  120. Language                                 : English
  121. Default                                  : No
  122. Forced                                   : No
  123. Text #3
  124. ID                                       : 8
  125. Format                                   : PGS
  126. Muxing mode                              : zlib
  127. Codec ID                                 : S_HDMV/PGS
  128. Codec ID/Info                            : Picture based subtitle format used on BDs/HD-DVDs
  129. Language                                 : Chinese
  130. Default                                  : No
  131. Forced                                   : No
  132. Text #4
  133. ID                                       : 9
  134. Format                                   : PGS
  135. Muxing mode                              : zlib
  136. Codec ID                                 : S_HDMV/PGS
  137. Codec ID/Info                            : Picture based subtitle format used on BDs/HD-DVDs
  138. Language                                 : Chinese
  139. Default                                  : No
  140. Forced                                   : No
  141. Menu
  142. 00:00:00.000                             : en:Chapter 01
  143. 00:02:45.832                             : en:Chapter 02
  144. 00:05:06.306                             : en:Chapter 03
  145. 00:11:11.295                             : en:Chapter 04
  146. 00:14:44.174                             : en:Chapter 05
  147. 00:18:08.087                             : en:Chapter 06
  148. 00:20:48.580                             : en:Chapter 07
  149. 00:23:09.846                             : en:Chapter 08
  150. 00:31:24.299                             : en:Chapter 09
  151. 00:46:03.010                             : en:Chapter 10
  152. 00:49:09.029                             : en:Chapter 11
  153. 00:53:48.642                             : en:Chapter 12
  154. 00:55:31.119                             : en:Chapter 13
  155. 00:57:25.817                             : en:Chapter 14
  156. 01:02:02.093                             : en:Chapter 15
  157. 01:07:33.424                             : en:Chapter 16
  158. 01:12:05.362                             : en:Chapter 17
  159. 01:15:14.426                             : en:Chapter 18
  160. 01:19:33.810                             : en:Chapter 19
  161. 01:23:30.922                             : en:Chapter 20
  162. 01:26:43.698                             : en:Chapter 21
  163. 01:32:43.349                             : en:Chapter 22
  164. 01:36:35.372                             : en:Chapter 23
  165. 01:40:33.026                             : en:Chapter 24
  166. 01:47:11.258                             : en:Chapter 25
  167. 01:51:30.308                             : en:Chapter 26
  168. 01:57:21.451                             : en:Chapter 27
  169. 02:01:32.785                             : en:Chapter 28





此处一般会放置磁力链或种子下载链接,不过此链接需要注册会员才能看到,点击“立即注册”
磁力链下载【下载链接仅对注册会员开放,登陆后可见】
BT9527电影天堂 1、BT9527电影天堂提供的BT文件均来源于互联网抓取,只供网友学习交流、技术提升使用。
2、我们遵守BitTorrent点对点协议原则,任何版权问题请联系原资源发布商,我们不处理任何版权纠纷,谢谢!如有争议请联系邮箱:BT9527#hotmail.com(#换成@)
3、如果您发现某页面或地址有错误,请联系站长邮箱BT9527#hotmail.com(#换成@),我们会尽快处理。您的热心是对BT9527电影天堂最大的支持。
4、本站建议去正规影院观看电影以支持电影行业发展。
最新回复 (0)

你可以在 登录 or 注册 后,对此帖发表评论!

返回
发新帖