黑金杀机[中英字幕].The.Counselor.2013.BluRay.1080p.x265.10bit-MiniHD 3.62GB

版主小s 9天前 58

✔资源类型:暂未分类   ✔电影年份:2013   ✔电影地区:欧美   ✔电影分类:剧情

◎译  名 黑金杀机 / 黑权大状(港) / 玩命法则(台) / 法律顾问 / 顾问
◎片  名 The Counselor
◎年  代 2013
◎产  地 美国 / 英国
◎类  别 剧情 / 惊悚 / 犯罪
◎语  言 英语
◎上映日期 2013-10-25(美国)
◎IMDb链接 https://www.imdb.com/title/tt2193215/
◎豆瓣评分 5.2/10 (9032人评价)
◎豆瓣链接 https://movie.douban.com/subject/10462800/
◎片  长 117分钟
◎导  演 雷德利·斯科特 Ridley Scott (id:1054416)
◎编  剧 科马克·麦卡锡 Cormac McCarthy (id:1009444)
◎演  员 迈克尔·法斯宾德 Michael Fassbender (id:1000010)
       佩内洛普·克鲁兹 Penélope Cruz (id:1005774)
       卡梅隆·迪亚兹 Cameron Diaz (id:1054422)
       哈维尔·巴登 Javier Bardem (id:1054414)
       布鲁诺·冈茨 Bruno Ganz (id:1000247)
       罗茜·佩雷兹 Rosie Perez (id:1049680)
       卢宾·布雷兹 Rubén Blades (id:1009458)
       布拉德·皮特 Brad Pitt (id:1054452)
       高兰·维斯耶克 Goran Visnjic (id:1049703)
       埃德加·拉米雷兹 édgar Ramírez (id:1000230)
       迪恩·诺里斯 Dean Norris (id:1315784)
       萨姆·斯普卢尔  Sam Spruell (id:1316018)
       娜塔莉·多默尔 Natalie Dormer (id:1004607)
       托比·凯贝尔 Toby Kebbell (id:1010533)
       查尔斯·欧比 Chris Obi (id:1365857)
       理查德·卡夫拉尔 Richard Cabral (id:1335468)
       理查德·布雷克 Richard Brake (id:1036682)
       詹妮娜·法西奥 Giannina Facio (id:1050008)
       维利贝·托皮奇 Velibor Topic (id:1320241)
       费尔南多·卡约 Fernando Cayo (id:1048362)
       达尔·达什 Dar Dash (id:1367748)
       安德莉·代克 Andrea Deck (id:1382143)
       亚历克斯·哈夫纳 Alex Hafner (id:1378102)
       朱利安·维亚隆 Julien Vialon (id:1467020)
       约翰·雷吉扎莫 John Leguizamo (id:1010561)
       爱玛·里格比 Emma Rigby (id:1028286)
       唐娜·艾尔 Donna Air (id:1060452)
       丹尼尔·彭博顿 Daniel Pemberton (id:1373894)
       达瑞兹·沃斯基 Dariusz Wolski (id:1276296)

◎简  介
  由迈克尔·法斯宾德饰演的律师顾问被哈维尔·巴登饰演的毒贩拉下水,卷入了一宗高达2000万美元的毒品交易。两位美人(克鲁兹与迪亚茨)轮番登场与顾问周旋,而另一长发神秘男子(布拉德·皮特)的加入更令这场智力游戏扑朔迷离,为保全身而退,顾问决定用尽一切办法。

◎获奖情况 (共2项)
  第23届MTV电影奖 (2014)
  MTV电影奖 最目瞪口呆场面(提名)

  第34届伦敦影评人协会奖 (2014)
  年度英国/爱尔兰男演员(提名)
   └──迈克尔·法斯宾德 (id:1000010)

  1. ##### MediaInfo ######
  2. General
  3. Unique ID                                : 179206163167193458115536262947655840678 (0x86D1DA018E5CE9269C0B44483A66F3A6)
  4. Complete name                            : The.Counselor.2013.BluRay.1080p.x265.10bit-MiniHD.mkv
  5. Format                                   : Matroska
  6. Format version                           : Version 4
  7. File size                                : 3.62 GiB
  8. Duration                                 : 2 h 17 min
  9. Overall bit rate                         : 3 752 kb/s
  10. Encoded date                             : UTC 2017-06-20 13:28:12
  11. Writing application                      : mkvmerge v11.0.0 ('Alive') 64bit
  12. Writing library                          : libebml v1.3.4 + libmatroska v1.4.5
  13. Video
  14. ID                                       : 1
  15. Format                                   : HEVC
  16. Format/Info                              : High Efficiency Video Coding
  17. Codec ID                                 : V_MPEGH/ISO/HEVC
  18. Duration                                 : 2 h 17 min
  19. Bit rate                                 : 3 087 kb/s
  20. Width                                    : 1 920 pixels
  21. Height                                   : 800 pixels
  22. Display aspect ratio                     : 2.40:1
  23. Frame rate mode                          : Constant
  24. Frame rate                               : 23.976 (24000/1001/53354) FPS
  25. Bits/(Pixel*Frame)                       : 0.084
  26. Stream size                              : 2.97 GiB (82%)
  27. Default                                  : Yes
  28. Forced                                   : No
  29. Audio
  30. ID                                       : 2
  31. Format                                   : AC-3
  32. Format/Info                              : Audio Coding 3
  33. Commercial name                          : Dolby Digital
  34. Codec ID                                 : A_AC3
  35. Duration                                 : 2 h 17 min
  36. Bit rate mode                            : Constant
  37. Bit rate                                 : 640 kb/s
  38. Channel(s)                               : 6 channels
  39. Channel layout                           : L R C LFE Ls Rs
  40. Sampling rate                            : 48.0 kHz
  41. Frame rate                               : 31.250 FPS (1536 SPF)
  42. Compression mode                         : Lossy
  43. Stream size                              : 631 MiB (17%)
  44. Language                                 : English
  45. Service kind                             : Complete Main
  46. Default                                  : Yes
  47. Forced                                   : No
  48. Text #1
  49. ID                                       : 3
  50. Format                                   : PGS
  51. Muxing mode                              : zlib
  52. Codec ID                                 : S_HDMV/PGS
  53. Codec ID/Info                            : Picture based subtitle format used on BDs/HD-DVDs
  54. Duration                                 : 2 h 12 min
  55. Bit rate                                 : 11.8 kb/s
  56. Count of elements                        : 4000
  57. Stream size                              : 11.2 MiB (0%)
  58. Language                                 : English
  59. Default                                  : Yes
  60. Forced                                   : No
  61. Text #2
  62. ID                                       : 4
  63. Format                                   : PGS
  64. Muxing mode                              : zlib
  65. Codec ID                                 : S_HDMV/PGS
  66. Codec ID/Info                            : Picture based subtitle format used on BDs/HD-DVDs
  67. Duration                                 : 2 h 16 min
  68. Bit rate                                 : 11.8 kb/s
  69. Count of elements                        : 3480
  70. Stream size                              : 11.5 MiB (0%)
  71. Language                                 : Chinese
  72. Default                                  : No
  73. Forced                                   : No
  74. Menu
  75. 00:00:00.000                             : en:Chapter 01
  76. 00:06:38.022                             : en:Chapter 02
  77. 00:09:47.086                             : en:Chapter 03
  78. 00:12:12.565                             : en:Chapter 04
  79. 00:19:50.606                             : en:Chapter 05
  80. 00:27:59.677                             : en:Chapter 06
  81. 00:31:31.973                             : en:Chapter 07
  82. 00:34:35.239                             : en:Chapter 08
  83. 00:37:13.856                             : en:Chapter 09
  84. 00:46:31.830                             : en:Chapter 10
  85. 00:50:45.876                             : en:Chapter 11
  86. 00:56:54.494                             : en:Chapter 12
  87. 00:58:13.448                             : en:Chapter 13
  88. 00:59:55.258                             : en:Chapter 14
  89. 01:02:37.628                             : en:Chapter 15
  90. 01:04:40.709                             : en:Chapter 16
  91. 01:10:51.371                             : en:Chapter 17
  92. 01:15:33.487                             : en:Chapter 18
  93. 01:17:44.034                             : en:Chapter 19
  94. 01:19:53.705                             : en:Chapter 20
  95. 01:25:41.302                             : en:Chapter 21
  96. 01:30:10.112                             : en:Chapter 22
  97. 01:34:25.784                             : en:Chapter 23
  98. 01:38:29.778                             : en:Chapter 24
  99. 01:41:34.838                             : en:Chapter 25
  100. 01:44:25.842                             : en:Chapter 26
  101. 01:46:19.372                             : en:Chapter 27
  102. 01:48:58.364                             : en:Chapter 28
  103. 01:51:45.907                             : en:Chapter 29
  104. 01:58:04.452                             : en:Chapter 30
  105. 01:59:36.252                             : en:Chapter 31
  106. 02:03:57.137                             : en:Chapter 32
  107. 02:05:26.310                             : en:Chapter 33
  108. 02:08:22.778                             : en:Chapter 34
  109. 02:10:27.944                             : en:Chapter 35
  110. 02:13:53.650                             : en:Chapter 36





此处一般会放置磁力链或种子下载链接,不过此链接需要注册会员才能看到,点击“立即注册”
磁力链下载【下载链接仅对注册会员开放,登陆后可见】
BT9527电影天堂 1、BT9527电影天堂提供的BT文件均来源于互联网抓取,只供网友学习交流、技术提升使用。
2、我们遵守BitTorrent点对点协议原则,任何版权问题请联系原资源发布商,我们不处理任何版权纠纷,谢谢!如有争议请联系邮箱:BT9527#hotmail.com(#换成@)
3、如果您发现某页面或地址有错误,请联系站长邮箱BT9527#hotmail.com(#换成@),我们会尽快处理。您的热心是对BT9527电影天堂最大的支持。
4、本站建议去正规影院观看电影以支持电影行业发展。
最新回复 (0)

你可以在 登录 or 注册 后,对此帖发表评论!

返回
发新帖