黑夜传说5:血战[简英特效字幕].Underworld.Blood.Wars.2016.BluRay.1080p.x265.10bit.HDR-MiniHD 1.63GB

版主小s 18天前 40

✔资源类型:暂未分类   ✔电影年份:2016   ✔电影地区:欧美   ✔电影分类:动作

◎译  名 黑夜传说5:血战 / 妖夜寻狼:世纪血战(港) / 决战异世界5 弑血之战(台) / 黑夜传说5 / Underworld 5 / Underworld: Next Generation
◎片  名 Underworld: Blood Wars
◎年  代 2016
◎产  地 美国
◎类  别 动作 / 惊悚 / 奇幻
◎语  言 英语 / 乌克兰语
◎上映日期 2016-11-24(俄罗斯) / 2017-01-06(美国)
◎IMDb链接 https://www.imdb.com/title/tt3717252/
◎豆瓣评分 6.0/10 (25654人评价)
◎豆瓣链接 https://movie.douban.com/subject/19951149/
◎片  长 91分钟
◎导  演 安娜·福斯特 Anna Foerster (id:1283907)
◎编  剧 凯文·格雷维奥斯 Kevin Grevioux (id:1336254)
       伦·怀斯曼 Len Wiseman (id:1031983)
       科里·古德曼 Cory Goodman (id:1352859)
       丹尼·麦克布莱德 Danny McBride (id:1013797)
       Danny McBride Danny McBride (id:1349517)
◎演  员 凯特·贝金赛尔 Kate Beckinsale (id:1003487)
       西奥·詹姆斯 Theo James (id:1314251)
       托比亚斯·门基斯 Tobias Menzies (id:1123265)
       劳拉·普沃 Lara Pulver (id:1267074)
       查尔斯·丹斯 Charles Dance (id:1027299)
       詹姆斯·福克纳 James Faulkner (id:1012548)
       彼得·安德森 Peter Andersson (id:1056229)
       布莱德利·詹姆斯 Bradley James (id:1027219)
       黛茜·海德 Daisy Head (id:1364703)
       克莱曼汀-尼科尔森 Clementine Nicholson (id:1368701)
       戴维·鲍尔斯 David Bowles (id:1332233)
       布莱恩·卡斯佩 Brian Caspe (id:1185866)
       艾丽西娅·维拉-贝利 Alicia Vela-Bailey (id:1310160)
       卡尔·沃尔特·林登 Karl Walter Lindenlaub (id:1018702)
       劳伦·哈达威 Lauren Hadaway (id:1465281)

◎简  介
  同时拥有狼族和血族两种血统的孩子伊薇成为了狼族和血族两大族群争相抢夺的对象,为了保护女儿的安全,母亲赛琳娜(凯特·贝金赛尔 Kate Beckinsale 饰)不得不带着伊薇过着东躲西藏的日子。崇尚暴力心狠手辣的玛瑞斯(托比亚斯·门基斯 Tobias Menzies 饰)成为了狼族新的首领,刚一上任,他便派出爪牙对血族进行了疯狂的围剿,血族的多处基地被狼族占领,情势岌岌可危。                                    
                                吸血鬼长老塞米拉(劳拉·普沃 Lara Pulver 饰)希望能够赦免赛琳娜的放逐,让她从新回到血族阵营,帮助训练吸血鬼战士对抗狼族。最终,赛琳娜回归了。可是,这群吸血鬼们实际上有着另外的算盘,那就是得到赛琳娜的血。
  1. ##### MediaInfo ######
  2. General
  3. Unique ID                                : 221573841511810468241021589082259336906 (0xA6B191D3034ADACFAA416E343EBC2ECA)
  4. Complete name                            : 黑夜传说5:血战.Underworld.Blood.Wars.2016.BluRay.1080p.x265.10bit.HDR-MiniHD.mkv
  5. Format                                   : Matroska
  6. Format version                           : Version 4
  7. File size                                : 1.63 GiB
  8. Duration                                 : 1 h 31 min
  9. Overall bit rate                         : 2 552 kb/s
  10. Encoded date                             : UTC 2017-12-15 15:10:35
  11. Writing application                      : mkvmerge v17.0.0 ('Be Ur Friend') 64-bit
  12. Writing library                          : libebml v1.3.5 + libmatroska v1.4.8
  13. Video
  14. ID                                       : 1
  15. Format                                   : HEVC
  16. Format/Info                              : High Efficiency Video Coding
  17. Format profile                           : Main 10@L5.1@High
  18. HDR format                               : SMPTE ST 2086, HDR10 compatible
  19. Codec ID                                 : V_MPEGH/ISO/HEVC
  20. Duration                                 : 1 h 31 min
  21. Bit rate                                 : 1 866 kb/s
  22. Width                                    : 1 920 pixels
  23. Height                                   : 800 pixels
  24. Display aspect ratio                     : 2.40:1
  25. Frame rate mode                          : Constant
  26. Frame rate                               : 23.976 (24000/1001/53354) FPS
  27. Color space                              : YUV
  28. Chroma subsampling                       : 4:2:0 (Type 2)
  29. Bit depth                                : 10 bits
  30. Bits/(Pixel*Frame)                       : 0.051
  31. Stream size                              : 1.19 GiB (73%)
  32. Writing library                          : x265 2.5+27-0e168bdeb48b:[Windows][MSVC 1911][64 bit] 10bit
  33. Encoding settings                        : cpuid=533541050111 / frame-threads=4 / numa-pools=-,* / wpp / no-pmode / no-pme / no-psnr / no-ssim / log-level=2 / csvfn=D:\x265-workspace\output\Underworld.Blood.Wars\00001.1080.csv / csv-log-level=0 / input-csp=1 / input-res=1920x800 / interlace=0 / total-frames=0 / level-idc=51 / high-tier=1 / uhd-bd=0 / ref=5 / no-allow-non-conformance / repeat-headers / annexb / aud / hrd / info / hash=0 / no-temporal-layers / no-open-gop / min-keyint=1 / keyint=360 / bframes=9 / b-adapt=2 / b-pyramid / bframe-bias=0 / rc-lookahead=60 / lookahead-slices=4 / NTMzNTQ=uuDQuD2mJt9fsCf / scenecut=40 / no-intra-refresh / ctu=32 / min-cu-size=8 / no-rect / no-amp / max-tu-size=32 / tu-inter-depth=2 / tu-intra-depth=2 / limit-tu=3 / rdoq-level=2 / dynamic-rd=0.00 / ssim-rd / signhide / no-tskip / nr-intra=0 / nr-inter=0 / no-constrained-intra / no-strong-intra-smoothing / max-merge=3 / limit-refs=2 / limit-modes / me=3 / subme=5 / merange=25 / temporal-mvp / weightp / weightb / no-analyze-src-pics / deblock=-1:-1 / no-sao / no-sao-non-deblock / rd=4 / no-early-skip / no-rskip / no-fast-intra / no-tskip-fast / no-cu-lossless / b-intra / no-splitrd-skip / rdpenalty=1 / psy-rd=0.00 / psy-rdoq=8.00 / no-rd-refine / analysis-reuse-mode=0 / no-lossless / cbqpoffs=-2 / crqpoffs=-2 / rc=crf / crf=17.0 / qcomp=0.75 / qpstep=4 / stats-write=0 / stats-read=0 / vbv-maxrate=100000 / vbv-bufsize=100000 / vbv-init=0.9 / crf-max=0.0 / crf-min=0.0 / ipratio=1.30 / pbratio=1.20 / aq-mode=3 / aq-strength=0.90 / cutree / zone-count=0 / no-strict-cbr / qg-size=32 / no-rc-grain / qpmax=69 / qpmin=0 / no-const-vbv / sar=0 / overscan=0 / videoformat=5 / range=0 / colorprim=9 / transfer=16 / colormatrix=9 / chromaloc=1 / chromaloc-top=2 / chromaloc-bottom=2 / display-window=0 / master-display=G(13250,34500)B(7500,3000)R(34000,16000)WP(15635,16450)L(40000000,50) / max-cll=557,191 / min-luma=0 / max-luma=1023 / log2-max-poc-lsb=8 / vui-timing-info / vui-hrd-info / slices=1 / opt-qp-pps / opt-ref-list-length-pps / no-multi-pass-opt-rps / scenecut-bias=0.05 / no-opt-cu-delta-qp / no-aq-motion / hdr / hdr-opt / no-dhdr10-opt / analysis-reuse-level=5 / scale-factor=0 / refine-intra=0 / refine-inter=0 / refine-mv=0 / no-limit-sao / ctu-info=0
  34. Default                                  : Yes
  35. Forced                                   : No
  36. Color range                              : Limited
  37. Color primaries                          : BT.2020
  38. Transfer characteristics                 : PQ
  39. Matrix coefficients                      : BT.2020 non-constant
  40. Mastering display color primaries        : Display P3
  41. Mastering display luminance              : min: 0.0050 cd/m2, max: 4000 cd/m2
  42. Maximum Content Light Level              : 557 cd/m2
  43. Maximum Frame-Average Light Level        : 191 cd/m2
  44. Audio
  45. ID                                       : 2
  46. Format                                   : AC-3
  47. Format/Info                              : Audio Coding 3
  48. Commercial name                          : Dolby Digital
  49. Codec ID                                 : A_AC3
  50. Duration                                 : 1 h 31 min
  51. Bit rate mode                            : Constant
  52. Bit rate                                 : 640 kb/s
  53. Channel(s)                               : 6 channels
  54. Channel layout                           : L R C LFE Ls Rs
  55. Sampling rate                            : 48.0 kHz
  56. Frame rate                               : 31.250 FPS (1536 SPF)
  57. Compression mode                         : Lossy
  58. Stream size                              : 419 MiB (25%)
  59. Title                                    : 英语 AC-3
  60. Language                                 : English
  61. Service kind                             : Complete Main
  62. Default                                  : Yes
  63. Forced                                   : No
  64. Text #1
  65. ID                                       : 3
  66. Format                                   : PGS
  67. Muxing mode                              : zlib
  68. Codec ID                                 : S_HDMV/PGS
  69. Codec ID/Info                            : Picture based subtitle format used on BDs/HD-DVDs
  70. Duration                                 : 1 h 30 min
  71. Bit rate                                 : 28.4 kb/s
  72. Count of elements                        : 2127
  73. Stream size                              : 18.4 MiB (1%)
  74. Title                                    : 英文
  75. Language                                 : English
  76. Default                                  : Yes
  77. Forced                                   : No
  78. Text #2
  79. ID                                       : 4
  80. Format                                   : PGS
  81. Muxing mode                              : zlib
  82. Codec ID                                 : S_HDMV/PGS
  83. Codec ID/Info                            : Picture based subtitle format used on BDs/HD-DVDs
  84. Duration                                 : 1 h 21 min
  85. Bit rate                                 : 39.5 kb/s
  86. Count of elements                        : 1551
  87. Stream size                              : 23.0 MiB (1%)
  88. Title                                    : 特效简英双语
  89. Language                                 : Chinese
  90. Default                                  : No
  91. Forced                                   : No
  92. Text #3
  93. ID                                       : 5
  94. Format                                   : PGS
  95. Muxing mode                              : zlib
  96. Codec ID                                 : S_HDMV/PGS
  97. Codec ID/Info                            : Picture based subtitle format used on BDs/HD-DVDs
  98. Duration                                 : 1 h 30 min
  99. Bit rate                                 : 25.7 kb/s
  100. Count of elements                        : 1633
  101. Stream size                              : 16.6 MiB (1%)
  102. Title                                    : 简体中文
  103. Language                                 : Chinese
  104. Default                                  : No
  105. Forced                                   : No





此处一般会放置磁力链或种子下载链接,不过此链接需要注册会员才能看到,点击“立即注册”
磁力链下载【下载链接仅对注册会员开放,登陆后可见】
BT9527电影天堂 1、BT9527电影天堂提供的BT文件均来源于互联网抓取,只供网友学习交流、技术提升使用。
2、我们遵守BitTorrent点对点协议原则,任何版权问题请联系原资源发布商,我们不处理任何版权纠纷,谢谢!如有争议请联系邮箱:BT9527#hotmail.com(#换成@)
3、如果您发现某页面或地址有错误,请联系站长邮箱BT9527#hotmail.com(#换成@),我们会尽快处理。您的热心是对BT9527电影天堂最大的支持。
4、本站建议去正规影院观看电影以支持电影行业发展。
最新回复 (0)

你可以在 登录 or 注册 后,对此帖发表评论!

返回
发新帖