黄金时代[中英字幕].The.Best.Years.of.Our.Lives.1946.BluRay.1080p.x265.10bit-MiniHD 9.60GB

版主小s 18天前 39

✔资源类型:暂未分类   ✔电影年份:更 早   ✔电影地区:欧美   ✔电影分类:剧情

◎译  名 黄金时代 / 我们生活的美好时代
◎片  名 The Best Years of Our Lives
◎年  代 1946
◎产  地 美国
◎类  别 剧情 / 爱情 / 战争
◎语  言 英语
◎上映日期 1946-11-21
◎IMDb链接 https://www.imdb.com/title/tt0036868/
◎豆瓣评分 8.2/10 (5091人评价)
◎豆瓣链接 https://movie.douban.com/subject/1294100/
◎片  长 172 分钟
◎导  演 威廉·惠勒 William Wyler (id:1010691)
◎编  剧 罗伯特·E·舍伍德 Robert E. Sherwood (id:1001179)
◎演  员 玛娜·洛伊 Myrna Loy (id:1025266)
       弗雷德里克·马奇 Fredric March (id:1049865)
       达纳·安德鲁斯 Dana Andrews (id:1014034)
       特雷莎·怀特 Teresa Wright (id:1040774)
       弗吉尼亚·梅奥 Virginia Mayo (id:1036679)
       凯茜·奥唐内 Cathy O'Donnell (id:1013699)
       霍基·卡迈尔克 Hoagy Carmichael (id:1041348)
       哈罗德·拉塞尔 Harold Russell (id:1014206)
       阿梅莉塔·沃德 Amelita Ward (id:1469677)
       格雷格·托兰德 Gregg Toland (id:1018544)

◎简  介
  故事发生在1945年,弗雷德(达纳·安德鲁斯 Dana Andrews 饰),艾尔(弗雷德里克·马奇 Fredric March 饰)和霍莫(哈罗德·拉塞尔 Harold Russell 饰)是三名刚刚走下战场的军人,即将回到久违的家乡,即将见到久别的亲人,虽然三人的境遇各不相同,但内心中的激动和忐忑却别无二致,分别在即,他么许下了再相聚的约定。                                    
                                丈夫艾尔的平安归来让米莉(玛娜·洛伊 Myrna Loy 饰)的内心陷入狂喜久久不能平静,带着已经长大成人的一双儿女,四口之家的未来幸福而又光明。弗雷德就没有这么幸运了,不仅父母的状况不容乐观,新婚的妻子也风流成性夜夜出没于欢场之中。对于霍莫来说,战争给自己带来的残疾成为了压在亲人和爱人肩上的重担,在自责和悔恨中,他终日闷闷不乐。约定的日子很快就到来了,此时的三人尚不知,这一次再会即将改变他们的命运。

◎获奖情况 (共11项)
  第19届奥斯卡金像奖 (1947)
  最佳影片
  最佳导演
   └──威廉·惠勒 (id:1010691)
  最佳男主角
   └──弗雷德里克·马奇 (id:1049865)
  最佳男配角
   └──哈罗德·拉塞尔 (id:1014206)
  最佳编剧
   └──罗伯特·E·舍伍德 (id:1001179)
  最佳剪辑
   └──丹尼尔·曼戴尔 (id:1012708)
  最佳录音(提名)
   └──戈登·索耶尔 (id:1146400)
  剧情/喜剧片最佳配乐
   └──雨果·弗里德霍弗 (id:1048482)
  终身成就奖
   └──哈罗德·拉塞尔 (id:1014206)

  第4届金球奖 (1947)
  电影类 最佳剧情片
   └──威廉·惠勒 (id:1010691)
  特别成就奖
   └──哈罗德·拉塞尔 (id:1014206)

  1. ##### MediaInfo ######
  2. General
  3. Unique ID                                : 181994397907682588413652984276625139705 (0x88EAD897A8605779AB05F04FF1FC27F9)
  4. Complete name                            : The.Best.Years.of.Our.Lives.1946.BluRay.1080p.x265.10bit-MiniHD.mkv
  5. Format                                   : Matroska
  6. Format version                           : Version 4
  7. File size                                : 9.60 GiB
  8. Duration                                 : 2 h 50 min
  9. Overall bit rate                         : 8 081 kb/s
  10. Encoded date                             : UTC 2017-08-18 11:09:16
  11. Writing application                      : mkvmerge v11.0.0 ('Alive') 64bit
  12. Writing library                          : libebml v1.3.4 + libmatroska v1.4.5
  13. Video
  14. ID                                       : 1
  15. Format                                   : HEVC
  16. Format/Info                              : High Efficiency Video Coding
  17. Codec ID                                 : V_MPEGH/ISO/HEVC
  18. Duration                                 : 2 h 50 min
  19. Bit rate                                 : 7 600 kb/s
  20. Width                                    : 1 480 pixels
  21. Height                                   : 1 080 pixels
  22. Display aspect ratio                     : 1.370
  23. Frame rate mode                          : Constant
  24. Frame rate                               : 23.976 (24000/1001/53354) FPS
  25. Bits/(Pixel*Frame)                       : 0.198
  26. Stream size                              : 9.03 GiB (94%)
  27. Default                                  : Yes
  28. Forced                                   : No
  29. Audio
  30. ID                                       : 2
  31. Format                                   : AC-3
  32. Format/Info                              : Audio Coding 3
  33. Commercial name                          : Dolby Digital
  34. Codec ID                                 : A_AC3
  35. Duration                                 : 2 h 50 min
  36. Bit rate mode                            : Constant
  37. Bit rate                                 : 320 kb/s
  38. Channel(s)                               : 1 channel
  39. Channel layout                           : C
  40. Sampling rate                            : 48.0 kHz
  41. Frame rate                               : 31.250 FPS (1536 SPF)
  42. Compression mode                         : Lossy
  43. Stream size                              : 389 MiB (4%)
  44. Language                                 : English
  45. Service kind                             : Complete Main
  46. Default                                  : Yes
  47. Forced                                   : No
  48. Text #1
  49. ID                                       : 3
  50. Format                                   : PGS
  51. Muxing mode                              : zlib
  52. Codec ID                                 : S_HDMV/PGS
  53. Codec ID/Info                            : Picture based subtitle format used on BDs/HD-DVDs
  54. Language                                 : English
  55. Default                                  : Yes
  56. Forced                                   : No
  57. Text #2
  58. ID                                       : 4
  59. Format                                   : PGS
  60. Muxing mode                              : zlib
  61. Codec ID                                 : S_HDMV/PGS
  62. Codec ID/Info                            : Picture based subtitle format used on BDs/HD-DVDs
  63. Language                                 : Chinese
  64. Default                                  : No
  65. Forced                                   : No
  66. Text #3
  67. ID                                       : 5
  68. Format                                   : PGS
  69. Muxing mode                              : zlib
  70. Codec ID                                 : S_HDMV/PGS
  71. Codec ID/Info                            : Picture based subtitle format used on BDs/HD-DVDs
  72. Language                                 : Chinese
  73. Default                                  : No
  74. Forced                                   : No
  75. Menu
  76. 00:00:00.000                             : en:Chapter 01
  77. 00:01:05.732                             : en:Chapter 02
  78. 00:05:52.018                             : en:Chapter 03
  79. 00:12:01.929                             : en:Chapter 04
  80. 00:15:19.877                             : en:Chapter 05
  81. 00:17:12.197                             : en:Chapter 06
  82. 00:22:52.496                             : en:Chapter 07
  83. 00:25:12.719                             : en:Chapter 08
  84. 00:31:37.604                             : en:Chapter 09
  85. 00:34:07.003                             : en:Chapter 10
  86. 00:37:58.442                             : en:Chapter 11
  87. 00:40:11.242                             : en:Chapter 12
  88. 00:44:32.878                             : en:Chapter 13
  89. 00:50:14.761                             : en:Chapter 14
  90. 00:53:54.064                             : en:Chapter 15
  91. 01:00:29.459                             : en:Chapter 16
  92. 01:03:00.318                             : en:Chapter 17
  93. 01:08:05.498                             : en:Chapter 18
  94. 01:13:01.001                             : en:Chapter 19
  95. 01:19:21.757                             : en:Chapter 20
  96. 01:23:14.614                             : en:Chapter 21
  97. 01:31:18.473                             : en:Chapter 22
  98. 01:34:33.417                             : en:Chapter 23
  99. 01:40:03.414                             : en:Chapter 24
  100. 01:44:20.963                             : en:Chapter 25
  101. 01:47:29.234                             : en:Chapter 26
  102. 01:52:08.555                             : en:Chapter 27
  103. 01:56:07.669                             : en:Chapter 28
  104. 02:01:05.883                             : en:Chapter 29
  105. 02:05:50.042                             : en:Chapter 30
  106. 02:09:33.932                             : en:Chapter 31
  107. 02:12:57.094                             : en:Chapter 32
  108. 02:17:36.164                             : en:Chapter 33
  109. 02:28:52.048                             : en:Chapter 34
  110. 02:34:54.910                             : en:Chapter 35
  111. 02:40:38.462                             : en:Chapter 36





此处一般会放置磁力链或种子下载链接,不过此链接需要注册会员才能看到,点击“立即注册”
磁力链下载【下载链接仅对注册会员开放,登陆后可见】
BT9527电影天堂 1、BT9527电影天堂提供的BT文件均来源于互联网抓取,只供网友学习交流、技术提升使用。
2、我们遵守BitTorrent点对点协议原则,任何版权问题请联系原资源发布商,我们不处理任何版权纠纷,谢谢!如有争议请联系邮箱:BT9527#hotmail.com(#换成@)
3、如果您发现某页面或地址有错误,请联系站长邮箱BT9527#hotmail.com(#换成@),我们会尽快处理。您的热心是对BT9527电影天堂最大的支持。
4、本站建议去正规影院观看电影以支持电影行业发展。
最新回复 (0)

你可以在 登录 or 注册 后,对此帖发表评论!

返回
发新帖