鬼玩人[中英字幕].Evil.Dead.2013.BluRay.1080p.x265.10bit-MiniHD 5.31GB

版主小s 3月前 153

✔资源类型:暂未分类   ✔电影年份:2013   ✔电影地区:欧美   ✔电影分类:惊悚

◎标  题 鬼玩人
◎译  名 尸变(台) / 鬼玩人4
◎片  名 Evil Dead
◎年  代 2013
◎产  地 美国
◎类  别 惊悚 / 恐怖
◎语  言 英语
◎上映日期 2013年4月5日
◎IMDb评分 6.5/10 (161926人评价)
◎IMDb链接 https://www.imdb.com/title/tt1288558/
◎豆瓣评分 6.6/10 (12890人评价)
◎豆瓣链接 https://movie.douban.com/subject/3212400/
◎片  长 91 分钟
◎导  演 费德·阿尔瓦雷兹
◎编  剧 费德·阿尔瓦雷兹
       迪亚波罗·科蒂
       罗多·赛亚格斯
◎演  员 简·利维
       希罗·弗南德兹
       杰西卡·卢卡斯
       卢·泰勒·普奇
       伊丽莎白·布莱克摩尔
       Rupert Degas
       布鲁斯·坎贝尔

◎简  介
  和善的青年大卫(希罗·弗南德兹 Shiloh Fernandez 饰)带着久未谋面且饱受毒瘾困扰的妹妹米娅(简·拉维 Jane Levy 饰)以及娜塔莉(伊丽莎白·布莱克摩尔 Elizabeth Blackmore 饰)、艾瑞克(卢·泰勒·普奇 Lou Taylor Pucci 饰)、奥莉维亚(杰西卡·卢卡斯 Jessica Lucas 饰)等朋友,驱车来到了一处偏远幽静的所在,展开了米娅痛苦的戒毒之旅。夜晚,他们在空无一人的小木屋内发现了一个弥漫着浓重尸臭的地下室以及一本散发着不祥气息的书。艾瑞克按捺不住心中的好奇,解除了这本书的封印。
                                    
                                当他念出了书中一个个禁忌的名字时,魔鬼相继聚集在木屋的周围。仿佛永无止境的噩梦,降临在他们每一个人的脑海之中……
  1. ##### MediaInfo ######
  2. General
  3. Unique ID                                : 242095725320599432184631687364073375997 (0xB621F0D06CBAF878B2817DBA859248FD)
  4. Complete name                            : Evil.Dead.2013.BluRay.1080p.x265.10bit-MiniHD.mkv
  5. Format                                   : Matroska
  6. Format version                           : Version 4
  7. File size                                : 5.31 GiB
  8. Duration                                 : 1 h 31 min
  9. Overall bit rate                         : 8 329 kb/s
  10. Encoded date                             : UTC 2017-04-07 18:33:07
  11. Writing application                      : mkvmerge v9.7.1 ('Pandemonium') 64bit
  12. Writing library                          : libebml v1.3.4 + libmatroska v1.4.5
  13. Video
  14. ID                                       : 1
  15. Format                                   : HEVC
  16. Format/Info                              : High Efficiency Video Coding
  17. Format profile                           : Main 10@L4@Main
  18. Codec ID                                 : V_MPEGH/ISO/HEVC
  19. Duration                                 : 1 h 31 min
  20. Bit rate                                 : 7 653 kb/s
  21. Width                                    : 1 920 pixels
  22. Height                                   : 804 pixels
  23. Display aspect ratio                     : 2.40:1
  24. Frame rate mode                          : Constant
  25. Frame rate                               : 23.976 (24000/1001/53354) FPS
  26. Color space                              : YUV
  27. Chroma subsampling                       : 4:2:0
  28. Bit depth                                : 10 bits
  29. Bits/(Pixel*Frame)                       : 0.207
  30. Stream size                              : 4.88 GiB (92%)
  31. Writing library                          : x265 2.3+24-a0eee4b41185:[Windows][GCC 6.3.0][64 bit] 10bit
  32. Encoding settings                        : cpuid=533541173503 / frame-threads=6 / numa-pools=36 / wpp / no-pmode / no-pme / no-psnr / no-ssim / log-level=2 / input-csp=1 / input-res=1920x804 / interlace=0 / total-frames=131351 / level-idc=0 / high-tier=1 / uhd-bd=0 / ref=5 / no-allow-non-conformance / no-repeat-headers / annexb / no-aud / no-hrd / info / hash=0 / no-temporal-layers / no-open-gop / min-keyint=1 / keyint=360 / bframes=8 / b-adapt=2 / b-pyramid / bframe-bias=0 / rc-lookahead=60 / lookahead-slices=4 / NTMzNTQ=uuDQuD2mJt9fsCf / scenecut=40 / no-intra-refresh / ctu=32 / min-cu-size=8 / rect / no-amp / max-tu-size=16 / tu-inter-depth=2 / tu-intra-depth=2 / limit-tu=4 / rdoq-level=2 / dynamic-rd=0.00 / signhide / no-tskip / nr-intra=0 / nr-inter=0 / no-constrained-intra / no-strong-intra-smoothing / max-merge=3 / limit-refs=2 / limit-modes / me=3 / subme=5 / merange=25 / temporal-mvp / weightp / weightb / no-analyze-src-pics / deblock=-1:-1 / no-sao / no-sao-non-deblock / rd=4 / no-early-skip / rskip / no-fast-intra / no-tskip-fast / no-cu-lossless / b-intra / rdpenalty=1 / psy-rd=0.00 / psy-rdoq=5.00 / no-rd-refine / analysis-mode=0 / no-lossless / cbqpoffs=-2 / crqpoffs=-2 / rc=crf / crf=18.0 / qcomp=0.70 / qpstep=4 / stats-write=0 / stats-read=0 / ipratio=1.40 / pbratio=1.30 / aq-mode=3 / aq-strength=0.80 / cutree / zone-count=0 / no-strict-cbr / qg-size=16 / no-rc-grain / qpmax=69 / qpmin=0 / sar=0 / overscan=0 / videoformat=5 / range=0 / colorprim=1 / transfer=2 / colormatrix=2 / chromaloc=0 / display-window=0 / max-cll=0,0 / min-luma=0 / max-luma=1023 / log2-max-poc-lsb=8 / vui-timing-info / vui-hrd-info / slices=1 / opt-qp-pps / opt-ref-list-length-pps / no-multi-pass-opt-rps / scenecut-bias=0.05 / no-opt-cu-delta-qp / no-aq-motion / no-hdr / no-hdr-opt / refine-level=5
  33. Default                                  : Yes
  34. Forced                                   : No
  35. Color range                              : Limited
  36. Color primaries                          : BT.709
  37. Audio
  38. ID                                       : 2
  39. Format                                   : AC-3
  40. Format/Info                              : Audio Coding 3
  41. Commercial name                          : Dolby Digital
  42. Codec ID                                 : A_AC3
  43. Duration                                 : 1 h 31 min
  44. Bit rate mode                            : Constant
  45. Bit rate                                 : 640 kb/s
  46. Channel(s)                               : 6 channels
  47. Channel layout                           : L R C LFE Ls Rs
  48. Sampling rate                            : 48.0 kHz
  49. Frame rate                               : 31.250 FPS (1536 SPF)
  50. Compression mode                         : Lossy
  51. Stream size                              : 418 MiB (8%)
  52. Language                                 : English
  53. Service kind                             : Complete Main
  54. Default                                  : Yes
  55. Forced                                   : No
  56. Text #1
  57. ID                                       : 3
  58. Format                                   : PGS
  59. Muxing mode                              : zlib
  60. Codec ID                                 : S_HDMV/PGS
  61. Codec ID/Info                            : Picture based subtitle format used on BDs/HD-DVDs
  62. Duration                                 : 1 h 28 min
  63. Bit rate                                 : 8 372 b/s
  64. Count of elements                        : 1326
  65. Stream size                              : 5.33 MiB (0%)
  66. Language                                 : English
  67. Default                                  : Yes
  68. Forced                                   : No
  69. Text #2
  70. ID                                       : 4
  71. Format                                   : PGS
  72. Muxing mode                              : zlib
  73. Codec ID                                 : S_HDMV/PGS
  74. Codec ID/Info                            : Picture based subtitle format used on BDs/HD-DVDs
  75. Duration                                 : 1 h 21 min
  76. Bit rate                                 : 7 230 b/s
  77. Count of elements                        : 1140
  78. Stream size                              : 4.22 MiB (0%)
  79. Language                                 : Chinese
  80. Default                                  : No
  81. Forced                                   : No
  82. Text #3
  83. ID                                       : 5
  84. Format                                   : PGS
  85. Muxing mode                              : zlib
  86. Codec ID                                 : S_HDMV/PGS
  87. Codec ID/Info                            : Picture based subtitle format used on BDs/HD-DVDs
  88. Duration                                 : 1 h 21 min
  89. Bit rate                                 : 7 486 b/s
  90. Count of elements                        : 1140
  91. Stream size                              : 4.36 MiB (0%)
  92. Language                                 : Chinese
  93. Default                                  : No
  94. Forced                                   : No
  95. Text #4
  96. ID                                       : 6
  97. Format                                   : PGS
  98. Muxing mode                              : zlib
  99. Codec ID                                 : S_HDMV/PGS
  100. Codec ID/Info                            : Picture based subtitle format used on BDs/HD-DVDs
  101. Duration                                 : 1 h 21 min
  102. Bit rate                                 : 7 230 b/s
  103. Count of elements                        : 1140
  104. Stream size                              : 4.22 MiB (0%)
  105. Language                                 : Chinese
  106. Default                                  : No
  107. Forced                                   : No
  108. Text #5
  109. ID                                       : 7
  110. Format                                   : PGS
  111. Muxing mode                              : zlib
  112. Codec ID                                 : S_HDMV/PGS
  113. Codec ID/Info                            : Picture based subtitle format used on BDs/HD-DVDs
  114. Duration                                 : 1 h 21 min
  115. Bit rate                                 : 7 486 b/s
  116. Count of elements                        : 1140
  117. Stream size                              : 4.36 MiB (0%)
  118. Language                                 : Chinese
  119. Default                                  : No
  120. Forced                                   : No
  121. Menu
  122. 00:00:00.000                             : en:00:00:00.000
  123. 00:05:10.310                             : en:00:05:10.310
  124. 00:09:46.085                             : en:00:09:46.085
  125. 00:14:24.030                             : en:00:14:24.030
  126. 00:18:34.030                             : en:00:18:34.030
  127. 00:23:14.310                             : en:00:23:14.310
  128. 00:30:38.045                             : en:00:30:38.045
  129. 00:35:34.799                             : en:00:35:34.799
  130. 00:40:36.476                             : en:00:40:36.476
  131. 00:49:43.480                             : en:00:49:43.480
  132. 00:55:24.238                             : en:00:55:24.238
  133. 01:01:35.191                             : en:01:01:35.191
  134. 01:08:35.778                             : en:01:08:35.778
  135. 01:14:05.983                             : en:01:14:05.983
  136. 01:17:24.974                             : en:01:17:24.974
  137. 01:20:36.248                             : en:01:20:36.248





此处一般会放置磁力链或种子下载链接,不过此链接需要注册会员才能看到,点击“立即注册”
磁力链下载【下载链接仅对注册会员开放,登陆后可见】
BT9527电影天堂 1、BT9527电影天堂提供的BT文件均来源于互联网抓取,只供网友学习交流、技术提升使用。
2、我们遵守BitTorrent点对点协议原则,任何版权问题请联系原资源发布商,我们不处理任何版权纠纷,谢谢!如有争议请联系邮箱:BT9527#hotmail.com(#换成@)
3、如果您发现某页面或地址有错误,请联系站长邮箱BT9527#hotmail.com(#换成@),我们会尽快处理。您的热心是对BT9527电影天堂最大的支持。
4、本站建议去正规影院观看电影以支持电影行业发展。
最新回复 (0)

你可以在 登录 or 注册 后,对此帖发表评论!

返回
发新帖