鬼玩人3:魔界英豪[中英字幕].Army.of.Darkness.1992.BluRay.1080p.x265.10bit-MiniHD 5.25GB

版主小s 9天前 41

✔资源类型:暂未分类   ✔电影年份:更 早   ✔电影地区:欧美   ✔电影分类:喜剧

◎译  名 鬼玩人3:魔界英豪 / Army of Darkness / 人玩鬼3:魔界英豪 / 黑暗军团 / Bruce Campbell vs. Army of Darkness
◎片  名 Army of Darkness
◎年  代 1992
◎产  地 美国
◎类  别 喜剧 / 恐怖 / 奇幻
◎语  言 英语
◎上映日期 1993-02-11
◎IMDb链接 https://www.imdb.com/title/tt0106308/
◎豆瓣评分 6.9/10 (6573人评价)
◎豆瓣链接 https://movie.douban.com/subject/1299111/
◎片  长 81 分钟
◎导  演 山姆·雷米 Sam Raimi (id:1027159)
◎编  剧 山姆·雷米 Sam Raimi (id:1027159)
       伊万·莱米 Ivan Raimi (id:1360211)
◎演  员 布鲁斯·坎贝尔 Bruce Campbell (id:1069816)
       艾伯丝·戴维兹 Embeth Davidtz (id:1022626)
       马库斯·吉尔伯特 Marcus Gilbert (id:1313390)
       伊安·艾伯克龙比 Ian Abercrombie (id:1047962)
       泰德·雷米 Ted Raimi (id:1036535)
       布里吉特·芳达 Bridget Fonda (id:1006987)
       布鲁斯·托马斯 Bruce Thomas (id:1045090)
       帕特里夏·塔尔曼 Patricia Tallman (id:1159923)
       德克-安德森 Deke Anderson (id:1057900)
       Shiva Gordon Shiva Gordon (id:1102315)
       理查德·格里夫 Richard Grove (id:1452466)
       布里奇特·霍夫曼 Bridget Hoffman (id:1419993)
       约瑟夫·洛杜卡 Joseph LoDuca (id:1276600)
       丹尼·艾夫曼 Danny Elfman (id:1019059)
       比尔·波普 Bill Pope (id:1018460)
       山姆·雷米 Sam Raimi (id:1027159)
       Anthony Tremblay Anthony Tremblay (id:1299494)
       Jeri Baker Jeri Baker (id:1277731)
       托尼·加德纳 Tony Gardner (id:1284564)
       卡米尔·卡尔维 Camille Calvet (id:1279914)
       霍华德·伯杰 Howard Berger (id:1278442)
       威廉·梅萨 William Mesa (id:1291905)
       Tom Sullivan Tom Sullivan (id:1298641)
       Eugene P. Rizzardi Eugene P. Rizzardi (id:1295729)
       罗伯特·哈布罗斯 Robert Habros (id:1285756)

◎简  介
  美国青年艾许(布鲁斯?坎贝尔 Bruce Campbell 饰)在和女友琳达(布丽切特?方达 Bridget Fonda 饰)度假时,偶然发现一本《死亡之书》。书中记载各种神秘的丧葬风俗以及招魂仪式,更为诡异恐怖的是,这本不应该存在于人间的书具有十分强大和邪恶的魔力。为与之斗争,艾许失去了女友和自己的右手,但最后还是体力不支,被《死亡之书》带到600年前的中世纪。他奇怪的穿着一度被骑士们当作间谍抓起来,经过一番波折,艾许决定帮国王打败《死亡之书》幻化出来的怪兽,这也是他回到现代社会的唯一办法……                                    
                                本片荣获1993年布鲁塞尔奇幻电影节金鸦奖、1993年葡萄牙奇幻电影节影评人奖、1994年美国科幻恐怖电影学院土星奖最佳恐怖片。
  1. ##### MediaInfo ######
  2. General
  3. Unique ID                                : 180125968459734497160906001978063395891 (0x8782FFE886FE86349D0DB8D91D651C33)
  4. Complete name                            : Army.of.Darkness.1992.BluRay.1080p.x265.10bit-MiniHD.mkv
  5. Format                                   : Matroska
  6. Format version                           : Version 4
  7. File size                                : 5.25 GiB
  8. Duration                                 : 1 h 20 min
  9. Overall bit rate                         : 9 296 kb/s
  10. Encoded date                             : UTC 2017-04-07 18:08:37
  11. Writing application                      : mkvmerge v9.7.1 ('Pandemonium') 64bit
  12. Writing library                          : libebml v1.3.4 + libmatroska v1.4.5
  13. Video
  14. ID                                       : 1
  15. Format                                   : HEVC
  16. Format/Info                              : High Efficiency Video Coding
  17. Format profile                           : Main 10@L4@Main
  18. Codec ID                                 : V_MPEGH/ISO/HEVC
  19. Duration                                 : 1 h 20 min
  20. Bit rate                                 : 8 471 kb/s
  21. Width                                    : 1 920 pixels
  22. Height                                   : 1 040 pixels
  23. Display aspect ratio                     : 1.85:1
  24. Frame rate mode                          : Constant
  25. Frame rate                               : 23.976 (24000/1001/53354) FPS
  26. Color space                              : YUV
  27. Chroma subsampling                       : 4:2:0
  28. Bit depth                                : 10 bits
  29. Bits/(Pixel*Frame)                       : 0.177
  30. Stream size                              : 4.79 GiB (91%)
  31. Writing library                          : x265 2.3+24-a0eee4b41185:[Windows][GCC 6.3.0][64 bit] 10bit
  32. Encoding settings                        : cpuid=533541173503 / frame-threads=6 / numa-pools=36 / wpp / no-pmode / no-pme / no-psnr / no-ssim / log-level=2 / input-csp=1 / input-res=1920x1040 / interlace=0 / total-frames=116373 / level-idc=0 / high-tier=1 / uhd-bd=0 / ref=5 / no-allow-non-conformance / no-repeat-headers / annexb / no-aud / no-hrd / info / hash=0 / no-temporal-layers / no-open-gop / min-keyint=1 / keyint=360 / bframes=8 / b-adapt=2 / b-pyramid / bframe-bias=0 / rc-lookahead=60 / lookahead-slices=4 / NTMzNTQ=uuDQuD2mJt9fsCf / scenecut=40 / no-intra-refresh / ctu=32 / min-cu-size=8 / rect / no-amp / max-tu-size=16 / tu-inter-depth=2 / tu-intra-depth=2 / limit-tu=4 / rdoq-level=2 / dynamic-rd=0.00 / signhide / no-tskip / nr-intra=0 / nr-inter=0 / no-constrained-intra / no-strong-intra-smoothing / max-merge=3 / limit-refs=2 / limit-modes / me=3 / subme=5 / merange=25 / temporal-mvp / weightp / weightb / no-analyze-src-pics / deblock=-1:-1 / no-sao / no-sao-non-deblock / rd=4 / no-early-skip / rskip / no-fast-intra / no-tskip-fast / no-cu-lossless / b-intra / rdpenalty=1 / psy-rd=0.00 / psy-rdoq=5.00 / no-rd-refine / analysis-mode=0 / no-lossless / cbqpoffs=-2 / crqpoffs=-2 / rc=crf / crf=22.0 / qcomp=0.70 / qpstep=4 / stats-write=0 / stats-read=0 / ipratio=1.40 / pbratio=1.30 / aq-mode=1 / aq-strength=0.80 / cutree / zone-count=0 / no-strict-cbr / qg-size=16 / no-rc-grain / qpmax=69 / qpmin=0 / sar=0 / overscan=0 / videoformat=5 / range=0 / colorprim=1 / transfer=2 / colormatrix=2 / chromaloc=0 / display-window=0 / max-cll=0,0 / min-luma=0 / max-luma=1023 / log2-max-poc-lsb=8 / vui-timing-info / vui-hrd-info / slices=1 / opt-qp-pps / opt-ref-list-length-pps / no-multi-pass-opt-rps / scenecut-bias=0.05 / no-opt-cu-delta-qp / no-aq-motion / no-hdr / no-hdr-opt / refine-level=5
  33. Default                                  : Yes
  34. Forced                                   : No
  35. Color range                              : Limited
  36. Color primaries                          : BT.709
  37. Audio
  38. ID                                       : 2
  39. Format                                   : AC-3
  40. Format/Info                              : Audio Coding 3
  41. Commercial name                          : Dolby Digital
  42. Codec ID                                 : A_AC3
  43. Duration                                 : 1 h 20 min
  44. Bit rate mode                            : Constant
  45. Bit rate                                 : 640 kb/s
  46. Channel(s)                               : 6 channels
  47. Channel layout                           : L R C LFE Ls Rs
  48. Sampling rate                            : 48.0 kHz
  49. Frame rate                               : 31.250 FPS (1536 SPF)
  50. Compression mode                         : Lossy
  51. Stream size                              : 370 MiB (7%)
  52. Language                                 : English
  53. Service kind                             : Complete Main
  54. Default                                  : Yes
  55. Forced                                   : No
  56. Text #1
  57. ID                                       : 3
  58. Format                                   : PGS
  59. Muxing mode                              : zlib
  60. Codec ID                                 : S_HDMV/PGS
  61. Codec ID/Info                            : Picture based subtitle format used on BDs/HD-DVDs
  62. Language                                 : English
  63. Default                                  : Yes
  64. Forced                                   : No
  65. Text #2
  66. ID                                       : 4
  67. Format                                   : PGS
  68. Muxing mode                              : zlib
  69. Codec ID                                 : S_HDMV/PGS
  70. Codec ID/Info                            : Picture based subtitle format used on BDs/HD-DVDs
  71. Language                                 : Chinese
  72. Default                                  : No
  73. Forced                                   : No
  74. Text #3
  75. ID                                       : 5
  76. Format                                   : PGS
  77. Muxing mode                              : zlib
  78. Codec ID                                 : S_HDMV/PGS
  79. Codec ID/Info                            : Picture based subtitle format used on BDs/HD-DVDs
  80. Language                                 : Chinese
  81. Default                                  : No
  82. Forced                                   : No
  83. Menu
  84. 00:00:00.000                             : en:Chapter 01
  85. 00:08:41.395                             : en:Chapter 02
  86. 00:15:31.472                             : en:Chapter 03
  87. 00:19:25.622                             : en:Chapter 04
  88. 00:28:35.630                             : en:Chapter 05
  89. 00:31:58.791                             : en:Chapter 06
  90. 00:39:04.216                             : en:Chapter 07
  91. 00:46:35.918                             : en:Chapter 08
  92. 00:53:59.694                             : en:Chapter 09
  93. 00:55:57.562                             : en:Chapter 10
  94. 01:00:57.236                             : en:Chapter 11
  95. 01:04:00.586                             : en:Chapter 12
  96. 01:08:17.051                             : en:Chapter 13
  97. 01:10:07.494                             : en:Chapter 14
  98. 01:12:51.492                             : en:Chapter 15
  99. 01:15:00.954                             : en:Chapter 16





此处一般会放置磁力链或种子下载链接,不过此链接需要注册会员才能看到,点击“立即注册”
磁力链下载【下载链接仅对注册会员开放,登陆后可见】
BT9527电影天堂 1、BT9527电影天堂提供的BT文件均来源于互联网抓取,只供网友学习交流、技术提升使用。
2、我们遵守BitTorrent点对点协议原则,任何版权问题请联系原资源发布商,我们不处理任何版权纠纷,谢谢!如有争议请联系邮箱:BT9527#hotmail.com(#换成@)
3、如果您发现某页面或地址有错误,请联系站长邮箱BT9527#hotmail.com(#换成@),我们会尽快处理。您的热心是对BT9527电影天堂最大的支持。
4、本站建议去正规影院观看电影以支持电影行业发展。
最新回复 (0)

你可以在 登录 or 注册 后,对此帖发表评论!

返回
发新帖