黑白魔女库伊拉[简繁英字幕].Cruella.2021.2160p.HDR.DSNP.WEB-DL.H.265.DDP5.1.Atmos-HDBWEB 26.08GB

版主小s 3月前 153

✔资源类型:4K   ✔电影年份:2021   ✔电影地区:欧美   ✔电影分类:喜剧

◎译  名 黑白魔女库伊拉 / 库伊拉 / 黑白魔后(港) / 时尚恶女:库伊拉(台) / 黑白魔女 / 《101忠狗》真人前传 / 库伊拉·德维尔 / Cruella de Vil
◎片  名 Cruella
◎年  代 2021
◎产  地 美国
◎类  别 喜剧 / 犯罪
◎语  言 英语
◎上映日期 2021-06-06(中国大陆) / 2021-05-28(美国/美国网络)
◎IMDb链接 https://www.imdb.com/title/tt3228774/
◎豆瓣评分 6.8/10 (173470人评价)
◎豆瓣链接 https://movie.douban.com/subject/26703121/
◎片  长 134分钟
◎导  演 克雷格·吉勒斯佩 Craig Gillespie (id:1284873)
◎编  剧 达纳·福克斯 Dana Fox (id:1354750)
       托尼·麦克纳马拉 Tony McNamara (id:1303592)
       艾莲·布洛什·麦肯纳 Aline Brosh McKenna (id:1022993)
       凯莉·马塞尔 Kelly Marcel (id:1115889)
       史蒂夫·齐西斯 Steve Zissis (id:1171259)
       道迪·史密斯 Dodie Smith (id:1045683)
       杰斯·巴特沃斯 Jez Butterworth (id:1340066)
◎演  员 艾玛·斯通 Emma Stone (id:1040506)
       艾玛·汤普森 Emma Thompson (id:1054514)
       乔尔·弗莱 Joel Fry (id:1352741)
       保罗·沃尔特·豪泽 Paul Walter Hauser (id:1268250)
       约翰·麦克雷 John McCrea (id:1434703)
       艾米丽·比查姆 Emily Beecham (id:1316324)
       马克·斯特朗 Mark Strong (id:1274374)
       凯万·诺瓦克 Kayvan Novak (id:1193055)
       柯尔比·豪威尔-巴普蒂斯特 Kirby Howell-Baptiste (id:1368155)
       詹米·德米特鲁 Jamie Demetriou (id:1373219)
       尼亚姆·林奇 Niamh Lynch (id:1436662)
       比莉·加德斯登 Billie Gadsdon (id:1472848)
       安德鲁·梁 Andrew Leung (id:1327168)
       艾德·伯奇 Ed Birch (id:1337343)
       迪伦·洛 Dylan Lowe (id:1457671)
       保罗·巴泽利 Paul Bazely (id:1387267)
       亚伯拉罕·波波拉 Abraham Popoola (id:1457672)
       里奥·比尔 Leo Bill (id:1189147)
       妮妮特·芬奇 Ninette Finch (id:1440766)
       莎拉·克劳登 Sarah Crowden (id:1433016)
       阿斯玛拉·加布里埃 Asmara Gabrielle (id:1457673)
       汤姆·特纳 Tom Turner (id:1454190)
       托马斯·派登 Thomas Padden (id:1362808)
       克里斯·雷曼 Chris Ryman (id:1192122)
       安部春香 Haruka Abe (id:1253645)
       珍妮特·亨弗瑞 Janet Henfrey (id:1342885)
       杰奎琳·陈 Jacqueline Chan (id:1359606)
       赫梅尔妮·加利福德 Hermione Gulliford (id:1346356)
       彼得·辛格 Peter Singh (id:1374100)
       保罗·乔杜里 Paul Chowdhry (id:1069297)
       蒂姆·斯蒂德 Tim Steed (id:1434132)
       乔舒亚·希尔 Joshua Hill (id:1345824)
       简·豪 Jane How (id:1101603)
       杰拉丁·菲茨杰拉德 Geraldine Fitzgerald (id:1036686)
       蒂珀·塞弗特·克利夫兰 Tipper Seifert-Cleveland (id:1395478)
       吉安尼·卡尔切蒂 Gianni Calchetti (id:1445091)
       贝恩·科拉科 Bern Colla?o (id:1394212)
       妮科尔·亨布拉 Nicholle Hembra (id:1434456)
       阿图尔·夏尔马 Atul Sharma (id:1397360)
       艾薇·维 Evie Wray (id:1333557)
       马汀·麦格 Martyn Mayger (id:1368245)
       约翰·艾伦·罗伯茨 John Alan Roberts (id:1442711)
       杰奎琳·拉姆娜莱恩 Jacqueline Ramnarine (id:1395000)
       贾格·帕特尔 Jag Patel (id:1392994)
       尼克·欧文福特 Nick Owenford (id:1362807)
       伊斯雷尔·鲁兹 Israel Ruiz (id:1199375)
       布鲁贝尔 Bluebell (id:1457722)
       波比 Bobby (id:1457714)
       阿尔菲 Alfie (id:1457712)
       吉斯摩 Gizmo (id:1457717)
       昆西 Quince (id:1457757)
       库珀 Cooper (id:1457716)
       贾文?普林斯 Javone Prince (id:1394556)
       约翰·麦凯 John Mackay (id:1468191)
       史蒂夫·埃奇 Steve Edge (id:1200917)
       安德鲁·甘恩 Andrew Gunn (id:1095734)
       马克·普拉特 Marc Platt (id:1294606)
       艾玛·斯通 Emma Stone (id:1040506)
       米歇尔·赖特 Michelle Wright (id:1203769)
       格伦·克洛斯 Glenn Close (id:1031875)
       尼古拉斯·布里特尔 Nicholas Britell (id:1369634)
       尼古拉斯·卡拉卡萨尼斯 Nicolas Karakatsanis (id:1423432)
       达伦·塔比 Darren Tubby (id:1423433)
       珍妮·碧万 Jenny Beavan (id:1278169)
       露西·贝文 Lucy Bevan (id:1423431)

◎简  介
  影片改编自道迪·史密斯的小说,故事设定在20世纪70年代朋克摇滚革命时期的伦敦,讲述了一个名叫艾丝黛拉(艾玛·斯通 饰)的年轻骗子的故事。艾丝黛拉是一个聪明又有创意的女孩,她决心用自己的设计让自己出名。她和一对欣赏她的恶作剧嗜好的小偷交上了朋友,并能够一起在伦敦的街道上建立自己的生活。有一天,艾丝黛拉的时尚品味吸引了冯·赫尔曼男爵夫人(艾玛·汤普森 饰)的眼球,她是一位时尚界的传奇人物,拥有毁灭性的时尚和可怕的高雅,但他们的关系引发了一系列事件,导致艾丝黛拉去拥抱她的邪恶一面,成为了兼具疯狂、时尚和报复心的库伊拉。

◎获奖情况 (共8项)
  第94届奥斯卡金像奖 (2022)
  最佳服装设计
   └──珍妮·碧万 (id:1278169)
  最佳化妆与发型设计(提名)

  第79届金球奖 (2022)
  电影类 音乐/喜剧片最佳女主角(提名)
   └──艾玛·斯通 (id:1040506)

  第75届英国电影学院奖 (2022)
  电影奖 最佳化妆/发型(提名)
  电影奖 最佳服装设计

  第24届美国服装设计工会奖 (2022)
  年代电影最佳服装设计(提名)
   └──珍妮·碧万 (id:1278169)

  第27届美国评论家选择电影奖 (2022)
  最佳服装设计
   └──珍妮·碧万 (id:1278169)
  最佳发型化妆(提名)

  1. ##### MediaInfo ######
  2. General
  3. Unique ID                                : 33863073448826486527924441964577535370 (0x1979CA6C63F875E8A957296D96B7B58A)
  4. Complete name                            : Cruella.2021.2160p.HDR.DSNP.WEB-DL.H.265.DDP5.1.Atmos-HDBWEB.mkv
  5. Format                                   : Matroska
  6. Format version                           : Version 4
  7. File size                                : 26.1 GiB
  8. Duration                                 : 2 h 13 min
  9. Overall bit rate                         : 27.9 Mb/s
  10. Encoded date                             : UTC 2022-06-13 16:11:37
  11. Writing application                      : mkvmerge v68.0.0 ('The Curtain') 64-bit
  12. Writing library                          : libebml v1.4.2 + libmatroska v1.6.4
  13. Video
  14. ID                                       : 1
  15. Format                                   : HEVC
  16. Format/Info                              : High Efficiency Video Coding
  17. Format profile                           : Main 10@L5@High
  18. HDR format                               : SMPTE ST 2086, HDR10 compatible
  19. Codec ID                                 : V_MPEGH/ISO/HEVC
  20. Duration                                 : 2 h 13 min
  21. Bit rate                                 : 16.4 Mb/s
  22. Width                                    : 3 840 pixels
  23. Height                                   : 2 160 pixels
  24. Display aspect ratio                     : 16:9
  25. Frame rate mode                          : Constant
  26. Frame rate                               : 23.976 (24000/1001/53354) FPS
  27. Color space                              : YUV
  28. Chroma subsampling                       : 4:2:0
  29. Bit depth                                : 10 bits
  30. Bits/(Pixel*Frame)                       : 0.082
  31. Stream size                              : 15.3 GiB (59%)
  32. Language                                 : English
  33. Default                                  : Yes
  34. Forced                                   : No
  35. Color range                              : Limited
  36. Color primaries                          : BT.2020
  37. Transfer characteristics                 : PQ
  38. Matrix coefficients                      : BT.2020 non-constant
  39. Mastering display color primaries        : Display P3
  40. Mastering display luminance              : min: 0.0000 cd/m2, max: 1000 cd/m2
  41. Audio #1
  42. ID                                       : 2
  43. Format                                   : E-AC-3
  44. Format/Info                              : Enhanced AC-3
  45. Commercial name                          : Dolby Digital Plus
  46. Codec ID                                 : A_EAC3
  47. Duration                                 : 2 h 13 min
  48. Bit rate mode                            : Constant
  49. Bit rate                                 : 256 kb/s
  50. Channel(s)                               : 6 channels
  51. Channel layout                           : L R C LFE Ls Rs
  52. Sampling rate                            : 48.0 kHz
  53. Frame rate                               : 31.250 FPS (1536 SPF)
  54. Compression mode                         : Lossy
  55. Stream size                              : 245 MiB (1%)
  56. Language                                 : English
  57. Service kind                             : Complete Main
  58. Default                                  : No
  59. Forced                                   : No
  60. Audio #2
  61. ID                                       : 3
  62. Format                                   : AAC LC
  63. Format/Info                              : Advanced Audio Codec Low Complexity
  64. Codec ID                                 : A_AAC-2
  65. Duration                                 : 2 h 13 min
  66. Bit rate                                 : 125 kb/s
  67. Channel(s)                               : 2 channels
  68. Channel layout                           : L R
  69. Sampling rate                            : 48.0 kHz
  70. Frame rate                               : 46.875 FPS (1024 SPF)
  71. Compression mode                         : Lossy
  72. Stream size                              : 120 MiB (0%)
  73. Language                                 : English
  74. Default                                  : No
  75. Forced                                   : No
  76. Audio #3
  77. ID                                       : 4
  78. Format                                   : AAC LC
  79. Format/Info                              : Advanced Audio Codec Low Complexity
  80. Codec ID                                 : A_AAC-2
  81. Duration                                 : 2 h 13 min
  82. Bit rate                                 : 61.4 kb/s
  83. Channel(s)                               : 2 channels
  84. Channel layout                           : L R
  85. Sampling rate                            : 48.0 kHz
  86. Frame rate                               : 46.875 FPS (1024 SPF)
  87. Compression mode                         : Lossy
  88. Stream size                              : 58.8 MiB (0%)
  89. Language                                 : English
  90. Default                                  : No
  91. Forced                                   : No
  92. Audio #4
  93. ID                                       : 5
  94. Format                                   : E-AC-3
  95. Format/Info                              : Enhanced AC-3
  96. Commercial name                          : Dolby Digital Plus
  97. Codec ID                                 : A_EAC3
  98. Duration                                 : 2 h 13 min
  99. Bit rate mode                            : Constant
  100. Bit rate                                 : 256 kb/s
  101. Channel(s)                               : 6 channels
  102. Channel layout                           : L R C LFE Ls Rs
  103. Sampling rate                            : 48.0 kHz
  104. Frame rate                               : 31.250 FPS (1536 SPF)
  105. Compression mode                         : Lossy
  106. Stream size                              : 245 MiB (1%)
  107. Language                                 : Czech
  108. Service kind                             : Complete Main
  109. Default                                  : No
  110. Forced                                   : No
  111. Audio #5
  112. ID                                       : 6
  113. Format                                   : E-AC-3
  114. Format/Info                              : Enhanced AC-3
  115. Commercial name                          : Dolby Digital Plus
  116. Codec ID                                 : A_EAC3
  117. Duration                                 : 2 h 13 min
  118. Bit rate mode                            : Constant
  119. Bit rate                                 : 256 kb/s
  120. Channel(s)                               : 6 channels
  121. Channel layout                           : L R C LFE Ls Rs
  122. Sampling rate                            : 48.0 kHz
  123. Frame rate                               : 31.250 FPS (1536 SPF)
  124. Compression mode                         : Lossy
  125. Stream size                              : 245 MiB (1%)
  126. Language                                 : Czech
  127. Service kind                             : Complete Main
  128. Default                                  : No
  129. Forced                                   : No
  130. Audio #6
  131. ID                                       : 7
  132. Format                                   : AAC LC
  133. Format/Info                              : Advanced Audio Codec Low Complexity
  134. Codec ID                                 : A_AAC-2
  135. Duration                                 : 2 h 13 min
  136. Bit rate                                 : 125 kb/s
  137. Channel(s)                               : 2 channels
  138. Channel layout                           : L R
  139. Sampling rate                            : 48.0 kHz
  140. Frame rate                               : 46.875 FPS (1024 SPF)
  141. Compression mode                         : Lossy
  142. Stream size                              : 120 MiB (0%)
  143. Language                                 : Czech
  144. Default                                  : No
  145. Forced                                   : No
  146. Audio #7
  147. ID                                       : 8
  148. Format                                   : AAC LC
  149. Format/Info                              : Advanced Audio Codec Low Complexity
  150. Codec ID                                 : A_AAC-2
  151. Duration                                 : 2 h 13 min
  152. Bit rate                                 : 61.4 kb/s
  153. Channel(s)                               : 2 channels
  154. Channel layout                           : L R
  155. Sampling rate                            : 48.0 kHz
  156. Frame rate                               : 46.875 FPS (1024 SPF)
  157. Compression mode                         : Lossy
  158. Stream size                              : 58.8 MiB (0%)
  159. Language                                 : Czech
  160. Default                                  : No
  161. Forced                                   : No
  162. Audio #8
  163. ID                                       : 9
  164. Format                                   : E-AC-3
  165. Format/Info                              : Enhanced AC-3
  166. Commercial name                          : Dolby Digital Plus
  167. Codec ID                                 : A_EAC3
  168. Duration                                 : 2 h 13 min
  169. Bit rate mode                            : Constant
  170. Bit rate                                 : 256 kb/s
  171. Channel(s)                               : 6 channels
  172. Channel layout                           : L R C LFE Ls Rs
  173. Sampling rate                            : 48.0 kHz
  174. Frame rate                               : 31.250 FPS (1536 SPF)
  175. Compression mode                         : Lossy
  176. Stream size                              : 245 MiB (1%)
  177. Language                                 : German
  178. Service kind                             : Complete Main
  179. Default                                  : No
  180. Forced                                   : No
  181. Audio #9
  182. ID                                       : 10
  183. Format                                   : E-AC-3
  184. Format/Info                              : Enhanced AC-3
  185. Commercial name                          : Dolby Digital Plus
  186. Codec ID                                 : A_EAC3
  187. Duration                                 : 2 h 13 min
  188. Bit rate mode                            : Constant
  189. Bit rate                                 : 256 kb/s
  190. Channel(s)                               : 6 channels
  191. Channel layout                           : L R C LFE Ls Rs
  192. Sampling rate                            : 48.0 kHz
  193. Frame rate                               : 31.250 FPS (1536 SPF)
  194. Compression mode                         : Lossy
  195. Stream size                              : 245 MiB (1%)
  196. Language                                 : German
  197. Service kind                             : Complete Main
  198. Default                                  : No
  199. Forced                                   : No
  200. Audio #10
  201. ID                                       : 11
  202. Format                                   : AAC LC
  203. Format/Info                              : Advanced Audio Codec Low Complexity
  204. Codec ID                                 : A_AAC-2
  205. Duration                                 : 2 h 13 min
  206. Bit rate                                 : 125 kb/s
  207. Channel(s)                               : 2 channels
  208. Channel layout                           : L R
  209. Sampling rate                            : 48.0 kHz
  210. Frame rate                               : 46.875 FPS (1024 SPF)
  211. Compression mode                         : Lossy
  212. Stream size                              : 120 MiB (0%)
  213. Language                                 : German
  214. Default                                  : No
  215. Forced                                   : No
  216. Audio #11
  217. ID                                       : 12
  218. Format                                   : AAC LC
  219. Format/Info                              : Advanced Audio Codec Low Complexity
  220. Codec ID                                 : A_AAC-2
  221. Duration                                 : 2 h 13 min
  222. Bit rate                                 : 61.4 kb/s
  223. Channel(s)                               : 2 channels
  224. Channel layout                           : L R
  225. Sampling rate                            : 48.0 kHz
  226. Frame rate                               : 46.875 FPS (1024 SPF)
  227. Compression mode                         : Lossy
  228. Stream size                              : 58.8 MiB (0%)
  229. Language                                 : German
  230. Default                                  : No
  231. Forced                                   : No
  232. Audio #12
  233. ID                                       : 13
  234. Format                                   : E-AC-3
  235. Format/Info                              : Enhanced AC-3
  236. Commercial name                          : Dolby Digital Plus
  237. Codec ID                                 : A_EAC3
  238. Duration                                 : 2 h 13 min
  239. Bit rate mode                            : Constant
  240. Bit rate                                 : 256 kb/s
  241. Channel(s)                               : 6 channels
  242. Channel layout                           : L R C LFE Ls Rs
  243. Sampling rate                            : 48.0 kHz
  244. Frame rate                               : 31.250 FPS (1536 SPF)
  245. Compression mode                         : Lossy
  246. Stream size                              : 245 MiB (1%)
  247. Title                                    : Latin America
  248. Language                                 : Spanish
  249. Service kind                             : Complete Main
  250. Default                                  : No
  251. Forced                                   : No
  252. Audio #13
  253. ID                                       : 14
  254. Format                                   : E-AC-3
  255. Format/Info                              : Enhanced AC-3
  256. Commercial name                          : Dolby Digital Plus
  257. Codec ID                                 : A_EAC3
  258. Duration                                 : 2 h 13 min
  259. Bit rate mode                            : Constant
  260. Bit rate                                 : 256 kb/s
  261. Channel(s)                               : 6 channels
  262. Channel layout                           : L R C LFE Ls Rs
  263. Sampling rate                            : 48.0 kHz
  264. Frame rate                               : 31.250 FPS (1536 SPF)
  265. Compression mode                         : Lossy
  266. Stream size                              : 245 MiB (1%)
  267. Title                                    : Latin America
  268. Language                                 : Spanish
  269. Service kind                             : Complete Main
  270. Default                                  : No
  271. Forced                                   : No
  272. Audio #14
  273. ID                                       : 15
  274. Format                                   : AAC LC
  275. Format/Info                              : Advanced Audio Codec Low Complexity
  276. Codec ID                                 : A_AAC-2
  277. Duration                                 : 2 h 13 min
  278. Bit rate                                 : 125 kb/s
  279. Channel(s)                               : 2 channels
  280. Channel layout                           : L R
  281. Sampling rate                            : 48.0 kHz
  282. Frame rate                               : 46.875 FPS (1024 SPF)
  283. Compression mode                         : Lossy
  284. Stream size                              : 120 MiB (0%)
  285. Title                                    : Latin America
  286. Language                                 : Spanish
  287. Default                                  : No
  288. Forced                                   : No
  289. Audio #15
  290. ID                                       : 16
  291. Format                                   : AAC LC
  292. Format/Info                              : Advanced Audio Codec Low Complexity
  293. Codec ID                                 : A_AAC-2
  294. Duration                                 : 2 h 13 min
  295. Bit rate                                 : 61.4 kb/s
  296. Channel(s)                               : 2 channels
  297. Channel layout                           : L R
  298. Sampling rate                            : 48.0 kHz
  299. Frame rate                               : 46.875 FPS (1024 SPF)
  300. Compression mode                         : Lossy
  301. Stream size                              : 58.8 MiB (0%)
  302. Title                                    : Latin America
  303. Language                                 : Spanish
  304. Default                                  : No
  305. Forced                                   : No
  306. Audio #16
  307. ID                                       : 17
  308. Format                                   : E-AC-3
  309. Format/Info                              : Enhanced AC-3
  310. Commercial name                          : Dolby Digital Plus
  311. Codec ID                                 : A_EAC3
  312. Duration                                 : 2 h 13 min
  313. Bit rate mode                            : Constant
  314. Bit rate                                 : 256 kb/s
  315. Channel(s)                               : 6 channels
  316. Channel layout                           : L R C LFE Ls Rs
  317. Sampling rate                            : 48.0 kHz
  318. Frame rate                               : 31.250 FPS (1536 SPF)
  319. Compression mode                         : Lossy
  320. Stream size                              : 245 MiB (1%)
  321. Language                                 : Spanish
  322. Service kind                             : Complete Main
  323. Default                                  : No
  324. Forced                                   : No
  325. Audio #17
  326. ID                                       : 18
  327. Format                                   : E-AC-3
  328. Format/Info                              : Enhanced AC-3
  329. Commercial name                          : Dolby Digital Plus
  330. Codec ID                                 : A_EAC3
  331. Duration                                 : 2 h 13 min
  332. Bit rate mode                            : Constant
  333. Bit rate                                 : 256 kb/s
  334. Channel(s)                               : 6 channels
  335. Channel layout                           : L R C LFE Ls Rs
  336. Sampling rate                            : 48.0 kHz
  337. Frame rate                               : 31.250 FPS (1536 SPF)
  338. Compression mode                         : Lossy
  339. Stream size                              : 245 MiB (1%)
  340. Language                                 : Spanish
  341. Service kind                             : Complete Main
  342. Default                                  : No
  343. Forced                                   : No
  344. Audio #18
  345. ID                                       : 19
  346. Format                                   : AAC LC
  347. Format/Info                              : Advanced Audio Codec Low Complexity
  348. Codec ID                                 : A_AAC-2
  349. Duration                                 : 2 h 13 min
  350. Bit rate                                 : 125 kb/s
  351. Channel(s)                               : 2 channels
  352. Channel layout                           : L R
  353. Sampling rate                            : 48.0 kHz
  354. Frame rate                               : 46.875 FPS (1024 SPF)
  355. Compression mode                         : Lossy
  356. Stream size                              : 120 MiB (0%)
  357. Language                                 : Spanish
  358. Default                                  : No
  359. Forced                                   : No
  360. Audio #19
  361. ID                                       : 20
  362. Format                                   : AAC LC
  363. Format/Info                              : Advanced Audio Codec Low Complexity
  364. Codec ID                                 : A_AAC-2
  365. Duration                                 : 2 h 13 min
  366. Bit rate                                 : 61.4 kb/s
  367. Channel(s)                               : 2 channels
  368. Channel layout                           : L R
  369. Sampling rate                            : 48.0 kHz
  370. Frame rate                               : 46.875 FPS (1024 SPF)
  371. Compression mode                         : Lossy
  372. Stream size                              : 58.8 MiB (0%)
  373. Language                                 : Spanish
  374. Default                                  : No
  375. Forced                                   : No
  376. Audio #20
  377. ID                                       : 21
  378. Format                                   : E-AC-3
  379. Format/Info                              : Enhanced AC-3
  380. Commercial name                          : Dolby Digital Plus
  381. Codec ID                                 : A_EAC3
  382. Duration                                 : 2 h 13 min
  383. Bit rate mode                            : Constant
  384. Bit rate                                 : 256 kb/s
  385. Channel(s)                               : 6 channels
  386. Channel layout                           : L R C LFE Ls Rs
  387. Sampling rate                            : 48.0 kHz
  388. Frame rate                               : 31.250 FPS (1536 SPF)
  389. Compression mode                         : Lossy
  390. Stream size                              : 245 MiB (1%)
  391. Title                                    : Canada
  392. Language                                 : French
  393. Service kind                             : Complete Main
  394. Default                                  : No
  395. Forced                                   : No
  396. Audio #21
  397. ID                                       : 22
  398. Format                                   : E-AC-3
  399. Format/Info                              : Enhanced AC-3
  400. Commercial name                          : Dolby Digital Plus
  401. Codec ID                                 : A_EAC3
  402. Duration                                 : 2 h 13 min
  403. Bit rate mode                            : Constant
  404. Bit rate                                 : 256 kb/s
  405. Channel(s)                               : 6 channels
  406. Channel layout                           : L R C LFE Ls Rs
  407. Sampling rate                            : 48.0 kHz
  408. Frame rate                               : 31.250 FPS (1536 SPF)
  409. Compression mode                         : Lossy
  410. Stream size                              : 245 MiB (1%)
  411. Title                                    : Canada
  412. Language                                 : French
  413. Service kind                             : Complete Main
  414. Default                                  : No
  415. Forced                                   : No
  416. Audio #22
  417. ID                                       : 23
  418. Format                                   : AAC LC
  419. Format/Info                              : Advanced Audio Codec Low Complexity
  420. Codec ID                                 : A_AAC-2
  421. Duration                                 : 2 h 13 min
  422. Bit rate                                 : 125 kb/s
  423. Channel(s)                               : 2 channels
  424. Channel layout                           : L R
  425. Sampling rate                            : 48.0 kHz
  426. Frame rate                               : 46.875 FPS (1024 SPF)
  427. Compression mode                         : Lossy
  428. Stream size                              : 120 MiB (0%)
  429. Title                                    : Canada
  430. Language                                 : French
  431. Default                                  : No
  432. Forced                                   : No
  433. Audio #23
  434. ID                                       : 24
  435. Format                                   : AAC LC
  436. Format/Info                              : Advanced Audio Codec Low Complexity
  437. Codec ID                                 : A_AAC-2
  438. Duration                                 : 2 h 13 min
  439. Bit rate                                 : 61.4 kb/s
  440. Channel(s)                               : 2 channels
  441. Channel layout                           : L R
  442. Sampling rate                            : 48.0 kHz
  443. Frame rate                               : 46.875 FPS (1024 SPF)
  444. Compression mode                         : Lossy
  445. Stream size                              : 58.8 MiB (0%)
  446. Title                                    : Canada
  447. Language                                 : French
  448. Default                                  : No
  449. Forced                                   : No
  450. Audio #24
  451. ID                                       : 25
  452. Format                                   : E-AC-3
  453. Format/Info                              : Enhanced AC-3
  454. Commercial name                          : Dolby Digital Plus
  455. Codec ID                                 : A_EAC3
  456. Duration                                 : 2 h 13 min
  457. Bit rate mode                            : Constant
  458. Bit rate                                 : 256 kb/s
  459. Channel(s)                               : 6 channels
  460. Channel layout                           : L R C LFE Ls Rs
  461. Sampling rate                            : 48.0 kHz
  462. Frame rate                               : 31.250 FPS (1536 SPF)
  463. Compression mode                         : Lossy
  464. Stream size                              : 245 MiB (1%)
  465. Language                                 : French
  466. Service kind                             : Complete Main
  467. Default                                  : No
  468. Forced                                   : No
  469. Audio #25
  470. ID                                       : 26
  471. Format                                   : E-AC-3
  472. Format/Info                              : Enhanced AC-3
  473. Commercial name                          : Dolby Digital Plus
  474. Codec ID                                 : A_EAC3
  475. Duration                                 : 2 h 13 min
  476. Bit rate mode                            : Constant
  477. Bit rate                                 : 256 kb/s
  478. Channel(s)                               : 6 channels
  479. Channel layout                           : L R C LFE Ls Rs
  480. Sampling rate                            : 48.0 kHz
  481. Frame rate                               : 31.250 FPS (1536 SPF)
  482. Compression mode                         : Lossy
  483. Stream size                              : 245 MiB (1%)
  484. Language                                 : French
  485. Service kind                             : Complete Main
  486. Default                                  : No
  487. Forced                                   : No
  488. Audio #26
  489. ID                                       : 27
  490. Format                                   : AAC LC
  491. Format/Info                              : Advanced Audio Codec Low Complexity
  492. Codec ID                                 : A_AAC-2
  493. Duration                                 : 2 h 13 min
  494. Bit rate                                 : 125 kb/s
  495. Channel(s)                               : 2 channels
  496. Channel layout                           : L R
  497. Sampling rate                            : 48.0 kHz
  498. Frame rate                               : 46.875 FPS (1024 SPF)
  499. Compression mode                         : Lossy
  500. Stream size                              : 120 MiB (0%)
  501. Language                                 : French
  502. Default                                  : No
  503. Forced                                   : No
  504. Audio #27
  505. ID                                       : 28
  506. Format                                   : AAC LC
  507. Format/Info                              : Advanced Audio Codec Low Complexity
  508. Codec ID                                 : A_AAC-2
  509. Duration                                 : 2 h 13 min
  510. Bit rate                                 : 61.4 kb/s
  511. Channel(s)                               : 2 channels
  512. Channel layout                           : L R
  513. Sampling rate                            : 48.0 kHz
  514. Frame rate                               : 46.875 FPS (1024 SPF)
  515. Compression mode                         : Lossy
  516. Stream size                              : 58.8 MiB (0%)
  517. Language                                 : French
  518. Default                                  : No
  519. Forced                                   : No
  520. Audio #28
  521. ID                                       : 29
  522. Format                                   : AAC LC
  523. Format/Info                              : Advanced Audio Codec Low Complexity
  524. Codec ID                                 : A_AAC-2
  525. Duration                                 : 2 h 13 min
  526. Bit rate                                 : 125 kb/s
  527. Channel(s)                               : 2 channels
  528. Channel layout                           : L R
  529. Sampling rate                            : 48.0 kHz
  530. Frame rate                               : 46.875 FPS (1024 SPF)
  531. Compression mode                         : Lossy
  532. Stream size                              : 120 MiB (0%)
  533. Language                                 : Hungarian
  534. Default                                  : No
  535. Forced                                   : No
  536. Audio #29
  537. ID                                       : 30
  538. Format                                   : AAC LC
  539. Format/Info                              : Advanced Audio Codec Low Complexity
  540. Codec ID                                 : A_AAC-2
  541. Duration                                 : 2 h 13 min
  542. Bit rate                                 : 125 kb/s
  543. Channel(s)                               : 2 channels
  544. Channel layout                           : L R
  545. Sampling rate                            : 48.0 kHz
  546. Frame rate                               : 46.875 FPS (1024 SPF)
  547. Compression mode                         : Lossy
  548. Stream size                              : 120 MiB (0%)
  549. Language                                 : Hungarian
  550. Default                                  : No
  551. Forced                                   : No
  552. Audio #30
  553. ID                                       : 31
  554. Format                                   : AAC LC
  555. Format/Info                              : Advanced Audio Codec Low Complexity
  556. Codec ID                                 : A_AAC-2
  557. Duration                                 : 2 h 13 min
  558. Bit rate                                 : 125 kb/s
  559. Channel(s)                               : 2 channels
  560. Channel layout                           : L R
  561. Sampling rate                            : 48.0 kHz
  562. Frame rate                               : 46.875 FPS (1024 SPF)
  563. Compression mode                         : Lossy
  564. Stream size                              : 120 MiB (0%)
  565. Language                                 : Hungarian
  566. Default                                  : No
  567. Forced                                   : No
  568. Audio #31
  569. ID                                       : 32
  570. Format                                   : AAC LC
  571. Format/Info                              : Advanced Audio Codec Low Complexity
  572. Codec ID                                 : A_AAC-2
  573. Duration                                 : 2 h 13 min
  574. Bit rate                                 : 61.4 kb/s
  575. Channel(s)                               : 2 channels
  576. Channel layout                           : L R
  577. Sampling rate                            : 48.0 kHz
  578. Frame rate                               : 46.875 FPS (1024 SPF)
  579. Compression mode                         : Lossy
  580. Stream size                              : 58.8 MiB (0%)
  581. Language                                 : Hungarian
  582. Default                                  : No
  583. Forced                                   : No
  584. Audio #32
  585. ID                                       : 33
  586. Format                                   : E-AC-3
  587. Format/Info                              : Enhanced AC-3
  588. Commercial name                          : Dolby Digital Plus
  589. Codec ID                                 : A_EAC3
  590. Duration                                 : 2 h 13 min
  591. Bit rate mode                            : Constant
  592. Bit rate                                 : 256 kb/s
  593. Channel(s)                               : 6 channels
  594. Channel layout                           : L R C LFE Ls Rs
  595. Sampling rate                            : 48.0 kHz
  596. Frame rate                               : 31.250 FPS (1536 SPF)
  597. Compression mode                         : Lossy
  598. Stream size                              : 245 MiB (1%)
  599. Language                                 : Italian
  600. Service kind                             : Complete Main
  601. Default                                  : No
  602. Forced                                   : No
  603. Audio #33
  604. ID                                       : 34
  605. Format                                   : E-AC-3
  606. Format/Info                              : Enhanced AC-3
  607. Commercial name                          : Dolby Digital Plus
  608. Codec ID                                 : A_EAC3
  609. Duration                                 : 2 h 13 min
  610. Bit rate mode                            : Constant
  611. Bit rate                                 : 256 kb/s
  612. Channel(s)                               : 6 channels
  613. Channel layout                           : L R C LFE Ls Rs
  614. Sampling rate                            : 48.0 kHz
  615. Frame rate                               : 31.250 FPS (1536 SPF)
  616. Compression mode                         : Lossy
  617. Stream size                              : 245 MiB (1%)
  618. Language                                 : Italian
  619. Service kind                             : Complete Main
  620. Default                                  : No
  621. Forced                                   : No
  622. Audio #34
  623. ID                                       : 35
  624. Format                                   : AAC LC
  625. Format/Info                              : Advanced Audio Codec Low Complexity
  626. Codec ID                                 : A_AAC-2
  627. Duration                                 : 2 h 13 min
  628. Bit rate                                 : 125 kb/s
  629. Channel(s)                               : 2 channels
  630. Channel layout                           : L R
  631. Sampling rate                            : 48.0 kHz
  632. Frame rate                               : 46.875 FPS (1024 SPF)
  633. Compression mode                         : Lossy
  634. Stream size                              : 120 MiB (0%)
  635. Language                                 : Italian
  636. Default                                  : No
  637. Forced                                   : No
  638. Audio #35
  639. ID                                       : 36
  640. Format                                   : AAC LC
  641. Format/Info                              : Advanced Audio Codec Low Complexity
  642. Codec ID                                 : A_AAC-2
  643. Duration                                 : 2 h 13 min
  644. Bit rate                                 : 61.4 kb/s
  645. Channel(s)                               : 2 channels
  646. Channel layout                           : L R
  647. Sampling rate                            : 48.0 kHz
  648. Frame rate                               : 46.875 FPS (1024 SPF)
  649. Compression mode                         : Lossy
  650. Stream size                              : 58.8 MiB (0%)
  651. Language                                 : Italian
  652. Default                                  : No
  653. Forced                                   : No
  654. Audio #36
  655. ID                                       : 37
  656. Format                                   : E-AC-3
  657. Format/Info                              : Enhanced AC-3
  658. Commercial name                          : Dolby Digital Plus
  659. Codec ID                                 : A_EAC3
  660. Duration                                 : 2 h 13 min
  661. Bit rate mode                            : Constant
  662. Bit rate                                 : 256 kb/s
  663. Channel(s)                               : 6 channels
  664. Channel layout                           : L R C LFE Ls Rs
  665. Sampling rate                            : 48.0 kHz
  666. Frame rate                               : 31.250 FPS (1536 SPF)
  667. Compression mode                         : Lossy
  668. Stream size                              : 245 MiB (1%)
  669. Language                                 : Japanese
  670. Service kind                             : Complete Main
  671. Default                                  : No
  672. Forced                                   : No
  673. Audio #37
  674. ID                                       : 38
  675. Format                                   : E-AC-3
  676. Format/Info                              : Enhanced AC-3
  677. Commercial name                          : Dolby Digital Plus
  678. Codec ID                                 : A_EAC3
  679. Duration                                 : 2 h 13 min
  680. Bit rate mode                            : Constant
  681. Bit rate                                 : 256 kb/s
  682. Channel(s)                               : 6 channels
  683. Channel layout                           : L R C LFE Ls Rs
  684. Sampling rate                            : 48.0 kHz
  685. Frame rate                               : 31.250 FPS (1536 SPF)
  686. Compression mode                         : Lossy
  687. Stream size                              : 245 MiB (1%)
  688. Language                                 : Japanese
  689. Service kind                             : Complete Main
  690. Default                                  : No
  691. Forced                                   : No
  692. Audio #38
  693. ID                                       : 39
  694. Format                                   : AAC LC
  695. Format/Info                              : Advanced Audio Codec Low Complexity
  696. Codec ID                                 : A_AAC-2
  697. Duration                                 : 2 h 13 min
  698. Bit rate                                 : 125 kb/s
  699. Channel(s)                               : 2 channels
  700. Channel layout                           : L R
  701. Sampling rate                            : 48.0 kHz
  702. Frame rate                               : 46.875 FPS (1024 SPF)
  703. Compression mode                         : Lossy
  704. Stream size                              : 120 MiB (0%)
  705. Language                                 : Japanese
  706. Default                                  : No
  707. Forced                                   : No
  708. Audio #39
  709. ID                                       : 40
  710. Format                                   : AAC LC
  711. Format/Info                              : Advanced Audio Codec Low Complexity
  712. Codec ID                                 : A_AAC-2
  713. Duration                                 : 2 h 13 min
  714. Bit rate                                 : 61.4 kb/s
  715. Channel(s)                               : 2 channels
  716. Channel layout                           : L R
  717. Sampling rate                            : 48.0 kHz
  718. Frame rate                               : 46.875 FPS (1024 SPF)
  719. Compression mode                         : Lossy
  720. Stream size                              : 58.8 MiB (0%)
  721. Language                                 : Japanese
  722. Default                                  : No
  723. Forced                                   : No
  724. Audio #40
  725. ID                                       : 41
  726. Format                                   : E-AC-3
  727. Format/Info                              : Enhanced AC-3
  728. Commercial name                          : Dolby Digital Plus
  729. Codec ID                                 : A_EAC3
  730. Duration                                 : 2 h 13 min
  731. Bit rate mode                            : Constant
  732. Bit rate                                 : 256 kb/s
  733. Channel(s)                               : 6 channels
  734. Channel layout                           : L R C LFE Ls Rs
  735. Sampling rate                            : 48.0 kHz
  736. Frame rate                               : 31.250 FPS (1536 SPF)
  737. Compression mode                         : Lossy
  738. Stream size                              : 245 MiB (1%)
  739. Language                                 : Polish
  740. Service kind                             : Complete Main
  741. Default                                  : No
  742. Forced                                   : No
  743. Audio #41
  744. ID                                       : 42
  745. Format                                   : E-AC-3
  746. Format/Info                              : Enhanced AC-3
  747. Commercial name                          : Dolby Digital Plus
  748. Codec ID                                 : A_EAC3
  749. Duration                                 : 2 h 13 min
  750. Bit rate mode                            : Constant
  751. Bit rate                                 : 256 kb/s
  752. Channel(s)                               : 6 channels
  753. Channel layout                           : L R C LFE Ls Rs
  754. Sampling rate                            : 48.0 kHz
  755. Frame rate                               : 31.250 FPS (1536 SPF)
  756. Compression mode                         : Lossy
  757. Stream size                              : 245 MiB (1%)
  758. Language                                 : Polish
  759. Service kind                             : Complete Main
  760. Default                                  : No
  761. Forced                                   : No
  762. Audio #42
  763. ID                                       : 43
  764. Format                                   : AAC LC
  765. Format/Info                              : Advanced Audio Codec Low Complexity
  766. Codec ID                                 : A_AAC-2
  767. Duration                                 : 2 h 13 min
  768. Bit rate                                 : 125 kb/s
  769. Channel(s)                               : 2 channels
  770. Channel layout                           : L R
  771. Sampling rate                            : 48.0 kHz
  772. Frame rate                               : 46.875 FPS (1024 SPF)
  773. Compression mode                         : Lossy
  774. Stream size                              : 120 MiB (0%)
  775. Language                                 : Polish
  776. Default                                  : No
  777. Forced                                   : No
  778. Audio #43
  779. ID                                       : 44
  780. Format                                   : AAC LC
  781. Format/Info                              : Advanced Audio Codec Low Complexity
  782. Codec ID                                 : A_AAC-2
  783. Duration                                 : 2 h 13 min
  784. Bit rate                                 : 61.4 kb/s
  785. Channel(s)                               : 2 channels
  786. Channel layout                           : L R
  787. Sampling rate                            : 48.0 kHz
  788. Frame rate                               : 46.875 FPS (1024 SPF)
  789. Compression mode                         : Lossy
  790. Stream size                              : 58.8 MiB (0%)
  791. Language                                 : Polish
  792. Default                                  : No
  793. Forced                                   : No
  794. Audio #44
  795. ID                                       : 45
  796. Format                                   : E-AC-3
  797. Format/Info                              : Enhanced AC-3
  798. Commercial name                          : Dolby Digital Plus
  799. Codec ID                                 : A_EAC3
  800. Duration                                 : 2 h 13 min
  801. Bit rate mode                            : Constant
  802. Bit rate                                 : 256 kb/s
  803. Channel(s)                               : 6 channels
  804. Channel layout                           : L R C LFE Ls Rs
  805. Sampling rate                            : 48.0 kHz
  806. Frame rate                               : 31.250 FPS (1536 SPF)
  807. Compression mode                         : Lossy
  808. Stream size                              : 245 MiB (1%)
  809. Title                                    : Brazil
  810. Language                                 : Portuguese
  811. Service kind                             : Complete Main
  812. Default                                  : No
  813. Forced                                   : No
  814. Audio #45
  815. ID                                       : 46
  816. Format                                   : E-AC-3
  817. Format/Info                              : Enhanced AC-3
  818. Commercial name                          : Dolby Digital Plus
  819. Codec ID                                 : A_EAC3
  820. Duration                                 : 2 h 13 min
  821. Bit rate mode                            : Constant
  822. Bit rate                                 : 256 kb/s
  823. Channel(s)                               : 6 channels
  824. Channel layout                           : L R C LFE Ls Rs
  825. Sampling rate                            : 48.0 kHz
  826. Frame rate                               : 31.250 FPS (1536 SPF)
  827. Compression mode                         : Lossy
  828. Stream size                              : 245 MiB (1%)
  829. Title                                    : Brazil
  830. Language                                 : Portuguese
  831. Service kind                             : Complete Main
  832. Default                                  : No
  833. Forced                                   : No
  834. Audio #46
  835. ID                                       : 47
  836. Format                                   : AAC LC
  837. Format/Info                              : Advanced Audio Codec Low Complexity
  838. Codec ID                                 : A_AAC-2
  839. Duration                                 : 2 h 13 min
  840. Bit rate                                 : 125 kb/s
  841. Channel(s)                               : 2 channels
  842. Channel layout                           : L R
  843. Sampling rate                            : 48.0 kHz
  844. Frame rate                               : 46.875 FPS (1024 SPF)
  845. Compression mode                         : Lossy
  846. Stream size                              : 120 MiB (0%)
  847. Title                                    : Brazil
  848. Language                                 : Portuguese
  849. Default                                  : No
  850. Forced                                   : No
  851. Audio #47
  852. ID                                       : 48
  853. Format                                   : AAC LC
  854. Format/Info                              : Advanced Audio Codec Low Complexity
  855. Codec ID                                 : A_AAC-2
  856. Duration                                 : 2 h 13 min
  857. Bit rate                                 : 61.4 kb/s
  858. Channel(s)                               : 2 channels
  859. Channel layout                           : L R
  860. Sampling rate                            : 48.0 kHz
  861. Frame rate                               : 46.875 FPS (1024 SPF)
  862. Compression mode                         : Lossy
  863. Stream size                              : 58.8 MiB (0%)
  864. Title                                    : Brazil
  865. Language                                 : Portuguese
  866. Default                                  : No
  867. Forced                                   : No
  868. Audio #48
  869. ID                                       : 49
  870. Format                                   : E-AC-3
  871. Format/Info                              : Enhanced AC-3
  872. Commercial name                          : Dolby Digital Plus
  873. Codec ID                                 : A_EAC3
  874. Duration                                 : 2 h 13 min
  875. Bit rate mode                            : Constant
  876. Bit rate                                 : 256 kb/s
  877. Channel(s)                               : 6 channels
  878. Channel layout                           : L R C LFE Ls Rs
  879. Sampling rate                            : 48.0 kHz
  880. Frame rate                               : 31.250 FPS (1536 SPF)
  881. Compression mode                         : Lossy
  882. Stream size                              : 245 MiB (1%)
  883. Language                                 : Portuguese
  884. Service kind                             : Complete Main
  885. Default                                  : No
  886. Forced                                   : No
  887. Audio #49
  888. ID                                       : 50
  889. Format                                   : E-AC-3
  890. Format/Info                              : Enhanced AC-3
  891. Commercial name                          : Dolby Digital Plus
  892. Codec ID                                 : A_EAC3
  893. Duration                                 : 2 h 13 min
  894. Bit rate mode                            : Constant
  895. Bit rate                                 : 256 kb/s
  896. Channel(s)                               : 6 channels
  897. Channel layout                           : L R C LFE Ls Rs
  898. Sampling rate                            : 48.0 kHz
  899. Frame rate                               : 31.250 FPS (1536 SPF)
  900. Compression mode                         : Lossy
  901. Stream size                              : 245 MiB (1%)
  902. Language                                 : Portuguese
  903. Service kind                             : Complete Main
  904. Default                                  : No
  905. Forced                                   : No
  906. Audio #50
  907. ID                                       : 51
  908. Format                                   : AAC LC
  909. Format/Info                              : Advanced Audio Codec Low Complexity
  910. Codec ID                                 : A_AAC-2
  911. Duration                                 : 2 h 13 min
  912. Bit rate                                 : 125 kb/s
  913. Channel(s)                               : 2 channels
  914. Channel layout                           : L R
  915. Sampling rate                            : 48.0 kHz
  916. Frame rate                               : 46.875 FPS (1024 SPF)
  917. Compression mode                         : Lossy
  918. Stream size                              : 120 MiB (0%)
  919. Language                                 : Portuguese
  920. Default                                  : No
  921. Forced                                   : No
  922. Audio #51
  923. ID                                       : 52
  924. Format                                   : AAC LC
  925. Format/Info                              : Advanced Audio Codec Low Complexity
  926. Codec ID                                 : A_AAC-2
  927. Duration                                 : 2 h 13 min
  928. Bit rate                                 : 61.4 kb/s
  929. Channel(s)                               : 2 channels
  930. Channel layout                           : L R
  931. Sampling rate                            : 48.0 kHz
  932. Frame rate                               : 46.875 FPS (1024 SPF)
  933. Compression mode                         : Lossy
  934. Stream size                              : 58.8 MiB (0%)
  935. Language                                 : Portuguese
  936. Default                                  : No
  937. Forced                                   : No
  938. Audio #52
  939. ID                                       : 53
  940. Format                                   : E-AC-3
  941. Format/Info                              : Enhanced AC-3
  942. Commercial name                          : Dolby Digital Plus
  943. Codec ID                                 : A_EAC3
  944. Duration                                 : 2 h 13 min
  945. Bit rate mode                            : Constant
  946. Bit rate                                 : 256 kb/s
  947. Channel(s)                               : 6 channels
  948. Channel layout                           : L R C LFE Ls Rs
  949. Sampling rate                            : 48.0 kHz
  950. Frame rate                               : 31.250 FPS (1536 SPF)
  951. Compression mode                         : Lossy
  952. Stream size                              : 245 MiB (1%)
  953. Language                                 : Romanian
  954. Service kind                             : Complete Main
  955. Default                                  : No
  956. Forced                                   : No
  957. Audio #53
  958. ID                                       : 54
  959. Format                                   : E-AC-3
  960. Format/Info                              : Enhanced AC-3
  961. Commercial name                          : Dolby Digital Plus
  962. Codec ID                                 : A_EAC3
  963. Duration                                 : 2 h 13 min
  964. Bit rate mode                            : Constant
  965. Bit rate                                 : 256 kb/s
  966. Channel(s)                               : 6 channels
  967. Channel layout                           : L R C LFE Ls Rs
  968. Sampling rate                            : 48.0 kHz
  969. Frame rate                               : 31.250 FPS (1536 SPF)
  970. Compression mode                         : Lossy
  971. Stream size                              : 245 MiB (1%)
  972. Language                                 : Romanian
  973. Service kind                             : Complete Main
  974. Default                                  : No
  975. Forced                                   : No
  976. Audio #54
  977. ID                                       : 55
  978. Format                                   : AAC LC
  979. Format/Info                              : Advanced Audio Codec Low Complexity
  980. Codec ID                                 : A_AAC-2
  981. Duration                                 : 2 h 13 min
  982. Bit rate                                 : 125 kb/s
  983. Channel(s)                               : 2 channels
  984. Channel layout                           : L R
  985. Sampling rate                            : 48.0 kHz
  986. Frame rate                               : 46.875 FPS (1024 SPF)
  987. Compression mode                         : Lossy
  988. Stream size                              : 120 MiB (0%)
  989. Language                                 : Romanian
  990. Default                                  : No
  991. Forced                                   : No
  992. Audio #55
  993. ID                                       : 56
  994. Format                                   : AAC LC
  995. Format/Info                              : Advanced Audio Codec Low Complexity
  996. Codec ID                                 : A_AAC-2
  997. Duration                                 : 2 h 13 min
  998. Bit rate                                 : 61.4 kb/s
  999. Channel(s)                               : 2 channels
  1000. Channel layout                           : L R
  1001. Sampling rate                            : 48.0 kHz
  1002. Frame rate                               : 46.875 FPS (1024 SPF)
  1003. Compression mode                         : Lossy
  1004. Stream size                              : 58.8 MiB (0%)
  1005. Language                                 : Romanian
  1006. Default                                  : No
  1007. Forced                                   : No
  1008. Audio #56
  1009. ID                                       : 57
  1010. Format                                   : E-AC-3
  1011. Format/Info                              : Enhanced AC-3
  1012. Commercial name                          : Dolby Digital Plus
  1013. Codec ID                                 : A_EAC3
  1014. Duration                                 : 2 h 13 min
  1015. Bit rate mode                            : Constant
  1016. Bit rate                                 : 256 kb/s
  1017. Channel(s)                               : 6 channels
  1018. Channel layout                           : L R C LFE Ls Rs
  1019. Sampling rate                            : 48.0 kHz
  1020. Frame rate                               : 31.250 FPS (1536 SPF)
  1021. Compression mode                         : Lossy
  1022. Stream size                              : 245 MiB (1%)
  1023. Language                                 : Slovak
  1024. Service kind                             : Complete Main
  1025. Default                                  : No
  1026. Forced                                   : No
  1027. Audio #57
  1028. ID                                       : 58
  1029. Format                                   : E-AC-3
  1030. Format/Info                              : Enhanced AC-3
  1031. Commercial name                          : Dolby Digital Plus
  1032. Codec ID                                 : A_EAC3
  1033. Duration                                 : 2 h 13 min
  1034. Bit rate mode                            : Constant
  1035. Bit rate                                 : 256 kb/s
  1036. Channel(s)                               : 6 channels
  1037. Channel layout                           : L R C LFE Ls Rs
  1038. Sampling rate                            : 48.0 kHz
  1039. Frame rate                               : 31.250 FPS (1536 SPF)
  1040. Compression mode                         : Lossy
  1041. Stream size                              : 245 MiB (1%)
  1042. Language                                 : Slovak
  1043. Service kind                             : Complete Main
  1044. Default                                  : No
  1045. Forced                                   : No
  1046. Audio #58
  1047. ID                                       : 59
  1048. Format                                   : AAC LC
  1049. Format/Info                              : Advanced Audio Codec Low Complexity
  1050. Codec ID                                 : A_AAC-2
  1051. Duration                                 : 2 h 13 min
  1052. Bit rate                                 : 125 kb/s
  1053. Channel(s)                               : 2 channels
  1054. Channel layout                           : L R
  1055. Sampling rate                            : 48.0 kHz
  1056. Frame rate                               : 46.875 FPS (1024 SPF)
  1057. Compression mode                         : Lossy
  1058. Stream size                              : 120 MiB (0%)
  1059. Language                                 : Slovak
  1060. Default                                  : No
  1061. Forced                                   : No
  1062. Audio #59
  1063. ID                                       : 60
  1064. Format                                   : AAC LC
  1065. Format/Info                              : Advanced Audio Codec Low Complexity
  1066. Codec ID                                 : A_AAC-2
  1067. Duration                                 : 2 h 13 min
  1068. Bit rate                                 : 61.4 kb/s
  1069. Channel(s)                               : 2 channels
  1070. Channel layout                           : L R
  1071. Sampling rate                            : 48.0 kHz
  1072. Frame rate                               : 46.875 FPS (1024 SPF)
  1073. Compression mode                         : Lossy
  1074. Stream size                              : 58.8 MiB (0%)
  1075. Language                                 : Slovak
  1076. Default                                  : No
  1077. Forced                                   : No
  1078. Audio #60
  1079. ID                                       : 61
  1080. Format                                   : E-AC-3
  1081. Format/Info                              : Enhanced AC-3
  1082. Commercial name                          : Dolby Digital Plus
  1083. Codec ID                                 : A_EAC3
  1084. Duration                                 : 2 h 13 min
  1085. Bit rate mode                            : Constant
  1086. Bit rate                                 : 256 kb/s
  1087. Channel(s)                               : 6 channels
  1088. Channel layout                           : L R C LFE Ls Rs
  1089. Sampling rate                            : 48.0 kHz
  1090. Frame rate                               : 31.250 FPS (1536 SPF)
  1091. Compression mode                         : Lossy
  1092. Stream size                              : 245 MiB (1%)
  1093. Language                                 : Turkish
  1094. Service kind                             : Complete Main
  1095. Default                                  : No
  1096. Forced                                   : No
  1097. Audio #61
  1098. ID                                       : 62
  1099. Format                                   : E-AC-3
  1100. Format/Info                              : Enhanced AC-3
  1101. Commercial name                          : Dolby Digital Plus
  1102. Codec ID                                 : A_EAC3
  1103. Duration                                 : 2 h 13 min
  1104. Bit rate mode                            : Constant
  1105. Bit rate                                 : 256 kb/s
  1106. Channel(s)                               : 6 channels
  1107. Channel layout                           : L R C LFE Ls Rs
  1108. Sampling rate                            : 48.0 kHz
  1109. Frame rate                               : 31.250 FPS (1536 SPF)
  1110. Compression mode                         : Lossy
  1111. Stream size                              : 245 MiB (1%)
  1112. Language                                 : Turkish
  1113. Service kind                             : Complete Main
  1114. Default                                  : No
  1115. Forced                                   : No
  1116. Audio #62
  1117. ID                                       : 63
  1118. Format                                   : AAC LC
  1119. Format/Info                              : Advanced Audio Codec Low Complexity
  1120. Codec ID                                 : A_AAC-2
  1121. Duration                                 : 2 h 13 min
  1122. Bit rate                                 : 125 kb/s
  1123. Channel(s)                               : 2 channels
  1124. Channel layout                           : L R
  1125. Sampling rate                            : 48.0 kHz
  1126. Frame rate                               : 46.875 FPS (1024 SPF)
  1127. Compression mode                         : Lossy
  1128. Stream size                              : 120 MiB (0%)
  1129. Language                                 : Turkish
  1130. Default                                  : No
  1131. Forced                                   : No
  1132. Audio #63
  1133. ID                                       : 64
  1134. Format                                   : AAC LC
  1135. Format/Info                              : Advanced Audio Codec Low Complexity
  1136. Codec ID                                 : A_AAC-2
  1137. Duration                                 : 2 h 13 min
  1138. Bit rate                                 : 61.4 kb/s
  1139. Channel(s)                               : 2 channels
  1140. Channel layout                           : L R
  1141. Sampling rate                            : 48.0 kHz
  1142. Frame rate                               : 46.875 FPS (1024 SPF)
  1143. Compression mode                         : Lossy
  1144. Stream size                              : 58.8 MiB (0%)
  1145. Language                                 : Turkish
  1146. Default                                  : No
  1147. Forced                                   : No
  1148. Audio #64
  1149. ID                                       : 65
  1150. Format                                   : E-AC-3 JOC
  1151. Format/Info                              : Enhanced AC-3 with Joint Object Coding
  1152. Commercial name                          : Dolby Digital Plus with Dolby Atmos
  1153. Codec ID                                 : A_EAC3
  1154. Duration                                 : 2 h 13 min
  1155. Bit rate mode                            : Constant
  1156. Bit rate                                 : 768 kb/s
  1157. Channel(s)                               : 6 channels
  1158. Channel layout                           : L R C LFE Ls Rs
  1159. Sampling rate                            : 48.0 kHz
  1160. Frame rate                               : 31.250 FPS (1536 SPF)
  1161. Compression mode                         : Lossy
  1162. Stream size                              : 736 MiB (3%)
  1163. Language                                 : English
  1164. Service kind                             : Complete Main
  1165. Default                                  : Yes
  1166. Forced                                   : No
  1167. Complexity index                         : 16
  1168. Number of dynamic objects                : 15
  1169. Bed channel count                        : 1 channel
  1170. Bed channel configuration                : LFE
  1171. Text #1
  1172. ID                                       : 66
  1173. Format                                   : UTF-8
  1174. Codec ID                                 : S_TEXT/UTF8
  1175. Codec ID/Info                            : UTF-8 Plain Text
  1176. Duration                                 : 2 h 11 min
  1177. Bit rate                                 : 51 b/s
  1178. Count of elements                        : 1902
  1179. Stream size                              : 49.4 KiB (0%)
  1180. Title                                    : SDH
  1181. Language                                 : English
  1182. Default                                  : No
  1183. Forced                                   : No
  1184. Text #2
  1185. ID                                       : 67
  1186. Format                                   : UTF-8
  1187. Codec ID                                 : S_TEXT/UTF8
  1188. Codec ID/Info                            : UTF-8 Plain Text
  1189. Duration                                 : 2 h 13 min
  1190. Bit rate                                 : 43 b/s
  1191. Count of elements                        : 1157
  1192. Stream size                              : 42.2 KiB (0%)
  1193. Language                                 : Danish
  1194. Default                                  : No
  1195. Forced                                   : No
  1196. Text #3
  1197. ID                                       : 68
  1198. Format                                   : UTF-8
  1199. Codec ID                                 : S_TEXT/UTF8
  1200. Codec ID/Info                            : UTF-8 Plain Text
  1201. Duration                                 : 2 h 13 min
  1202. Bit rate                                 : 54 b/s
  1203. Count of elements                        : 1584
  1204. Stream size                              : 53.1 KiB (0%)
  1205. Title                                    : SDH
  1206. Language                                 : German
  1207. Default                                  : No
  1208. Forced                                   : No
  1209. Text #4
  1210. ID                                       : 69
  1211. Format                                   : UTF-8
  1212. Codec ID                                 : S_TEXT/UTF8
  1213. Codec ID/Info                            : UTF-8 Plain Text
  1214. Duration                                 : 2 h 13 min
  1215. Bit rate                                 : 39 b/s
  1216. Count of elements                        : 1484
  1217. Stream size                              : 38.8 KiB (0%)
  1218. Language                                 : German
  1219. Default                                  : No
  1220. Forced                                   : No
  1221. Text #5
  1222. ID                                       : 70
  1223. Format                                   : UTF-8
  1224. Codec ID                                 : S_TEXT/UTF8
  1225. Codec ID/Info                            : UTF-8 Plain Text
  1226. Duration                                 : 2 h 6 min
  1227. Bit rate                                 : 49 b/s
  1228. Count of elements                        : 1443
  1229. Stream size                              : 45.5 KiB (0%)
  1230. Title                                    : Latin America (SDH)
  1231. Language                                 : Spanish
  1232. Default                                  : No
  1233. Forced                                   : No
  1234. Text #6
  1235. ID                                       : 71
  1236. Format                                   : UTF-8
  1237. Codec ID                                 : S_TEXT/UTF8
  1238. Codec ID/Info                            : UTF-8 Plain Text
  1239. Duration                                 : 2 h 6 min
  1240. Bit rate                                 : 46 b/s
  1241. Count of elements                        : 1510
  1242. Stream size                              : 43.3 KiB (0%)
  1243. Title                                    : Latin America
  1244. Language                                 : Spanish
  1245. Default                                  : No
  1246. Forced                                   : No
  1247. Text #7
  1248. ID                                       : 72
  1249. Format                                   : UTF-8
  1250. Codec ID                                 : S_TEXT/UTF8
  1251. Codec ID/Info                            : UTF-8 Plain Text
  1252. Duration                                 : 2 h 13 min
  1253. Bit rate                                 : 40 b/s
  1254. Count of elements                        : 1483
  1255. Stream size                              : 39.3 KiB (0%)
  1256. Language                                 : Spanish
  1257. Default                                  : No
  1258. Forced                                   : No
  1259. Text #8
  1260. ID                                       : 73
  1261. Format                                   : UTF-8
  1262. Codec ID                                 : S_TEXT/UTF8
  1263. Codec ID/Info                            : UTF-8 Plain Text
  1264. Duration                                 : 2 h 13 min
  1265. Bit rate                                 : 44 b/s
  1266. Count of elements                        : 1505
  1267. Stream size                              : 43.5 KiB (0%)
  1268. Language                                 : Finnish
  1269. Default                                  : No
  1270. Forced                                   : No
  1271. Text #9
  1272. ID                                       : 74
  1273. Format                                   : UTF-8
  1274. Codec ID                                 : S_TEXT/UTF8
  1275. Codec ID/Info                            : UTF-8 Plain Text
  1276. Duration                                 : 2 h 13 min
  1277. Bit rate                                 : 49 b/s
  1278. Count of elements                        : 1530
  1279. Stream size                              : 47.8 KiB (0%)
  1280. Title                                    : Canada
  1281. Language                                 : French
  1282. Default                                  : No
  1283. Forced                                   : No
  1284. Text #10
  1285. ID                                       : 75
  1286. Format                                   : UTF-8
  1287. Codec ID                                 : S_TEXT/UTF8
  1288. Codec ID/Info                            : UTF-8 Plain Text
  1289. Duration                                 : 2 h 11 min
  1290. Bit rate                                 : 52 b/s
  1291. Count of elements                        : 1774
  1292. Stream size                              : 51.2 KiB (0%)
  1293. Title                                    : SDH
  1294. Language                                 : French
  1295. Default                                  : No
  1296. Forced                                   : No
  1297. Text #11
  1298. ID                                       : 76
  1299. Format                                   : UTF-8
  1300. Codec ID                                 : S_TEXT/UTF8
  1301. Codec ID/Info                            : UTF-8 Plain Text
  1302. Duration                                 : 2 h 13 min
  1303. Bit rate                                 : 41 b/s
  1304. Count of elements                        : 1451
  1305. Stream size                              : 40.5 KiB (0%)
  1306. Language                                 : French
  1307. Default                                  : No
  1308. Forced                                   : No
  1309. Text #12
  1310. ID                                       : 77
  1311. Format                                   : UTF-8
  1312. Codec ID                                 : S_TEXT/UTF8
  1313. Codec ID/Info                            : UTF-8 Plain Text
  1314. Duration                                 : 2 h 13 min
  1315. Bit rate                                 : 43 b/s
  1316. Count of elements                        : 1494
  1317. Stream size                              : 42.0 KiB (0%)
  1318. Language                                 : Italian
  1319. Default                                  : No
  1320. Forced                                   : No
  1321. Text #13
  1322. ID                                       : 78
  1323. Format                                   : UTF-8
  1324. Codec ID                                 : S_TEXT/UTF8
  1325. Codec ID/Info                            : UTF-8 Plain Text
  1326. Duration                                 : 2 h 13 min
  1327. Bit rate                                 : 37 b/s
  1328. Count of elements                        : 1472
  1329. Stream size                              : 36.5 KiB (0%)
  1330. Language                                 : Japanese
  1331. Default                                  : No
  1332. Forced                                   : No
  1333. Text #14
  1334. ID                                       : 79
  1335. Format                                   : UTF-8
  1336. Codec ID                                 : S_TEXT/UTF8
  1337. Codec ID/Info                            : UTF-8 Plain Text
  1338. Duration                                 : 2 h 6 min
  1339. Bit rate                                 : 47 b/s
  1340. Count of elements                        : 1520
  1341. Stream size                              : 44.4 KiB (0%)
  1342. Language                                 : Korean
  1343. Default                                  : No
  1344. Forced                                   : No
  1345. Text #15
  1346. ID                                       : 80
  1347. Format                                   : UTF-8
  1348. Codec ID                                 : S_TEXT/UTF8
  1349. Codec ID/Info                            : UTF-8 Plain Text
  1350. Duration                                 : 2 h 13 min
  1351. Bit rate                                 : 39 b/s
  1352. Count of elements                        : 1510
  1353. Stream size                              : 38.7 KiB (0%)
  1354. Language                                 : Norwegian Bokmal
  1355. Default                                  : No
  1356. Forced                                   : No
  1357. Text #16
  1358. ID                                       : 81
  1359. Format                                   : UTF-8
  1360. Codec ID                                 : S_TEXT/UTF8
  1361. Codec ID/Info                            : UTF-8 Plain Text
  1362. Duration                                 : 2 h 13 min
  1363. Bit rate                                 : 37 b/s
  1364. Count of elements                        : 1255
  1365. Stream size                              : 36.9 KiB (0%)
  1366. Language                                 : Dutch
  1367. Default                                  : No
  1368. Forced                                   : No
  1369. Text #17
  1370. ID                                       : 82
  1371. Format                                   : UTF-8
  1372. Codec ID                                 : S_TEXT/UTF8
  1373. Codec ID/Info                            : UTF-8 Plain Text
  1374. Duration                                 : 2 h 6 min
  1375. Bit rate                                 : 49 b/s
  1376. Count of elements                        : 1581
  1377. Stream size                              : 46.4 KiB (0%)
  1378. Title                                    : Brazil (SDH)
  1379. Language                                 : Portuguese
  1380. Default                                  : No
  1381. Forced                                   : No
  1382. Text #18
  1383. ID                                       : 83
  1384. Format                                   : UTF-8
  1385. Codec ID                                 : S_TEXT/UTF8
  1386. Codec ID/Info                            : UTF-8 Plain Text
  1387. Duration                                 : 2 h 13 min
  1388. Bit rate                                 : 43 b/s
  1389. Count of elements                        : 1490
  1390. Stream size                              : 42.4 KiB (0%)
  1391. Title                                    : Brazil
  1392. Language                                 : Portuguese
  1393. Default                                  : No
  1394. Forced                                   : No
  1395. Text #19
  1396. ID                                       : 84
  1397. Format                                   : UTF-8
  1398. Codec ID                                 : S_TEXT/UTF8
  1399. Codec ID/Info                            : UTF-8 Plain Text
  1400. Duration                                 : 2 h 13 min
  1401. Bit rate                                 : 43 b/s
  1402. Count of elements                        : 1508
  1403. Stream size                              : 42.6 KiB (0%)
  1404. Language                                 : Portuguese
  1405. Default                                  : No
  1406. Forced                                   : No
  1407. Text #20
  1408. ID                                       : 85
  1409. Format                                   : UTF-8
  1410. Codec ID                                 : S_TEXT/UTF8
  1411. Codec ID/Info                            : UTF-8 Plain Text
  1412. Duration                                 : 2 h 13 min
  1413. Bit rate                                 : 39 b/s
  1414. Count of elements                        : 1176
  1415. Stream size                              : 38.8 KiB (0%)
  1416. Language                                 : Swedish
  1417. Default                                  : No
  1418. Forced                                   : No
  1419. Text #21
  1420. ID                                       : 86
  1421. Format                                   : UTF-8
  1422. Codec ID                                 : S_TEXT/UTF8
  1423. Codec ID/Info                            : UTF-8 Plain Text
  1424. Duration                                 : 2 h 13 min
  1425. Bit rate                                 : 41 b/s
  1426. Count of elements                        : 1532
  1427. Stream size                              : 40.5 KiB (0%)
  1428. Title                                    : Simplified
  1429. Language                                 : Chinese
  1430. Default                                  : No
  1431. Forced                                   : No
  1432. Text #22
  1433. ID                                       : 87
  1434. Format                                   : UTF-8
  1435. Codec ID                                 : S_TEXT/UTF8
  1436. Codec ID/Info                            : UTF-8 Plain Text
  1437. Duration                                 : 2 h 13 min
  1438. Bit rate                                 : 36 b/s
  1439. Count of elements                        : 1544
  1440. Stream size                              : 35.2 KiB (0%)
  1441. Title                                    : Traditional
  1442. Language                                 : Chinese
  1443. Default                                  : No
  1444. Forced                                   : No
  1445. Text #23
  1446. ID                                       : 88
  1447. Format                                   : UTF-8
  1448. Codec ID                                 : S_TEXT/UTF8
  1449. Codec ID/Info                            : UTF-8 Plain Text
  1450. Duration                                 : 2 h 13 min
  1451. Bit rate                                 : 36 b/s
  1452. Count of elements                        : 1528
  1453. Stream size                              : 35.3 KiB (0%)
  1454. Title                                    : Traditional, Hong Kong
  1455. Language                                 : Chinese
  1456. Default                                  : No
  1457. Forced                                   : No





此处一般会放置磁力链或种子下载链接,不过此链接需要注册会员才能看到,点击“立即注册”
磁力链下载【下载链接仅对注册会员开放,登陆后可见】
BT9527电影天堂 1、BT9527电影天堂提供的BT文件均来源于互联网抓取,只供网友学习交流、技术提升使用。
2、我们遵守BitTorrent点对点协议原则,任何版权问题请联系原资源发布商,我们不处理任何版权纠纷,谢谢!如有争议请联系邮箱:BT9527#hotmail.com(#换成@)
3、如果您发现某页面或地址有错误,请联系站长邮箱BT9527#hotmail.com(#换成@),我们会尽快处理。您的热心是对BT9527电影天堂最大的支持。
4、本站建议去正规影院观看电影以支持电影行业发展。
最新回复 (0)

你可以在 登录 or 注册 后,对此帖发表评论!

返回