听见歌 再唱[国语配音/中文字幕].Listen.Before.You.Sing.2021.1080p.BluRay.DD5.1.x265-10bit-ENTHD 5.29GB

版主小s 12天前 30

✔资源类型:暂未分类   ✔电影年份:2021   ✔电影地区:台湾   ✔电影分类:喜剧

◎译  名 听见歌 再唱 / 听见歌在唱 / Kipahpah Ima / Listen Before You Sing
◎片  名 聽見歌 再唱
◎年  代 2021
◎产  地 中国台湾
◎类  别 喜剧 / 音乐
◎语  言 汉语普通话
◎上映日期 2021-04-09(中国台湾点映) / 2021-04-16(中国台湾)
◎IMDb链接 https://www.imdb.com/title/tt15448352/
◎豆瓣评分 7.2/10 (200人评价)
◎豆瓣链接 https://movie.douban.com/subject/30359474/
◎片  长 113分钟
◎导  演 杨智麟 Zhilin Yang (id:1342701)
◎演  员 马志翔 Umin Boya (id:1314142)
       陈嘉桦 Ella Chen (id:1313647)
       徐诣帆 Yi-Fan Hsu (id:1316578)
       撒基努 Sakinu (id:1364474)
       张惠春 Saya Chang (id:1313782)

◎简  介
  一个看不懂五线谱的合唱团指挥,一个到处流浪的音乐代课老师,和一群五音不全的原住民孩子,有机会在合唱比赛中夺冠,免于被废校的命运吗? #马志翔 、 #Ella陈嘉桦 领衔主演 历经12 年筹备,根据 #台湾原声童声合唱团 指挥马彼得校长 #真人实事啓发 【#听见歌再唱 】4/9 口碑献映 4/16 全台上映

◎获奖情况 (共2项)
  第23届台北电影节 (2021)
  台北电影奖 最佳编剧奖(提名)
   └──杨智麟 (id:1342701)
  台北电影奖 最佳男主角奖(提名)
   └──黄志翔 (id:1326843)

  1. ##### MediaInfo ######
  2. General
  3. Unique ID                                : 81507903393208187725852309976199565263 (0x3D51D9E74142F3A03AF69273BEF98FCF)
  4. Complete name                            : Listen.Before.You.Sing.2021.1080p.BluRay.DD5.1.x265-10bit-ENTHD.mkv
  5. Format                                   : Matroska
  6. Format version                           : Version 4
  7. File size                                : 5.29 GiB
  8. Duration                                 : 1 h 53 min
  9. Overall bit rate                         : 6 688 kb/s
  10. Movie name                               : Listen Before You Sing 2021 1080p BluRay DD5.1 x265-10bit-HDS
  11. Encoded date                             : UTC 2022-06-15 01:00:22
  12. Writing application                      : mkvmerge v38.0.0 ('The Silent Type') 64-bit
  13. Writing library                          : libebml v1.3.9 + libmatroska v1.5.2
  14. Video
  15. ID                                       : 1
  16. Format                                   : HEVC
  17. Format/Info                              : High Efficiency Video Coding
  18. Format profile                           : Main 10@L5.1@High
  19. Codec ID                                 : V_MPEGH/ISO/HEVC
  20. Duration                                 : 1 h 53 min
  21. Bit rate                                 : 6 035 kb/s
  22. Width                                    : 1 920 pixels
  23. Height                                   : 804 pixels
  24. Display aspect ratio                     : 2.40:1
  25. Frame rate mode                          : Constant
  26. Frame rate                               : 24.000 FPS
  27. Color space                              : YUV
  28. Chroma subsampling                       : 4:2:0
  29. Bit depth                                : 10 bits
  30. Bits/(Pixel*Frame)                       : 0.163
  31. Stream size                              : 4.78 GiB (90%)
  32. Title                                    : billpotter@HDSky
  33. Writing library                          : x265 - H.265/HEVC codec
  34. Default                                  : Yes
  35. Forced                                   : No
  36. Audio
  37. ID                                       : 2
  38. Format                                   : AC-3
  39. Format/Info                              : Audio Coding 3
  40. Commercial name                          : Dolby Digital
  41. Codec ID                                 : A_AC3
  42. Duration                                 : 1 h 53 min
  43. Bit rate mode                            : Constant
  44. Bit rate                                 : 640 kb/s
  45. Channel(s)                               : 6 channels
  46. Channel layout                           : L R C LFE Ls Rs
  47. Sampling rate                            : 48.0 kHz
  48. Frame rate                               : 31.250 FPS (1536 SPF)
  49. Compression mode                         : Lossy
  50. Stream size                              : 519 MiB (10%)
  51. Title                                    : Mandarin
  52. Language                                 : Chinese
  53. Service kind                             : Complete Main
  54. Default                                  : Yes
  55. Forced                                   : No
  56. Text
  57. ID                                       : 3
  58. Format                                   : PGS
  59. Muxing mode                              : zlib
  60. Codec ID                                 : S_HDMV/PGS
  61. Codec ID/Info                            : Picture based subtitle format used on BDs/HD-DVDs
  62. Duration                                 : 1 h 43 min
  63. Bit rate                                 : 31.0 kb/s
  64. Count of elements                        : 3420
  65. Stream size                              : 22.9 MiB (0%)
  66. Title                                    : CHT
  67. Language                                 : Chinese
  68. Default                                  : Yes
  69. Forced                                   : No
  70. Menu
  71. 00:00:00.000                             : en:Chapter 01
  72. 00:09:51.958                             : en:Chapter 02
  73. 00:17:31.417                             : en:Chapter 03
  74. 00:30:46.250                             : en:Chapter 04
  75. 00:38:08.375                             : en:Chapter 05
  76. 00:48:00.667                             : en:Chapter 06
  77. 00:55:03.500                             : en:Chapter 07
  78. 01:07:54.750                             : en:Chapter 08
  79. 01:19:38.667                             : en:Chapter 09
  80. 01:28:38.292                             : en:Chapter 10
  81. 01:39:38.417                             : en:Chapter 11
  82. 01:45:14.208                             : en:Chapter 12





此处一般会放置磁力链或种子下载链接,不过此链接需要注册会员才能看到,点击“立即注册”
磁力链下载【下载链接仅对注册会员开放,登陆后可见】
BT9527电影天堂 1、BT9527电影天堂提供的BT文件均来源于互联网抓取,只供网友学习交流、技术提升使用。
2、我们遵守BitTorrent点对点协议原则,任何版权问题请联系原资源发布商,我们不处理任何版权纠纷,谢谢!如有争议请联系邮箱:BT9527#hotmail.com(#换成@)
3、如果您发现某页面或地址有错误,请联系站长邮箱BT9527#hotmail.com(#换成@),我们会尽快处理。您的热心是对BT9527电影天堂最大的支持。
4、本站建议去正规影院观看电影以支持电影行业发展。
最新回复 (0)

你可以在 登录 or 注册 后,对此帖发表评论!

返回