流氓医生[国粤多音轨/简繁字幕].Doctor.Mack.1995.1080p.BluRay.DD2.0.2Audio.x265-10bit-ENTHD 6.71GB

版主小s 12天前 113

✔资源类型:暂未分类   ✔电影年份:更 早   ✔电影地区:香港   ✔电影分类:喜剧

◎译  名 流氓医生 / Mack the Knife / Doctor Mack
◎片  名 流氓醫生
◎年  代 1995
◎产  地 中国香港
◎类  别 喜剧
◎语  言 粤语
◎上映日期 1995-02-17(中国香港)
◎IMDb链接 https://www.imdb.com/title/tt0113672/
◎豆瓣评分 7.7/10 (27797人评价)
◎豆瓣链接 https://movie.douban.com/subject/1358421/
◎片  长 98分钟
◎导  演 李志毅 Chi-ngai Lee (id:1275140)
◎编  剧 李志毅 Chi-ngai Lee (id:1275140)
◎演  员 梁朝伟 Tony Leung Chiu Wai (id:1115918)
       刘青云 Sean Lau (id:1007251)
       许志安 Andy Hui Chi-On (id:1107142)
       钟丽缇 Christy Chung (id:1050179)
       杜德伟 Alex To (id:1006852)
       梁咏琪 Gigi Leung (id:1000975)
       徐濠萦 Hilary Tsui (id:1034036)
       陈小春 Jordan Chan (id:1075760)
       罗家英 Kar-Ying Law (id:1108968)
       童爱玲 Eileen Tung (id:1038824)
       吴启华 Lawrence Ng (id:1274420)
       吴耀汉 Richard Ng (id:1037408)
       林晓峰 Jerry Lamb (id:1029805)
       邓荣耀 Wing-Yiu Tang (id:1407241)
       余俊峰 Chun-Fung Yu (id:1414141)
       谢志华 Chi-Wah Tse (id:1417403)
       张之亮 Jacob Cheung (id:1078102)
       王喜 He Wong (id:1024897)
       孙家雯 Ga-man Suen  (id:1459342)
       李志毅 Chi-ngai Lee (id:1275140)
       黄仲标 Bill Wong (id:1301175)
       陳秀明 Sau-Ming Chan (id:1403988)
       关信辉 Adrian Kwan (id:1283395)
       许月珍 Jojo Hui Yuet-chun  (id:1302761)
       黄华和 Wah Wo Wong (id:1355706)

◎简  介
  医生刘文(梁朝伟 饰)表面是个玩世不恭的人,但他实际非常细腻、洞悉世情的人。他厌恶不公的医疗制度,决定到红灯区经营诊所。醉心医学的他医术高强,面对贫苦大众好施医德。在他的病人当中有英勇的警员(刘青云 饰)、风月女子等等。他除了医治病人身体上的伤痛,还乐于倾听这群草根的心声,成为了他们的好友。但他却被昔日的好友陷害,刘文面临被吊销医生执照的危机。
  1. ##### MediaInfo ######
  2. General
  3. Unique ID                                : 144302325370653661332467398141619942451 (0x6C8F9DF0473B9A16129624614DBF3433)
  4. Complete name                            : Doctor.Mack.1995.1080p.BluRay.DD2.0.2Audio.x265-10bit-ENTHD.mkv
  5. Format                                   : Matroska
  6. Format version                           : Version 4
  7. File size                                : 6.70 GiB
  8. Duration                                 : 1 h 38 min
  9. Overall bit rate                         : 9 713 kb/s
  10. Movie name                               : Doctor Mack 1995 1080p BluRay DD2.0 2Audio x265-10bit-HDS
  11. Encoded date                             : UTC 2022-06-15 02:50:58
  12. Writing application                      : mkvmerge v38.0.0 ('The Silent Type') 64-bit
  13. Writing library                          : libebml v1.3.9 + libmatroska v1.5.2
  14. Video
  15. ID                                       : 1
  16. Format                                   : HEVC
  17. Format/Info                              : High Efficiency Video Coding
  18. Format profile                           : Main 10@L5.1@High
  19. Codec ID                                 : V_MPEGH/ISO/HEVC
  20. Duration                                 : 1 h 38 min
  21. Bit rate                                 : 8 909 kb/s
  22. Width                                    : 1 920 pixels
  23. Height                                   : 1 080 pixels
  24. Display aspect ratio                     : 16:9
  25. Frame rate mode                          : Constant
  26. Frame rate                               : 24.000 FPS
  27. Color space                              : YUV
  28. Chroma subsampling                       : 4:2:0
  29. Bit depth                                : 10 bits
  30. Bits/(Pixel*Frame)                       : 0.179
  31. Stream size                              : 6.15 GiB (92%)
  32. Title                                    : billpotter@HDSky
  33. Writing library                          : x265 - H.265/HEVC codec
  34. Default                                  : Yes
  35. Forced                                   : No
  36. Audio #1
  37. ID                                       : 2
  38. Format                                   : AC-3
  39. Format/Info                              : Audio Coding 3
  40. Commercial name                          : Dolby Digital
  41. Codec ID                                 : A_AC3
  42. Duration                                 : 1 h 38 min
  43. Bit rate mode                            : Constant
  44. Bit rate                                 : 384 kb/s
  45. Channel(s)                               : 2 channels
  46. Channel layout                           : L R
  47. Sampling rate                            : 48.0 kHz
  48. Frame rate                               : 31.250 FPS (1536 SPF)
  49. Compression mode                         : Lossy
  50. Stream size                              : 271 MiB (4%)
  51. Title                                    : Mandarin
  52. Language                                 : Chinese
  53. Service kind                             : Complete Main
  54. Default                                  : Yes
  55. Forced                                   : No
  56. Audio #2
  57. ID                                       : 3
  58. Format                                   : AC-3
  59. Format/Info                              : Audio Coding 3
  60. Commercial name                          : Dolby Digital
  61. Codec ID                                 : A_AC3
  62. Duration                                 : 1 h 38 min
  63. Bit rate mode                            : Constant
  64. Bit rate                                 : 384 kb/s
  65. Channel(s)                               : 2 channels
  66. Channel layout                           : L R
  67. Sampling rate                            : 48.0 kHz
  68. Frame rate                               : 31.250 FPS (1536 SPF)
  69. Compression mode                         : Lossy
  70. Stream size                              : 271 MiB (4%)
  71. Title                                    : Cantonese
  72. Language                                 : Chinese
  73. Service kind                             : Complete Main
  74. Default                                  : No
  75. Forced                                   : No
  76. Text #1
  77. ID                                       : 4
  78. Format                                   : PGS
  79. Muxing mode                              : zlib
  80. Codec ID                                 : S_HDMV/PGS
  81. Codec ID/Info                            : Picture based subtitle format used on BDs/HD-DVDs
  82. Duration                                 : 1 h 35 min
  83. Bit rate                                 : 32.6 kb/s
  84. Count of elements                        : 3167
  85. Stream size                              : 22.2 MiB (0%)
  86. Title                                    : CHS
  87. Language                                 : Chinese
  88. Default                                  : Yes
  89. Forced                                   : No
  90. Text #2
  91. ID                                       : 5
  92. Format                                   : PGS
  93. Muxing mode                              : zlib
  94. Codec ID                                 : S_HDMV/PGS
  95. Codec ID/Info                            : Picture based subtitle format used on BDs/HD-DVDs
  96. Duration                                 : 1 h 35 min
  97. Bit rate                                 : 33.5 kb/s
  98. Count of elements                        : 3167
  99. Stream size                              : 22.9 MiB (0%)
  100. Title                                    : CHT
  101. Language                                 : Chinese
  102. Default                                  : No
  103. Forced                                   : No
  104. Menu
  105. 00:00:00.000                             : en:Chapter 01
  106. 00:06:24.333                             : en:Chapter 02
  107. 00:16:31.042                             : en:Chapter 03
  108. 00:24:44.792                             : en:Chapter 04
  109. 00:34:14.917                             : en:Chapter 05
  110. 00:41:31.667                             : en:Chapter 06
  111. 00:49:11.958                             : en:Chapter 07
  112. 00:57:44.333                             : en:Chapter 08
  113. 01:05:15.042                             : en:Chapter 09
  114. 01:14:03.167                             : en:Chapter 10
  115. 01:22:28.208                             : en:Chapter 11
  116. 01:32:21.625                             : en:Chapter 12





此处一般会放置磁力链或种子下载链接,不过此链接需要注册会员才能看到,点击“立即注册”
磁力链下载【下载链接仅对注册会员开放,登陆后可见】
BT9527电影天堂 1、BT9527电影天堂提供的BT文件均来源于互联网抓取,只供网友学习交流、技术提升使用。
2、我们遵守BitTorrent点对点协议原则,任何版权问题请联系原资源发布商,我们不处理任何版权纠纷,谢谢!如有争议请联系邮箱:BT9527#hotmail.com(#换成@)
3、如果您发现某页面或地址有错误,请联系站长邮箱BT9527#hotmail.com(#换成@),我们会尽快处理。您的热心是对BT9527电影天堂最大的支持。
4、本站建议去正规影院观看电影以支持电影行业发展。
最新回复 (0)

你可以在 登录 or 注册 后,对此帖发表评论!

返回
发新帖