最佳拍档3:女皇密令[国粤多音轨/简繁英字幕].Aces.Go.Places.III.1984.1080p.BluRay.DTS.2Audio.x265-10bit-ENTHD 6.21GB

版主小s 3月前 198

✔资源类型:暂未分类   ✔电影年份:更 早   ✔电影地区:香港   ✔电影分类:喜剧

◎译  名 最佳拍档3:女皇密令 / Aces Go Places III: Our Man from Bond Street
◎片  名 最佳拍檔3:女皇密令
◎年  代 1984
◎产  地 中国香港
◎类  别 喜剧 / 动作
◎语  言 粤语
◎上映日期 1984-01-26
◎IMDb链接 https://www.imdb.com/title/tt0088457/
◎豆瓣评分 7.3/10 (14149人评价)
◎豆瓣链接 https://movie.douban.com/subject/1305662/
◎片  长 UK: 87 分钟
◎导  演 徐克 Hark Tsui (id:1007152)
◎编  剧 黄百鸣 Raymond Wong (id:1275277)
◎演  员 许冠杰 Samuel Hui (id:1102963)
       麦嘉 Karl Maka (id:1274986)
       张艾嘉 Sylvia Chang (id:1012646)
       许冠英 Ricky Hui (id:1023727)
       曹达华 Tat-wah Cho (id:1070438)
       岑建勋 John Sham (id:1274474)
       徐克 Hark Tsui (id:1007152)
       让·梅尔桑特 Jean Mersant (id:1450461)
       李鹏飞 Pang-Fei Lee (id:1340651)
       西瓜刨 Gwa-pau Sai (id:1220481)
       理查德·基尔 Richard Kiel (id:1049696)
       皮特·格拉维斯 Peter Graves (id:1097598)
       曹查理 Charlie Cho (id:1275320)
       王嘉明 Cyrus Wong (id:1319312)
       Sanda Sugiyama Sanda Sugiyama (id:1154183)
       卢冠廷 Lowell Lo (id:1290255)
       石天 Dean Shek (id:1146001)
       麦嘉 Karl Maka (id:1274986)
       Lynsey De Paul Lynsey De Paul (id:1018419)
       黄仲标 Bill Wong (id:1301175)
       陈俊杰 Henry Chan (id:1280422)
       梁志兴 Chi-Hing Leung (id:1289860)
       黄锐民 Oliver Wong (id:1290844)
       施南生 Nansun Shi (id:1314820)

◎简  介
  黑猫(许冠杰 饰)身手敏捷,小有名气。一次,他在巴黎时忽然遭到不明身份的女杀手袭击,当他和对手一路打斗来到铁塔时,伏击在此的大钢牙和刚帽突然出击。措手不及的黑猫眼看性命不保,纵身跳下了塞纳河。                                    
                                当黑猫醒来的时候,一名自称占士邦的应该特工人员告诉他这是女皇对他的考验,现在他已通过考验,可以正式接受女皇的密令。信以为真的黑猫欣然应允,返港为女皇盗窃一枚极为贵重的宝石。当黑猫费尽九牛二虎之力完成任务后,发现事实并非如此。
  1. ##### MediaInfo ######
  2. General
  3. Unique ID                                : 91879168640776119921153434711584890230 (0x451F48C251941F3D9CF53BB2635F5D76)
  4. Complete name                            : Aces.Go.Places.III.1984.1080p.BluRay.DTS.2Audio.x265-10bit-ENTHD.mkv
  5. Format                                   : Matroska
  6. Format version                           : Version 4
  7. File size                                : 6.21 GiB
  8. Duration                                 : 1 h 35 min
  9. Overall bit rate                         : 9 298 kb/s
  10. Movie name                               : Aces Go Places III 1984 1080p BluRay DTS 2Audio x265-10bit-HDS
  11. Encoded date                             : UTC 2022-06-16 06:14:53
  12. Writing application                      : mkvmerge v67.0.0 ('Under Stars') 64-bit
  13. Writing library                          : libebml v1.4.2 + libmatroska v1.6.4 / Lavf59.17.101
  14. Video
  15. ID                                       : 1
  16. Format                                   : HEVC
  17. Format/Info                              : High Efficiency Video Coding
  18. Format profile                           : Main 10@L5.1@High
  19. Codec ID                                 : V_MPEGH/ISO/HEVC
  20. Duration                                 : 1 h 35 min
  21. Bit rate                                 : 7 110 kb/s
  22. Width                                    : 1 920 pixels
  23. Height                                   : 802 pixels
  24. Display aspect ratio                     : 2.40:1
  25. Frame rate mode                          : Constant
  26. Frame rate                               : 23.976 (24000/1001/53354) FPS
  27. Color space                              : YUV
  28. Chroma subsampling                       : 4:2:0
  29. Bit depth                                : 10 bits
  30. Bits/(Pixel*Frame)                       : 0.193
  31. Stream size                              : 4.75 GiB (76%)
  32. Title                                    : GalenMao@HDSky
  33. Default                                  : No
  34. Forced                                   : No
  35. Audio #1
  36. ID                                       : 2
  37. Format                                   : DTS
  38. Format/Info                              : Digital Theater Systems
  39. Codec ID                                 : A_DTS
  40. Duration                                 : 1 h 35 min
  41. Bit rate mode                            : Constant
  42. Bit rate                                 : 1 509 kb/s
  43. Channel(s)                               : 6 channels
  44. Channel layout                           : C L R Ls Rs LFE
  45. Sampling rate                            : 48.0 kHz
  46. Frame rate                               : 93.750 FPS (512 SPF)
  47. Bit depth                                : 24 bits
  48. Compression mode                         : Lossy
  49. Stream size                              : 1.01 GiB (16%)
  50. Title                                    : Cantonese
  51. Language                                 : Chinese
  52. Default                                  : Yes
  53. Forced                                   : No
  54. Audio #2
  55. ID                                       : 3
  56. Format                                   : AC-3
  57. Format/Info                              : Audio Coding 3
  58. Commercial name                          : Dolby Digital
  59. Codec ID                                 : A_AC3
  60. Duration                                 : 1 h 35 min
  61. Bit rate mode                            : Constant
  62. Bit rate                                 : 640 kb/s
  63. Channel(s)                               : 6 channels
  64. Channel layout                           : L R C LFE Ls Rs
  65. Sampling rate                            : 48.0 kHz
  66. Frame rate                               : 31.250 FPS (1536 SPF)
  67. Compression mode                         : Lossy
  68. Stream size                              : 437 MiB (7%)
  69. Title                                    : Mandarin
  70. Language                                 : Chinese
  71. Service kind                             : Complete Main
  72. Default                                  : Yes
  73. Forced                                   : No
  74. Text #1
  75. ID                                       : 4
  76. Format                                   : PGS
  77. Muxing mode                              : zlib
  78. Codec ID                                 : S_HDMV/PGS
  79. Codec ID/Info                            : Picture based subtitle format used on BDs/HD-DVDs
  80. Duration                                 : 1 h 31 min
  81. Bit rate                                 : 32.4 kb/s
  82. Count of elements                        : 2274
  83. Stream size                              : 21.2 MiB (0%)
  84. Title                                    : ENG
  85. Language                                 : English
  86. Default                                  : Yes
  87. Forced                                   : No
  88. Text #2
  89. ID                                       : 5
  90. Format                                   : PGS
  91. Muxing mode                              : zlib
  92. Codec ID                                 : S_HDMV/PGS
  93. Codec ID/Info                            : Picture based subtitle format used on BDs/HD-DVDs
  94. Duration                                 : 1 h 32 min
  95. Bit rate                                 : 26.0 kb/s
  96. Count of elements                        : 2452
  97. Stream size                              : 17.3 MiB (0%)
  98. Title                                    : CHS
  99. Language                                 : Chinese
  100. Default                                  : Yes
  101. Forced                                   : No
  102. Text #3
  103. ID                                       : 6
  104. Format                                   : PGS
  105. Muxing mode                              : zlib
  106. Codec ID                                 : S_HDMV/PGS
  107. Codec ID/Info                            : Picture based subtitle format used on BDs/HD-DVDs
  108. Duration                                 : 1 h 32 min
  109. Bit rate                                 : 27.1 kb/s
  110. Count of elements                        : 2452
  111. Stream size                              : 18.0 MiB (0%)
  112. Title                                    : CHT
  113. Language                                 : Chinese
  114. Default                                  : Yes
  115. Forced                                   : No
  116. Menu
  117. 00:00:00.000                             : en:第 01 章
  118. 00:03:26.748                             : en:第 02 章
  119. 00:08:04.693                             : en:第 03 章
  120. 00:12:02.889                             : en:第 04 章
  121. 00:20:19.593                             : en:第 05 章
  122. 00:25:01.792                             : en:第 06 章
  123. 00:27:39.491                             : en:第 07 章
  124. 00:31:49.699                             : en:第 08 章
  125. 00:35:29.169                             : en:第 09 章
  126. 00:41:10.551                             : en:第 10 章
  127. 00:49:12.658                             : en:第 11 章
  128. 00:53:20.239                             : en:第 12 章
  129. 00:57:00.876                             : en:第 13 章
  130. 01:01:45.160                             : en:第 14 章
  131. 01:04:35.789                             : en:第 15 章
  132. 01:07:48.856                             : en:第 16 章
  133. 01:11:11.392                             : en:第 17 章
  134. 01:15:53.841                             : en:第 18 章
  135. 01:20:26.697                             : en:第 19 章
  136. 01:27:10.308                             : en:第 20 章





此处一般会放置磁力链或种子下载链接,不过此链接需要注册会员才能看到,点击“立即注册”
磁力链下载【下载链接仅对注册会员开放,登陆后可见】
BT9527电影天堂 1、BT9527电影天堂提供的BT文件均来源于互联网抓取,只供网友学习交流、技术提升使用。
2、我们遵守BitTorrent点对点协议原则,任何版权问题请联系原资源发布商,我们不处理任何版权纠纷,谢谢!如有争议请联系邮箱:BT9527#hotmail.com(#换成@)
3、如果您发现某页面或地址有错误,请联系站长邮箱BT9527#hotmail.com(#换成@),我们会尽快处理。您的热心是对BT9527电影天堂最大的支持。
4、本站建议去正规影院观看电影以支持电影行业发展。
最新回复 (0)

你可以在 登录 or 注册 后,对此帖发表评论!

返回
发新帖