奇奇与蒂蒂:救援突击队[国英日韩多音轨/繁英字幕].Chip.n.Dale.Rescue.Rangers.2022.2160p.HDR.DSNP.WEB-DL.H.265.DDP5.1.Atmos-HDBWEB 20.29GB

版主小s 18天前 44

✔资源类型:4K   ✔电影年份:2022   ✔电影地区:欧美   ✔电影分类:喜剧

◎译  名 奇奇与蒂蒂:救援突击队 / 救难小福星(台) / 救难小英雄(港)
◎片  名 Chip 'n' Dale: Rescue Rangers
◎年  代 2022
◎产  地 美国
◎类  别 喜剧 / 动画 / 悬疑 / 冒险
◎语  言 英语
◎上映日期 2022-05-20(美国网络)
◎IMDb链接 https://www.imdb.com/title/tt3513500/
◎豆瓣评分 7.1/10 (2808人评价)
◎豆瓣链接 https://movie.douban.com/subject/33957717/
◎片  长 97分钟
◎导  演 阿吉瓦·沙弗尔 Akiva Schaffer (id:1036652)
◎编  剧 丹·格雷戈尔 Dan Gregor (id:1389009)
       道格·曼德 Doug Mand (id:1389010)
       塔德·斯通斯 Tad Stones (id:1298504)
◎演  员 约翰·木兰尼 John Mulaney (id:1275059)
       安迪·萨姆伯格 Andy Samberg (id:1025187)
       塞斯·罗根 Seth Rogen (id:1002668)
       威尔·阿奈特 Will Arnett (id:1044709)
       J·K·西蒙斯 J.K. Simmons (id:1147911)
       科里·伯顿 Corey Burton (id:1069602)
       艾瑞克·巴纳 Eric Bana (id:1016693)
       科甘-迈克尔·凯 Keegan-Michael Key (id:1000430)
       克里斯·帕内尔 Chris Parnell (id:1004763)
       丹尼斯·海斯伯特 Dennis Haysbert (id:1019056)
       琪琪·莱恩 KiKi Layne (id:1402842)
       特蕾丝·麦克尼尔 Tress MacNeille (id:1120584)
       蒂姆·罗宾逊 Tim Robinson (id:1466838)
       宝拉·阿巴杜 Paula Abdul (id:1018047)
       维克托·特平 Victor Turpin (id:1326091)
       安东尼·莫利纳利 Anthony Molinari (id:1045545)
       肯佐·李 Kenzo Lee (id:1018717)
       瑞安·阿罗索 Ryan Alosio (id:1016788)
       埃姆利·贝赫什蒂 Emil Beheshti (id:1182873)
       朱利安·格雷厄姆 Julian Graham (id:1388525)
       马克·卡西米尔·戴妮奇斯 Mark Casimir Dyniewicz (id:1254429)
       约翰尼·曼斯巴赫 Johnny Mansbach (id:1243151)
       布莱恩·泰勒 Brian Tyler (id:1276412)

◎简  介
  在《奇奇与蒂蒂:救援突击队》电视动画结束30年后,奇奇成为了一个过着枯燥生活的保险业务员,蒂蒂则动了CGI手术让自己变成时下的3D动画造型,到处参加影迷活动回味着往日的辉煌;就在此时,针对动画人物的绑架事件接二连三的发生,当受害者中出现昔日同伴的名字时,奇奇与蒂蒂阔别多年的联手,试图找出真相与挽回破裂多年的友情。
  1. ##### MediaInfo ######
  2. General
  3. Unique ID                                : 178429456109048501048939882376703735139 (0x863C43643A7A4E19744D7097C3F37563)
  4. Complete name                            : Chip.n.Dale.Rescue.Rangers.2022.2160p.HDR.DSNP.WEB-DL.H.265.DDP5.1.Atmos-HDBWEB.mkv
  5. Format                                   : Matroska
  6. Format version                           : Version 4
  7. File size                                : 20.3 GiB
  8. Duration                                 : 1 h 36 min
  9. Overall bit rate                         : 30.0 Mb/s
  10. Encoded date                             : UTC 2022-06-06 14:34:41
  11. Writing application                      : mkvmerge v67.0.0 ('Under Stars') 64-bit
  12. Writing library                          : libebml v1.4.2 + libmatroska v1.6.4
  13. Video
  14. ID                                       : 1
  15. Format                                   : HEVC
  16. Format/Info                              : High Efficiency Video Coding
  17. Format profile                           : Main 10@L5@High
  18. HDR format                               : SMPTE ST 2086, HDR10 compatible
  19. Codec ID                                 : V_MPEGH/ISO/HEVC
  20. Duration                                 : 1 h 36 min
  21. Bit rate                                 : 16.2 Mb/s
  22. Width                                    : 3 840 pixels
  23. Height                                   : 2 160 pixels
  24. Display aspect ratio                     : 16:9
  25. Frame rate mode                          : Constant
  26. Frame rate                               : 24.000 FPS
  27. Color space                              : YUV
  28. Chroma subsampling                       : 4:2:0
  29. Bit depth                                : 10 bits
  30. Bits/(Pixel*Frame)                       : 0.081
  31. Stream size                              : 10.9 GiB (54%)
  32. Language                                 : English
  33. Default                                  : Yes
  34. Forced                                   : No
  35. Color range                              : Limited
  36. Color primaries                          : BT.2020
  37. Transfer characteristics                 : PQ
  38. Matrix coefficients                      : BT.2020 non-constant
  39. Mastering display color primaries        : Display P3
  40. Mastering display luminance              : min: 0.0010 cd/m2, max: 1000 cd/m2
  41. Audio #1
  42. ID                                       : 2
  43. Format                                   : E-AC-3 JOC
  44. Format/Info                              : Enhanced AC-3 with Joint Object Coding
  45. Commercial name                          : Dolby Digital Plus with Dolby Atmos
  46. Codec ID                                 : A_EAC3
  47. Duration                                 : 1 h 36 min
  48. Bit rate mode                            : Constant
  49. Bit rate                                 : 768 kb/s
  50. Channel(s)                               : 6 channels
  51. Channel layout                           : L R C LFE Ls Rs
  52. Sampling rate                            : 48.0 kHz
  53. Frame rate                               : 31.250 FPS (1536 SPF)
  54. Compression mode                         : Lossy
  55. Stream size                              : 532 MiB (3%)
  56. Language                                 : English
  57. Service kind                             : Complete Main
  58. Default                                  : Yes
  59. Forced                                   : No
  60. Complexity index                         : 16
  61. Number of dynamic objects                : 15
  62. Bed channel count                        : 1 channel
  63. Bed channel configuration                : LFE
  64. Audio #2
  65. ID                                       : 3
  66. Format                                   : E-AC-3
  67. Format/Info                              : Enhanced AC-3
  68. Commercial name                          : Dolby Digital Plus
  69. Codec ID                                 : A_EAC3
  70. Duration                                 : 1 h 36 min
  71. Bit rate mode                            : Constant
  72. Bit rate                                 : 256 kb/s
  73. Channel(s)                               : 6 channels
  74. Channel layout                           : L R C LFE Ls Rs
  75. Sampling rate                            : 48.0 kHz
  76. Frame rate                               : 31.250 FPS (1536 SPF)
  77. Compression mode                         : Lossy
  78. Stream size                              : 177 MiB (1%)
  79. Language                                 : English
  80. Service kind                             : Complete Main
  81. Default                                  : No
  82. Forced                                   : No
  83. Audio #3
  84. ID                                       : 4
  85. Format                                   : AAC LC
  86. Format/Info                              : Advanced Audio Codec Low Complexity
  87. Codec ID                                 : A_AAC-2
  88. Duration                                 : 1 h 36 min
  89. Bit rate                                 : 125 kb/s
  90. Channel(s)                               : 2 channels
  91. Channel layout                           : L R
  92. Sampling rate                            : 48.0 kHz
  93. Frame rate                               : 46.875 FPS (1024 SPF)
  94. Compression mode                         : Lossy
  95. Stream size                              : 86.8 MiB (0%)
  96. Language                                 : English
  97. Default                                  : No
  98. Forced                                   : No
  99. Audio #4
  100. ID                                       : 5
  101. Format                                   : AAC LC
  102. Format/Info                              : Advanced Audio Codec Low Complexity
  103. Codec ID                                 : A_AAC-2
  104. Duration                                 : 1 h 36 min
  105. Bit rate                                 : 61.4 kb/s
  106. Channel(s)                               : 2 channels
  107. Channel layout                           : L R
  108. Sampling rate                            : 48.0 kHz
  109. Frame rate                               : 46.875 FPS (1024 SPF)
  110. Compression mode                         : Lossy
  111. Stream size                              : 42.5 MiB (0%)
  112. Language                                 : English
  113. Default                                  : No
  114. Forced                                   : No
  115. Audio #5
  116. ID                                       : 6
  117. Format                                   : E-AC-3
  118. Format/Info                              : Enhanced AC-3
  119. Commercial name                          : Dolby Digital Plus
  120. Codec ID                                 : A_EAC3
  121. Duration                                 : 1 h 36 min
  122. Bit rate mode                            : Constant
  123. Bit rate                                 : 256 kb/s
  124. Channel(s)                               : 6 channels
  125. Channel layout                           : L R C LFE Ls Rs
  126. Sampling rate                            : 48.0 kHz
  127. Frame rate                               : 31.250 FPS (1536 SPF)
  128. Compression mode                         : Lossy
  129. Stream size                              : 177 MiB (1%)
  130. Title                                    : Taiwan
  131. Language                                 : Chinese
  132. Service kind                             : Complete Main
  133. Default                                  : No
  134. Forced                                   : No
  135. Audio #6
  136. ID                                       : 7
  137. Format                                   : E-AC-3
  138. Format/Info                              : Enhanced AC-3
  139. Commercial name                          : Dolby Digital Plus
  140. Codec ID                                 : A_EAC3
  141. Duration                                 : 1 h 36 min
  142. Bit rate mode                            : Constant
  143. Bit rate                                 : 256 kb/s
  144. Channel(s)                               : 6 channels
  145. Channel layout                           : L R C LFE Ls Rs
  146. Sampling rate                            : 48.0 kHz
  147. Frame rate                               : 31.250 FPS (1536 SPF)
  148. Compression mode                         : Lossy
  149. Stream size                              : 177 MiB (1%)
  150. Title                                    : Taiwan
  151. Language                                 : Chinese
  152. Service kind                             : Complete Main
  153. Default                                  : No
  154. Forced                                   : No
  155. Audio #7
  156. ID                                       : 8
  157. Format                                   : AAC LC
  158. Format/Info                              : Advanced Audio Codec Low Complexity
  159. Codec ID                                 : A_AAC-2
  160. Duration                                 : 1 h 36 min
  161. Bit rate                                 : 125 kb/s
  162. Channel(s)                               : 2 channels
  163. Channel layout                           : L R
  164. Sampling rate                            : 48.0 kHz
  165. Frame rate                               : 46.875 FPS (1024 SPF)
  166. Compression mode                         : Lossy
  167. Stream size                              : 86.8 MiB (0%)
  168. Title                                    : Taiwan
  169. Language                                 : Chinese
  170. Default                                  : No
  171. Forced                                   : No
  172. Audio #8
  173. ID                                       : 9
  174. Format                                   : AAC LC
  175. Format/Info                              : Advanced Audio Codec Low Complexity
  176. Codec ID                                 : A_AAC-2
  177. Duration                                 : 1 h 36 min
  178. Bit rate                                 : 61.4 kb/s
  179. Channel(s)                               : 2 channels
  180. Channel layout                           : L R
  181. Sampling rate                            : 48.0 kHz
  182. Frame rate                               : 46.875 FPS (1024 SPF)
  183. Compression mode                         : Lossy
  184. Stream size                              : 42.5 MiB (0%)
  185. Title                                    : Taiwan
  186. Language                                 : Chinese
  187. Default                                  : No
  188. Forced                                   : No
  189. Audio #9
  190. ID                                       : 10
  191. Format                                   : E-AC-3
  192. Format/Info                              : Enhanced AC-3
  193. Commercial name                          : Dolby Digital Plus
  194. Codec ID                                 : A_EAC3
  195. Duration                                 : 1 h 36 min
  196. Bit rate mode                            : Constant
  197. Bit rate                                 : 256 kb/s
  198. Channel(s)                               : 6 channels
  199. Channel layout                           : L R C LFE Ls Rs
  200. Sampling rate                            : 48.0 kHz
  201. Frame rate                               : 31.250 FPS (1536 SPF)
  202. Compression mode                         : Lossy
  203. Stream size                              : 177 MiB (1%)
  204. Language                                 : Danish
  205. Service kind                             : Complete Main
  206. Default                                  : No
  207. Forced                                   : No
  208. Audio #10
  209. ID                                       : 11
  210. Format                                   : E-AC-3
  211. Format/Info                              : Enhanced AC-3
  212. Commercial name                          : Dolby Digital Plus
  213. Codec ID                                 : A_EAC3
  214. Duration                                 : 1 h 36 min
  215. Bit rate mode                            : Constant
  216. Bit rate                                 : 256 kb/s
  217. Channel(s)                               : 6 channels
  218. Channel layout                           : L R C LFE Ls Rs
  219. Sampling rate                            : 48.0 kHz
  220. Frame rate                               : 31.250 FPS (1536 SPF)
  221. Compression mode                         : Lossy
  222. Stream size                              : 177 MiB (1%)
  223. Language                                 : Danish
  224. Service kind                             : Complete Main
  225. Default                                  : No
  226. Forced                                   : No
  227. Audio #11
  228. ID                                       : 12
  229. Format                                   : AAC LC
  230. Format/Info                              : Advanced Audio Codec Low Complexity
  231. Codec ID                                 : A_AAC-2
  232. Duration                                 : 1 h 36 min
  233. Bit rate                                 : 125 kb/s
  234. Channel(s)                               : 2 channels
  235. Channel layout                           : L R
  236. Sampling rate                            : 48.0 kHz
  237. Frame rate                               : 46.875 FPS (1024 SPF)
  238. Compression mode                         : Lossy
  239. Stream size                              : 86.8 MiB (0%)
  240. Language                                 : Danish
  241. Default                                  : No
  242. Forced                                   : No
  243. Audio #12
  244. ID                                       : 13
  245. Format                                   : AAC LC
  246. Format/Info                              : Advanced Audio Codec Low Complexity
  247. Codec ID                                 : A_AAC-2
  248. Duration                                 : 1 h 36 min
  249. Bit rate                                 : 61.4 kb/s
  250. Channel(s)                               : 2 channels
  251. Channel layout                           : L R
  252. Sampling rate                            : 48.0 kHz
  253. Frame rate                               : 46.875 FPS (1024 SPF)
  254. Compression mode                         : Lossy
  255. Stream size                              : 42.5 MiB (0%)
  256. Language                                 : Danish
  257. Default                                  : No
  258. Forced                                   : No
  259. Audio #13
  260. ID                                       : 14
  261. Format                                   : E-AC-3
  262. Format/Info                              : Enhanced AC-3
  263. Commercial name                          : Dolby Digital Plus
  264. Codec ID                                 : A_EAC3
  265. Duration                                 : 1 h 36 min
  266. Bit rate mode                            : Constant
  267. Bit rate                                 : 256 kb/s
  268. Channel(s)                               : 6 channels
  269. Channel layout                           : L R C LFE Ls Rs
  270. Sampling rate                            : 48.0 kHz
  271. Frame rate                               : 31.250 FPS (1536 SPF)
  272. Compression mode                         : Lossy
  273. Stream size                              : 177 MiB (1%)
  274. Language                                 : German
  275. Service kind                             : Complete Main
  276. Default                                  : No
  277. Forced                                   : No
  278. Audio #14
  279. ID                                       : 15
  280. Format                                   : E-AC-3
  281. Format/Info                              : Enhanced AC-3
  282. Commercial name                          : Dolby Digital Plus
  283. Codec ID                                 : A_EAC3
  284. Duration                                 : 1 h 36 min
  285. Bit rate mode                            : Constant
  286. Bit rate                                 : 256 kb/s
  287. Channel(s)                               : 6 channels
  288. Channel layout                           : L R C LFE Ls Rs
  289. Sampling rate                            : 48.0 kHz
  290. Frame rate                               : 31.250 FPS (1536 SPF)
  291. Compression mode                         : Lossy
  292. Stream size                              : 177 MiB (1%)
  293. Language                                 : German
  294. Service kind                             : Complete Main
  295. Default                                  : No
  296. Forced                                   : No
  297. Audio #15
  298. ID                                       : 16
  299. Format                                   : AAC LC
  300. Format/Info                              : Advanced Audio Codec Low Complexity
  301. Codec ID                                 : A_AAC-2
  302. Duration                                 : 1 h 36 min
  303. Bit rate                                 : 125 kb/s
  304. Channel(s)                               : 2 channels
  305. Channel layout                           : L R
  306. Sampling rate                            : 48.0 kHz
  307. Frame rate                               : 46.875 FPS (1024 SPF)
  308. Compression mode                         : Lossy
  309. Stream size                              : 86.8 MiB (0%)
  310. Language                                 : German
  311. Default                                  : No
  312. Forced                                   : No
  313. Audio #16
  314. ID                                       : 17
  315. Format                                   : AAC LC
  316. Format/Info                              : Advanced Audio Codec Low Complexity
  317. Codec ID                                 : A_AAC-2
  318. Duration                                 : 1 h 36 min
  319. Bit rate                                 : 61.4 kb/s
  320. Channel(s)                               : 2 channels
  321. Channel layout                           : L R
  322. Sampling rate                            : 48.0 kHz
  323. Frame rate                               : 46.875 FPS (1024 SPF)
  324. Compression mode                         : Lossy
  325. Stream size                              : 42.5 MiB (0%)
  326. Language                                 : German
  327. Default                                  : No
  328. Forced                                   : No
  329. Audio #17
  330. ID                                       : 18
  331. Format                                   : E-AC-3
  332. Format/Info                              : Enhanced AC-3
  333. Commercial name                          : Dolby Digital Plus
  334. Codec ID                                 : A_EAC3
  335. Duration                                 : 1 h 36 min
  336. Bit rate mode                            : Constant
  337. Bit rate                                 : 256 kb/s
  338. Channel(s)                               : 6 channels
  339. Channel layout                           : L R C LFE Ls Rs
  340. Sampling rate                            : 48.0 kHz
  341. Frame rate                               : 31.250 FPS (1536 SPF)
  342. Compression mode                         : Lossy
  343. Stream size                              : 177 MiB (1%)
  344. Language                                 : Greek
  345. Service kind                             : Complete Main
  346. Default                                  : No
  347. Forced                                   : No
  348. Audio #18
  349. ID                                       : 19
  350. Format                                   : E-AC-3
  351. Format/Info                              : Enhanced AC-3
  352. Commercial name                          : Dolby Digital Plus
  353. Codec ID                                 : A_EAC3
  354. Duration                                 : 1 h 36 min
  355. Bit rate mode                            : Constant
  356. Bit rate                                 : 256 kb/s
  357. Channel(s)                               : 6 channels
  358. Channel layout                           : L R C LFE Ls Rs
  359. Sampling rate                            : 48.0 kHz
  360. Frame rate                               : 31.250 FPS (1536 SPF)
  361. Compression mode                         : Lossy
  362. Stream size                              : 177 MiB (1%)
  363. Language                                 : Greek
  364. Service kind                             : Complete Main
  365. Default                                  : No
  366. Forced                                   : No
  367. Audio #19
  368. ID                                       : 20
  369. Format                                   : AAC LC
  370. Format/Info                              : Advanced Audio Codec Low Complexity
  371. Codec ID                                 : A_AAC-2
  372. Duration                                 : 1 h 36 min
  373. Bit rate                                 : 125 kb/s
  374. Channel(s)                               : 2 channels
  375. Channel layout                           : L R
  376. Sampling rate                            : 48.0 kHz
  377. Frame rate                               : 46.875 FPS (1024 SPF)
  378. Compression mode                         : Lossy
  379. Stream size                              : 86.8 MiB (0%)
  380. Language                                 : Greek
  381. Default                                  : No
  382. Forced                                   : No
  383. Audio #20
  384. ID                                       : 21
  385. Format                                   : AAC LC
  386. Format/Info                              : Advanced Audio Codec Low Complexity
  387. Codec ID                                 : A_AAC-2
  388. Duration                                 : 1 h 36 min
  389. Bit rate                                 : 61.4 kb/s
  390. Channel(s)                               : 2 channels
  391. Channel layout                           : L R
  392. Sampling rate                            : 48.0 kHz
  393. Frame rate                               : 46.875 FPS (1024 SPF)
  394. Compression mode                         : Lossy
  395. Stream size                              : 42.5 MiB (0%)
  396. Language                                 : Greek
  397. Default                                  : No
  398. Forced                                   : No
  399. Audio #21
  400. ID                                       : 22
  401. Format                                   : E-AC-3
  402. Format/Info                              : Enhanced AC-3
  403. Commercial name                          : Dolby Digital Plus
  404. Codec ID                                 : A_EAC3
  405. Duration                                 : 1 h 36 min
  406. Bit rate mode                            : Constant
  407. Bit rate                                 : 256 kb/s
  408. Channel(s)                               : 6 channels
  409. Channel layout                           : L R C LFE Ls Rs
  410. Sampling rate                            : 48.0 kHz
  411. Frame rate                               : 31.250 FPS (1536 SPF)
  412. Compression mode                         : Lossy
  413. Stream size                              : 177 MiB (1%)
  414. Title                                    : Latin America
  415. Language                                 : Spanish
  416. Service kind                             : Complete Main
  417. Default                                  : No
  418. Forced                                   : No
  419. Audio #22
  420. ID                                       : 23
  421. Format                                   : E-AC-3
  422. Format/Info                              : Enhanced AC-3
  423. Commercial name                          : Dolby Digital Plus
  424. Codec ID                                 : A_EAC3
  425. Duration                                 : 1 h 36 min
  426. Bit rate mode                            : Constant
  427. Bit rate                                 : 256 kb/s
  428. Channel(s)                               : 6 channels
  429. Channel layout                           : L R C LFE Ls Rs
  430. Sampling rate                            : 48.0 kHz
  431. Frame rate                               : 31.250 FPS (1536 SPF)
  432. Compression mode                         : Lossy
  433. Stream size                              : 177 MiB (1%)
  434. Title                                    : Latin America
  435. Language                                 : Spanish
  436. Service kind                             : Complete Main
  437. Default                                  : No
  438. Forced                                   : No
  439. Audio #23
  440. ID                                       : 24
  441. Format                                   : AAC LC
  442. Format/Info                              : Advanced Audio Codec Low Complexity
  443. Codec ID                                 : A_AAC-2
  444. Duration                                 : 1 h 36 min
  445. Bit rate                                 : 125 kb/s
  446. Channel(s)                               : 2 channels
  447. Channel layout                           : L R
  448. Sampling rate                            : 48.0 kHz
  449. Frame rate                               : 46.875 FPS (1024 SPF)
  450. Compression mode                         : Lossy
  451. Stream size                              : 86.8 MiB (0%)
  452. Title                                    : Latin America
  453. Language                                 : Spanish
  454. Default                                  : No
  455. Forced                                   : No
  456. Audio #24
  457. ID                                       : 25
  458. Format                                   : AAC LC
  459. Format/Info                              : Advanced Audio Codec Low Complexity
  460. Codec ID                                 : A_AAC-2
  461. Duration                                 : 1 h 36 min
  462. Bit rate                                 : 61.4 kb/s
  463. Channel(s)                               : 2 channels
  464. Channel layout                           : L R
  465. Sampling rate                            : 48.0 kHz
  466. Frame rate                               : 46.875 FPS (1024 SPF)
  467. Compression mode                         : Lossy
  468. Stream size                              : 42.5 MiB (0%)
  469. Title                                    : Latin America
  470. Language                                 : Spanish
  471. Default                                  : No
  472. Forced                                   : No
  473. Audio #25
  474. ID                                       : 26
  475. Format                                   : E-AC-3
  476. Format/Info                              : Enhanced AC-3
  477. Commercial name                          : Dolby Digital Plus
  478. Codec ID                                 : A_EAC3
  479. Duration                                 : 1 h 36 min
  480. Bit rate mode                            : Constant
  481. Bit rate                                 : 256 kb/s
  482. Channel(s)                               : 6 channels
  483. Channel layout                           : L R C LFE Ls Rs
  484. Sampling rate                            : 48.0 kHz
  485. Frame rate                               : 31.250 FPS (1536 SPF)
  486. Compression mode                         : Lossy
  487. Stream size                              : 177 MiB (1%)
  488. Language                                 : Spanish
  489. Service kind                             : Complete Main
  490. Default                                  : No
  491. Forced                                   : No
  492. Audio #26
  493. ID                                       : 27
  494. Format                                   : E-AC-3
  495. Format/Info                              : Enhanced AC-3
  496. Commercial name                          : Dolby Digital Plus
  497. Codec ID                                 : A_EAC3
  498. Duration                                 : 1 h 36 min
  499. Bit rate mode                            : Constant
  500. Bit rate                                 : 256 kb/s
  501. Channel(s)                               : 6 channels
  502. Channel layout                           : L R C LFE Ls Rs
  503. Sampling rate                            : 48.0 kHz
  504. Frame rate                               : 31.250 FPS (1536 SPF)
  505. Compression mode                         : Lossy
  506. Stream size                              : 177 MiB (1%)
  507. Language                                 : Spanish
  508. Service kind                             : Complete Main
  509. Default                                  : No
  510. Forced                                   : No
  511. Audio #27
  512. ID                                       : 28
  513. Format                                   : AAC LC
  514. Format/Info                              : Advanced Audio Codec Low Complexity
  515. Codec ID                                 : A_AAC-2
  516. Duration                                 : 1 h 36 min
  517. Bit rate                                 : 125 kb/s
  518. Channel(s)                               : 2 channels
  519. Channel layout                           : L R
  520. Sampling rate                            : 48.0 kHz
  521. Frame rate                               : 46.875 FPS (1024 SPF)
  522. Compression mode                         : Lossy
  523. Stream size                              : 86.8 MiB (0%)
  524. Language                                 : Spanish
  525. Default                                  : No
  526. Forced                                   : No
  527. Audio #28
  528. ID                                       : 29
  529. Format                                   : AAC LC
  530. Format/Info                              : Advanced Audio Codec Low Complexity
  531. Codec ID                                 : A_AAC-2
  532. Duration                                 : 1 h 36 min
  533. Bit rate                                 : 61.4 kb/s
  534. Channel(s)                               : 2 channels
  535. Channel layout                           : L R
  536. Sampling rate                            : 48.0 kHz
  537. Frame rate                               : 46.875 FPS (1024 SPF)
  538. Compression mode                         : Lossy
  539. Stream size                              : 42.5 MiB (0%)
  540. Language                                 : Spanish
  541. Default                                  : No
  542. Forced                                   : No
  543. Audio #29
  544. ID                                       : 30
  545. Format                                   : E-AC-3
  546. Format/Info                              : Enhanced AC-3
  547. Commercial name                          : Dolby Digital Plus
  548. Codec ID                                 : A_EAC3
  549. Duration                                 : 1 h 36 min
  550. Bit rate mode                            : Constant
  551. Bit rate                                 : 256 kb/s
  552. Channel(s)                               : 6 channels
  553. Channel layout                           : L R C LFE Ls Rs
  554. Sampling rate                            : 48.0 kHz
  555. Frame rate                               : 31.250 FPS (1536 SPF)
  556. Compression mode                         : Lossy
  557. Stream size                              : 177 MiB (1%)
  558. Language                                 : Finnish
  559. Service kind                             : Complete Main
  560. Default                                  : No
  561. Forced                                   : No
  562. Audio #30
  563. ID                                       : 31
  564. Format                                   : E-AC-3
  565. Format/Info                              : Enhanced AC-3
  566. Commercial name                          : Dolby Digital Plus
  567. Codec ID                                 : A_EAC3
  568. Duration                                 : 1 h 36 min
  569. Bit rate mode                            : Constant
  570. Bit rate                                 : 256 kb/s
  571. Channel(s)                               : 6 channels
  572. Channel layout                           : L R C LFE Ls Rs
  573. Sampling rate                            : 48.0 kHz
  574. Frame rate                               : 31.250 FPS (1536 SPF)
  575. Compression mode                         : Lossy
  576. Stream size                              : 177 MiB (1%)
  577. Language                                 : Finnish
  578. Service kind                             : Complete Main
  579. Default                                  : No
  580. Forced                                   : No
  581. Audio #31
  582. ID                                       : 32
  583. Format                                   : AAC LC
  584. Format/Info                              : Advanced Audio Codec Low Complexity
  585. Codec ID                                 : A_AAC-2
  586. Duration                                 : 1 h 36 min
  587. Bit rate                                 : 125 kb/s
  588. Channel(s)                               : 2 channels
  589. Channel layout                           : L R
  590. Sampling rate                            : 48.0 kHz
  591. Frame rate                               : 46.875 FPS (1024 SPF)
  592. Compression mode                         : Lossy
  593. Stream size                              : 86.8 MiB (0%)
  594. Language                                 : Finnish
  595. Default                                  : No
  596. Forced                                   : No
  597. Audio #32
  598. ID                                       : 33
  599. Format                                   : AAC LC
  600. Format/Info                              : Advanced Audio Codec Low Complexity
  601. Codec ID                                 : A_AAC-2
  602. Duration                                 : 1 h 36 min
  603. Bit rate                                 : 61.4 kb/s
  604. Channel(s)                               : 2 channels
  605. Channel layout                           : L R
  606. Sampling rate                            : 48.0 kHz
  607. Frame rate                               : 46.875 FPS (1024 SPF)
  608. Compression mode                         : Lossy
  609. Stream size                              : 42.5 MiB (0%)
  610. Language                                 : Finnish
  611. Default                                  : No
  612. Forced                                   : No
  613. Audio #33
  614. ID                                       : 34
  615. Format                                   : E-AC-3
  616. Format/Info                              : Enhanced AC-3
  617. Commercial name                          : Dolby Digital Plus
  618. Codec ID                                 : A_EAC3
  619. Duration                                 : 1 h 36 min
  620. Bit rate mode                            : Constant
  621. Bit rate                                 : 256 kb/s
  622. Channel(s)                               : 6 channels
  623. Channel layout                           : L R C LFE Ls Rs
  624. Sampling rate                            : 48.0 kHz
  625. Frame rate                               : 31.250 FPS (1536 SPF)
  626. Compression mode                         : Lossy
  627. Stream size                              : 177 MiB (1%)
  628. Language                                 : French
  629. Service kind                             : Complete Main
  630. Default                                  : No
  631. Forced                                   : No
  632. Audio #34
  633. ID                                       : 35
  634. Format                                   : E-AC-3
  635. Format/Info                              : Enhanced AC-3
  636. Commercial name                          : Dolby Digital Plus
  637. Codec ID                                 : A_EAC3
  638. Duration                                 : 1 h 36 min
  639. Bit rate mode                            : Constant
  640. Bit rate                                 : 256 kb/s
  641. Channel(s)                               : 6 channels
  642. Channel layout                           : L R C LFE Ls Rs
  643. Sampling rate                            : 48.0 kHz
  644. Frame rate                               : 31.250 FPS (1536 SPF)
  645. Compression mode                         : Lossy
  646. Stream size                              : 177 MiB (1%)
  647. Language                                 : French
  648. Service kind                             : Complete Main
  649. Default                                  : No
  650. Forced                                   : No
  651. Audio #35
  652. ID                                       : 36
  653. Format                                   : AAC LC
  654. Format/Info                              : Advanced Audio Codec Low Complexity
  655. Codec ID                                 : A_AAC-2
  656. Duration                                 : 1 h 36 min
  657. Bit rate                                 : 125 kb/s
  658. Channel(s)                               : 2 channels
  659. Channel layout                           : L R
  660. Sampling rate                            : 48.0 kHz
  661. Frame rate                               : 46.875 FPS (1024 SPF)
  662. Compression mode                         : Lossy
  663. Stream size                              : 86.8 MiB (0%)
  664. Language                                 : French
  665. Default                                  : No
  666. Forced                                   : No
  667. Audio #36
  668. ID                                       : 37
  669. Format                                   : AAC LC
  670. Format/Info                              : Advanced Audio Codec Low Complexity
  671. Codec ID                                 : A_AAC-2
  672. Duration                                 : 1 h 36 min
  673. Bit rate                                 : 61.4 kb/s
  674. Channel(s)                               : 2 channels
  675. Channel layout                           : L R
  676. Sampling rate                            : 48.0 kHz
  677. Frame rate                               : 46.875 FPS (1024 SPF)
  678. Compression mode                         : Lossy
  679. Stream size                              : 42.5 MiB (0%)
  680. Language                                 : French
  681. Default                                  : No
  682. Forced                                   : No
  683. Audio #37
  684. ID                                       : 38
  685. Format                                   : E-AC-3
  686. Format/Info                              : Enhanced AC-3
  687. Commercial name                          : Dolby Digital Plus
  688. Codec ID                                 : A_EAC3
  689. Duration                                 : 1 h 36 min
  690. Bit rate mode                            : Constant
  691. Bit rate                                 : 256 kb/s
  692. Channel(s)                               : 6 channels
  693. Channel layout                           : L R C LFE Ls Rs
  694. Sampling rate                            : 48.0 kHz
  695. Frame rate                               : 31.250 FPS (1536 SPF)
  696. Compression mode                         : Lossy
  697. Stream size                              : 177 MiB (1%)
  698. Language                                 : Italian
  699. Service kind                             : Complete Main
  700. Default                                  : No
  701. Forced                                   : No
  702. Audio #38
  703. ID                                       : 39
  704. Format                                   : E-AC-3
  705. Format/Info                              : Enhanced AC-3
  706. Commercial name                          : Dolby Digital Plus
  707. Codec ID                                 : A_EAC3
  708. Duration                                 : 1 h 36 min
  709. Bit rate mode                            : Constant
  710. Bit rate                                 : 256 kb/s
  711. Channel(s)                               : 6 channels
  712. Channel layout                           : L R C LFE Ls Rs
  713. Sampling rate                            : 48.0 kHz
  714. Frame rate                               : 31.250 FPS (1536 SPF)
  715. Compression mode                         : Lossy
  716. Stream size                              : 177 MiB (1%)
  717. Language                                 : Italian
  718. Service kind                             : Complete Main
  719. Default                                  : No
  720. Forced                                   : No
  721. Audio #39
  722. ID                                       : 40
  723. Format                                   : AAC LC
  724. Format/Info                              : Advanced Audio Codec Low Complexity
  725. Codec ID                                 : A_AAC-2
  726. Duration                                 : 1 h 36 min
  727. Bit rate                                 : 125 kb/s
  728. Channel(s)                               : 2 channels
  729. Channel layout                           : L R
  730. Sampling rate                            : 48.0 kHz
  731. Frame rate                               : 46.875 FPS (1024 SPF)
  732. Compression mode                         : Lossy
  733. Stream size                              : 86.8 MiB (0%)
  734. Language                                 : Italian
  735. Default                                  : No
  736. Forced                                   : No
  737. Audio #40
  738. ID                                       : 41
  739. Format                                   : AAC LC
  740. Format/Info                              : Advanced Audio Codec Low Complexity
  741. Codec ID                                 : A_AAC-2
  742. Duration                                 : 1 h 36 min
  743. Bit rate                                 : 61.4 kb/s
  744. Channel(s)                               : 2 channels
  745. Channel layout                           : L R
  746. Sampling rate                            : 48.0 kHz
  747. Frame rate                               : 46.875 FPS (1024 SPF)
  748. Compression mode                         : Lossy
  749. Stream size                              : 42.5 MiB (0%)
  750. Language                                 : Italian
  751. Default                                  : No
  752. Forced                                   : No
  753. Audio #41
  754. ID                                       : 42
  755. Format                                   : E-AC-3
  756. Format/Info                              : Enhanced AC-3
  757. Commercial name                          : Dolby Digital Plus
  758. Codec ID                                 : A_EAC3
  759. Duration                                 : 1 h 36 min
  760. Bit rate mode                            : Constant
  761. Bit rate                                 : 256 kb/s
  762. Channel(s)                               : 6 channels
  763. Channel layout                           : L R C LFE Ls Rs
  764. Sampling rate                            : 48.0 kHz
  765. Frame rate                               : 31.250 FPS (1536 SPF)
  766. Compression mode                         : Lossy
  767. Stream size                              : 177 MiB (1%)
  768. Language                                 : Japanese
  769. Service kind                             : Complete Main
  770. Default                                  : No
  771. Forced                                   : No
  772. Audio #42
  773. ID                                       : 43
  774. Format                                   : E-AC-3
  775. Format/Info                              : Enhanced AC-3
  776. Commercial name                          : Dolby Digital Plus
  777. Codec ID                                 : A_EAC3
  778. Duration                                 : 1 h 36 min
  779. Bit rate mode                            : Constant
  780. Bit rate                                 : 256 kb/s
  781. Channel(s)                               : 6 channels
  782. Channel layout                           : L R C LFE Ls Rs
  783. Sampling rate                            : 48.0 kHz
  784. Frame rate                               : 31.250 FPS (1536 SPF)
  785. Compression mode                         : Lossy
  786. Stream size                              : 177 MiB (1%)
  787. Language                                 : Japanese
  788. Service kind                             : Complete Main
  789. Default                                  : No
  790. Forced                                   : No
  791. Audio #43
  792. ID                                       : 44
  793. Format                                   : AAC LC
  794. Format/Info                              : Advanced Audio Codec Low Complexity
  795. Codec ID                                 : A_AAC-2
  796. Duration                                 : 1 h 36 min
  797. Bit rate                                 : 125 kb/s
  798. Channel(s)                               : 2 channels
  799. Channel layout                           : L R
  800. Sampling rate                            : 48.0 kHz
  801. Frame rate                               : 46.875 FPS (1024 SPF)
  802. Compression mode                         : Lossy
  803. Stream size                              : 86.8 MiB (0%)
  804. Language                                 : Japanese
  805. Default                                  : No
  806. Forced                                   : No
  807. Audio #44
  808. ID                                       : 45
  809. Format                                   : AAC LC
  810. Format/Info                              : Advanced Audio Codec Low Complexity
  811. Codec ID                                 : A_AAC-2
  812. Duration                                 : 1 h 36 min
  813. Bit rate                                 : 61.4 kb/s
  814. Channel(s)                               : 2 channels
  815. Channel layout                           : L R
  816. Sampling rate                            : 48.0 kHz
  817. Frame rate                               : 46.875 FPS (1024 SPF)
  818. Compression mode                         : Lossy
  819. Stream size                              : 42.5 MiB (0%)
  820. Language                                 : Japanese
  821. Default                                  : No
  822. Forced                                   : No
  823. Audio #45
  824. ID                                       : 46
  825. Format                                   : E-AC-3
  826. Format/Info                              : Enhanced AC-3
  827. Commercial name                          : Dolby Digital Plus
  828. Codec ID                                 : A_EAC3
  829. Duration                                 : 1 h 36 min
  830. Bit rate mode                            : Constant
  831. Bit rate                                 : 256 kb/s
  832. Channel(s)                               : 6 channels
  833. Channel layout                           : L R C LFE Ls Rs
  834. Sampling rate                            : 48.0 kHz
  835. Frame rate                               : 31.250 FPS (1536 SPF)
  836. Compression mode                         : Lossy
  837. Stream size                              : 177 MiB (1%)
  838. Language                                 : Korean
  839. Service kind                             : Complete Main
  840. Default                                  : No
  841. Forced                                   : No
  842. Audio #46
  843. ID                                       : 47
  844. Format                                   : E-AC-3
  845. Format/Info                              : Enhanced AC-3
  846. Commercial name                          : Dolby Digital Plus
  847. Codec ID                                 : A_EAC3
  848. Duration                                 : 1 h 36 min
  849. Bit rate mode                            : Constant
  850. Bit rate                                 : 256 kb/s
  851. Channel(s)                               : 6 channels
  852. Channel layout                           : L R C LFE Ls Rs
  853. Sampling rate                            : 48.0 kHz
  854. Frame rate                               : 31.250 FPS (1536 SPF)
  855. Compression mode                         : Lossy
  856. Stream size                              : 177 MiB (1%)
  857. Language                                 : Korean
  858. Service kind                             : Complete Main
  859. Default                                  : No
  860. Forced                                   : No
  861. Audio #47
  862. ID                                       : 48
  863. Format                                   : AAC LC
  864. Format/Info                              : Advanced Audio Codec Low Complexity
  865. Codec ID                                 : A_AAC-2
  866. Duration                                 : 1 h 36 min
  867. Bit rate                                 : 125 kb/s
  868. Channel(s)                               : 2 channels
  869. Channel layout                           : L R
  870. Sampling rate                            : 48.0 kHz
  871. Frame rate                               : 46.875 FPS (1024 SPF)
  872. Compression mode                         : Lossy
  873. Stream size                              : 86.8 MiB (0%)
  874. Language                                 : Korean
  875. Default                                  : No
  876. Forced                                   : No
  877. Audio #48
  878. ID                                       : 49
  879. Format                                   : AAC LC
  880. Format/Info                              : Advanced Audio Codec Low Complexity
  881. Codec ID                                 : A_AAC-2
  882. Duration                                 : 1 h 36 min
  883. Bit rate                                 : 61.4 kb/s
  884. Channel(s)                               : 2 channels
  885. Channel layout                           : L R
  886. Sampling rate                            : 48.0 kHz
  887. Frame rate                               : 46.875 FPS (1024 SPF)
  888. Compression mode                         : Lossy
  889. Stream size                              : 42.5 MiB (0%)
  890. Language                                 : Korean
  891. Default                                  : No
  892. Forced                                   : No
  893. Audio #49
  894. ID                                       : 50
  895. Format                                   : E-AC-3
  896. Format/Info                              : Enhanced AC-3
  897. Commercial name                          : Dolby Digital Plus
  898. Codec ID                                 : A_EAC3
  899. Duration                                 : 1 h 36 min
  900. Bit rate mode                            : Constant
  901. Bit rate                                 : 256 kb/s
  902. Channel(s)                               : 6 channels
  903. Channel layout                           : L R C LFE Ls Rs
  904. Sampling rate                            : 48.0 kHz
  905. Frame rate                               : 31.250 FPS (1536 SPF)
  906. Compression mode                         : Lossy
  907. Stream size                              : 177 MiB (1%)
  908. Language                                 : Norwegian Bokmal
  909. Service kind                             : Complete Main
  910. Default                                  : No
  911. Forced                                   : No
  912. Audio #50
  913. ID                                       : 51
  914. Format                                   : E-AC-3
  915. Format/Info                              : Enhanced AC-3
  916. Commercial name                          : Dolby Digital Plus
  917. Codec ID                                 : A_EAC3
  918. Duration                                 : 1 h 36 min
  919. Bit rate mode                            : Constant
  920. Bit rate                                 : 256 kb/s
  921. Channel(s)                               : 6 channels
  922. Channel layout                           : L R C LFE Ls Rs
  923. Sampling rate                            : 48.0 kHz
  924. Frame rate                               : 31.250 FPS (1536 SPF)
  925. Compression mode                         : Lossy
  926. Stream size                              : 177 MiB (1%)
  927. Language                                 : Norwegian Bokmal
  928. Service kind                             : Complete Main
  929. Default                                  : No
  930. Forced                                   : No
  931. Audio #51
  932. ID                                       : 52
  933. Format                                   : AAC LC
  934. Format/Info                              : Advanced Audio Codec Low Complexity
  935. Codec ID                                 : A_AAC-2
  936. Duration                                 : 1 h 36 min
  937. Bit rate                                 : 125 kb/s
  938. Channel(s)                               : 2 channels
  939. Channel layout                           : L R
  940. Sampling rate                            : 48.0 kHz
  941. Frame rate                               : 46.875 FPS (1024 SPF)
  942. Compression mode                         : Lossy
  943. Stream size                              : 86.8 MiB (0%)
  944. Language                                 : Norwegian Bokmal
  945. Default                                  : No
  946. Forced                                   : No
  947. Audio #52
  948. ID                                       : 53
  949. Format                                   : AAC LC
  950. Format/Info                              : Advanced Audio Codec Low Complexity
  951. Codec ID                                 : A_AAC-2
  952. Duration                                 : 1 h 36 min
  953. Bit rate                                 : 61.4 kb/s
  954. Channel(s)                               : 2 channels
  955. Channel layout                           : L R
  956. Sampling rate                            : 48.0 kHz
  957. Frame rate                               : 46.875 FPS (1024 SPF)
  958. Compression mode                         : Lossy
  959. Stream size                              : 42.5 MiB (0%)
  960. Language                                 : Norwegian Bokmal
  961. Default                                  : No
  962. Forced                                   : No
  963. Audio #53
  964. ID                                       : 54
  965. Format                                   : E-AC-3
  966. Format/Info                              : Enhanced AC-3
  967. Commercial name                          : Dolby Digital Plus
  968. Codec ID                                 : A_EAC3
  969. Duration                                 : 1 h 36 min
  970. Bit rate mode                            : Constant
  971. Bit rate                                 : 256 kb/s
  972. Channel(s)                               : 6 channels
  973. Channel layout                           : L R C LFE Ls Rs
  974. Sampling rate                            : 48.0 kHz
  975. Frame rate                               : 31.250 FPS (1536 SPF)
  976. Compression mode                         : Lossy
  977. Stream size                              : 177 MiB (1%)
  978. Language                                 : Dutch
  979. Service kind                             : Complete Main
  980. Default                                  : No
  981. Forced                                   : No
  982. Audio #54
  983. ID                                       : 55
  984. Format                                   : E-AC-3
  985. Format/Info                              : Enhanced AC-3
  986. Commercial name                          : Dolby Digital Plus
  987. Codec ID                                 : A_EAC3
  988. Duration                                 : 1 h 36 min
  989. Bit rate mode                            : Constant
  990. Bit rate                                 : 256 kb/s
  991. Channel(s)                               : 6 channels
  992. Channel layout                           : L R C LFE Ls Rs
  993. Sampling rate                            : 48.0 kHz
  994. Frame rate                               : 31.250 FPS (1536 SPF)
  995. Compression mode                         : Lossy
  996. Stream size                              : 177 MiB (1%)
  997. Language                                 : Dutch
  998. Service kind                             : Complete Main
  999. Default                                  : No
  1000. Forced                                   : No
  1001. Audio #55
  1002. ID                                       : 56
  1003. Format                                   : AAC LC
  1004. Format/Info                              : Advanced Audio Codec Low Complexity
  1005. Codec ID                                 : A_AAC-2
  1006. Duration                                 : 1 h 36 min
  1007. Bit rate                                 : 125 kb/s
  1008. Channel(s)                               : 2 channels
  1009. Channel layout                           : L R
  1010. Sampling rate                            : 48.0 kHz
  1011. Frame rate                               : 46.875 FPS (1024 SPF)
  1012. Compression mode                         : Lossy
  1013. Stream size                              : 86.8 MiB (0%)
  1014. Language                                 : Dutch
  1015. Default                                  : No
  1016. Forced                                   : No
  1017. Audio #56
  1018. ID                                       : 57
  1019. Format                                   : AAC LC
  1020. Format/Info                              : Advanced Audio Codec Low Complexity
  1021. Codec ID                                 : A_AAC-2
  1022. Duration                                 : 1 h 36 min
  1023. Bit rate                                 : 61.4 kb/s
  1024. Channel(s)                               : 2 channels
  1025. Channel layout                           : L R
  1026. Sampling rate                            : 48.0 kHz
  1027. Frame rate                               : 46.875 FPS (1024 SPF)
  1028. Compression mode                         : Lossy
  1029. Stream size                              : 42.5 MiB (0%)
  1030. Language                                 : Dutch
  1031. Default                                  : No
  1032. Forced                                   : No
  1033. Audio #57
  1034. ID                                       : 58
  1035. Format                                   : E-AC-3
  1036. Format/Info                              : Enhanced AC-3
  1037. Commercial name                          : Dolby Digital Plus
  1038. Codec ID                                 : A_EAC3
  1039. Duration                                 : 1 h 36 min
  1040. Bit rate mode                            : Constant
  1041. Bit rate                                 : 256 kb/s
  1042. Channel(s)                               : 6 channels
  1043. Channel layout                           : L R C LFE Ls Rs
  1044. Sampling rate                            : 48.0 kHz
  1045. Frame rate                               : 31.250 FPS (1536 SPF)
  1046. Compression mode                         : Lossy
  1047. Stream size                              : 177 MiB (1%)
  1048. Title                                    : Brazil
  1049. Language                                 : Portuguese
  1050. Service kind                             : Complete Main
  1051. Default                                  : No
  1052. Forced                                   : No
  1053. Audio #58
  1054. ID                                       : 59
  1055. Format                                   : E-AC-3
  1056. Format/Info                              : Enhanced AC-3
  1057. Commercial name                          : Dolby Digital Plus
  1058. Codec ID                                 : A_EAC3
  1059. Duration                                 : 1 h 36 min
  1060. Bit rate mode                            : Constant
  1061. Bit rate                                 : 256 kb/s
  1062. Channel(s)                               : 6 channels
  1063. Channel layout                           : L R C LFE Ls Rs
  1064. Sampling rate                            : 48.0 kHz
  1065. Frame rate                               : 31.250 FPS (1536 SPF)
  1066. Compression mode                         : Lossy
  1067. Stream size                              : 177 MiB (1%)
  1068. Title                                    : Brazil
  1069. Language                                 : Portuguese
  1070. Service kind                             : Complete Main
  1071. Default                                  : No
  1072. Forced                                   : No
  1073. Audio #59
  1074. ID                                       : 60
  1075. Format                                   : AAC LC
  1076. Format/Info                              : Advanced Audio Codec Low Complexity
  1077. Codec ID                                 : A_AAC-2
  1078. Duration                                 : 1 h 36 min
  1079. Bit rate                                 : 125 kb/s
  1080. Channel(s)                               : 2 channels
  1081. Channel layout                           : L R
  1082. Sampling rate                            : 48.0 kHz
  1083. Frame rate                               : 46.875 FPS (1024 SPF)
  1084. Compression mode                         : Lossy
  1085. Stream size                              : 86.8 MiB (0%)
  1086. Title                                    : Brazil
  1087. Language                                 : Portuguese
  1088. Default                                  : No
  1089. Forced                                   : No
  1090. Audio #60
  1091. ID                                       : 61
  1092. Format                                   : AAC LC
  1093. Format/Info                              : Advanced Audio Codec Low Complexity
  1094. Codec ID                                 : A_AAC-2
  1095. Duration                                 : 1 h 36 min
  1096. Bit rate                                 : 61.4 kb/s
  1097. Channel(s)                               : 2 channels
  1098. Channel layout                           : L R
  1099. Sampling rate                            : 48.0 kHz
  1100. Frame rate                               : 46.875 FPS (1024 SPF)
  1101. Compression mode                         : Lossy
  1102. Stream size                              : 42.5 MiB (0%)
  1103. Title                                    : Brazil
  1104. Language                                 : Portuguese
  1105. Default                                  : No
  1106. Forced                                   : No
  1107. Audio #61
  1108. ID                                       : 62
  1109. Format                                   : E-AC-3
  1110. Format/Info                              : Enhanced AC-3
  1111. Commercial name                          : Dolby Digital Plus
  1112. Codec ID                                 : A_EAC3
  1113. Duration                                 : 1 h 36 min
  1114. Bit rate mode                            : Constant
  1115. Bit rate                                 : 256 kb/s
  1116. Channel(s)                               : 6 channels
  1117. Channel layout                           : L R C LFE Ls Rs
  1118. Sampling rate                            : 48.0 kHz
  1119. Frame rate                               : 31.250 FPS (1536 SPF)
  1120. Compression mode                         : Lossy
  1121. Stream size                              : 177 MiB (1%)
  1122. Language                                 : Portuguese
  1123. Service kind                             : Complete Main
  1124. Default                                  : No
  1125. Forced                                   : No
  1126. Audio #62
  1127. ID                                       : 63
  1128. Format                                   : E-AC-3
  1129. Format/Info                              : Enhanced AC-3
  1130. Commercial name                          : Dolby Digital Plus
  1131. Codec ID                                 : A_EAC3
  1132. Duration                                 : 1 h 36 min
  1133. Bit rate mode                            : Constant
  1134. Bit rate                                 : 256 kb/s
  1135. Channel(s)                               : 6 channels
  1136. Channel layout                           : L R C LFE Ls Rs
  1137. Sampling rate                            : 48.0 kHz
  1138. Frame rate                               : 31.250 FPS (1536 SPF)
  1139. Compression mode                         : Lossy
  1140. Stream size                              : 177 MiB (1%)
  1141. Language                                 : Portuguese
  1142. Service kind                             : Complete Main
  1143. Default                                  : No
  1144. Forced                                   : No
  1145. Audio #63
  1146. ID                                       : 64
  1147. Format                                   : AAC LC
  1148. Format/Info                              : Advanced Audio Codec Low Complexity
  1149. Codec ID                                 : A_AAC-2
  1150. Duration                                 : 1 h 36 min
  1151. Bit rate                                 : 125 kb/s
  1152. Channel(s)                               : 2 channels
  1153. Channel layout                           : L R
  1154. Sampling rate                            : 48.0 kHz
  1155. Frame rate                               : 46.875 FPS (1024 SPF)
  1156. Compression mode                         : Lossy
  1157. Stream size                              : 86.8 MiB (0%)
  1158. Language                                 : Portuguese
  1159. Default                                  : No
  1160. Forced                                   : No
  1161. Audio #64
  1162. ID                                       : 65
  1163. Format                                   : AAC LC
  1164. Format/Info                              : Advanced Audio Codec Low Complexity
  1165. Codec ID                                 : A_AAC-2
  1166. Duration                                 : 1 h 36 min
  1167. Bit rate                                 : 61.4 kb/s
  1168. Channel(s)                               : 2 channels
  1169. Channel layout                           : L R
  1170. Sampling rate                            : 48.0 kHz
  1171. Frame rate                               : 46.875 FPS (1024 SPF)
  1172. Compression mode                         : Lossy
  1173. Stream size                              : 42.5 MiB (0%)
  1174. Language                                 : Portuguese
  1175. Default                                  : No
  1176. Forced                                   : No
  1177. Audio #65
  1178. ID                                       : 66
  1179. Format                                   : E-AC-3
  1180. Format/Info                              : Enhanced AC-3
  1181. Commercial name                          : Dolby Digital Plus
  1182. Codec ID                                 : A_EAC3
  1183. Duration                                 : 1 h 36 min
  1184. Bit rate mode                            : Constant
  1185. Bit rate                                 : 256 kb/s
  1186. Channel(s)                               : 6 channels
  1187. Channel layout                           : L R C LFE Ls Rs
  1188. Sampling rate                            : 48.0 kHz
  1189. Frame rate                               : 31.250 FPS (1536 SPF)
  1190. Compression mode                         : Lossy
  1191. Stream size                              : 177 MiB (1%)
  1192. Language                                 : Swedish
  1193. Service kind                             : Complete Main
  1194. Default                                  : No
  1195. Forced                                   : No
  1196. Audio #66
  1197. ID                                       : 67
  1198. Format                                   : E-AC-3
  1199. Format/Info                              : Enhanced AC-3
  1200. Commercial name                          : Dolby Digital Plus
  1201. Codec ID                                 : A_EAC3
  1202. Duration                                 : 1 h 36 min
  1203. Bit rate mode                            : Constant
  1204. Bit rate                                 : 256 kb/s
  1205. Channel(s)                               : 6 channels
  1206. Channel layout                           : L R C LFE Ls Rs
  1207. Sampling rate                            : 48.0 kHz
  1208. Frame rate                               : 31.250 FPS (1536 SPF)
  1209. Compression mode                         : Lossy
  1210. Stream size                              : 177 MiB (1%)
  1211. Language                                 : Swedish
  1212. Service kind                             : Complete Main
  1213. Default                                  : No
  1214. Forced                                   : No
  1215. Audio #67
  1216. ID                                       : 68
  1217. Format                                   : AAC LC
  1218. Format/Info                              : Advanced Audio Codec Low Complexity
  1219. Codec ID                                 : A_AAC-2
  1220. Duration                                 : 1 h 36 min
  1221. Bit rate                                 : 125 kb/s
  1222. Channel(s)                               : 2 channels
  1223. Channel layout                           : L R
  1224. Sampling rate                            : 48.0 kHz
  1225. Frame rate                               : 46.875 FPS (1024 SPF)
  1226. Compression mode                         : Lossy
  1227. Stream size                              : 86.8 MiB (0%)
  1228. Language                                 : Swedish
  1229. Default                                  : No
  1230. Forced                                   : No
  1231. Audio #68
  1232. ID                                       : 69
  1233. Format                                   : AAC LC
  1234. Format/Info                              : Advanced Audio Codec Low Complexity
  1235. Codec ID                                 : A_AAC-2
  1236. Duration                                 : 1 h 36 min
  1237. Bit rate                                 : 61.4 kb/s
  1238. Channel(s)                               : 2 channels
  1239. Channel layout                           : L R
  1240. Sampling rate                            : 48.0 kHz
  1241. Frame rate                               : 46.875 FPS (1024 SPF)
  1242. Compression mode                         : Lossy
  1243. Stream size                              : 42.5 MiB (0%)
  1244. Language                                 : Swedish
  1245. Default                                  : No
  1246. Forced                                   : No
  1247. Audio #69
  1248. ID                                       : 70
  1249. Format                                   : E-AC-3
  1250. Format/Info                              : Enhanced AC-3
  1251. Commercial name                          : Dolby Digital Plus
  1252. Codec ID                                 : A_EAC3
  1253. Duration                                 : 1 h 36 min
  1254. Bit rate mode                            : Constant
  1255. Bit rate                                 : 256 kb/s
  1256. Channel(s)                               : 6 channels
  1257. Channel layout                           : L R C LFE Ls Rs
  1258. Sampling rate                            : 48.0 kHz
  1259. Frame rate                               : 31.250 FPS (1536 SPF)
  1260. Compression mode                         : Lossy
  1261. Stream size                              : 177 MiB (1%)
  1262. Language                                 : Turkish
  1263. Service kind                             : Complete Main
  1264. Default                                  : No
  1265. Forced                                   : No
  1266. Audio #70
  1267. ID                                       : 71
  1268. Format                                   : E-AC-3
  1269. Format/Info                              : Enhanced AC-3
  1270. Commercial name                          : Dolby Digital Plus
  1271. Codec ID                                 : A_EAC3
  1272. Duration                                 : 1 h 36 min
  1273. Bit rate mode                            : Constant
  1274. Bit rate                                 : 256 kb/s
  1275. Channel(s)                               : 6 channels
  1276. Channel layout                           : L R C LFE Ls Rs
  1277. Sampling rate                            : 48.0 kHz
  1278. Frame rate                               : 31.250 FPS (1536 SPF)
  1279. Compression mode                         : Lossy
  1280. Stream size                              : 177 MiB (1%)
  1281. Language                                 : Turkish
  1282. Service kind                             : Complete Main
  1283. Default                                  : No
  1284. Forced                                   : No
  1285. Audio #71
  1286. ID                                       : 72
  1287. Format                                   : AAC LC
  1288. Format/Info                              : Advanced Audio Codec Low Complexity
  1289. Codec ID                                 : A_AAC-2
  1290. Duration                                 : 1 h 36 min
  1291. Bit rate                                 : 125 kb/s
  1292. Channel(s)                               : 2 channels
  1293. Channel layout                           : L R
  1294. Sampling rate                            : 48.0 kHz
  1295. Frame rate                               : 46.875 FPS (1024 SPF)
  1296. Compression mode                         : Lossy
  1297. Stream size                              : 86.8 MiB (0%)
  1298. Language                                 : Turkish
  1299. Default                                  : No
  1300. Forced                                   : No
  1301. Audio #72
  1302. ID                                       : 73
  1303. Format                                   : AAC LC
  1304. Format/Info                              : Advanced Audio Codec Low Complexity
  1305. Codec ID                                 : A_AAC-2
  1306. Duration                                 : 1 h 36 min
  1307. Bit rate                                 : 61.4 kb/s
  1308. Channel(s)                               : 2 channels
  1309. Channel layout                           : L R
  1310. Sampling rate                            : 48.0 kHz
  1311. Frame rate                               : 46.875 FPS (1024 SPF)
  1312. Compression mode                         : Lossy
  1313. Stream size                              : 42.5 MiB (0%)
  1314. Language                                 : Turkish
  1315. Default                                  : No
  1316. Forced                                   : No
  1317. Audio #73
  1318. ID                                       : 74
  1319. Format                                   : E-AC-3
  1320. Format/Info                              : Enhanced AC-3
  1321. Commercial name                          : Dolby Digital Plus
  1322. Codec ID                                 : A_EAC3
  1323. Duration                                 : 1 h 36 min
  1324. Bit rate mode                            : Constant
  1325. Bit rate                                 : 256 kb/s
  1326. Channel(s)                               : 6 channels
  1327. Channel layout                           : L R C LFE Ls Rs
  1328. Sampling rate                            : 48.0 kHz
  1329. Frame rate                               : 31.250 FPS (1536 SPF)
  1330. Compression mode                         : Lossy
  1331. Stream size                              : 177 MiB (1%)
  1332. Language                                 : Chinese
  1333. Service kind                             : Complete Main
  1334. Default                                  : No
  1335. Forced                                   : No
  1336. Audio #74
  1337. ID                                       : 75
  1338. Format                                   : E-AC-3
  1339. Format/Info                              : Enhanced AC-3
  1340. Commercial name                          : Dolby Digital Plus
  1341. Codec ID                                 : A_EAC3
  1342. Duration                                 : 1 h 36 min
  1343. Bit rate mode                            : Constant
  1344. Bit rate                                 : 256 kb/s
  1345. Channel(s)                               : 6 channels
  1346. Channel layout                           : L R C LFE Ls Rs
  1347. Sampling rate                            : 48.0 kHz
  1348. Frame rate                               : 31.250 FPS (1536 SPF)
  1349. Compression mode                         : Lossy
  1350. Stream size                              : 177 MiB (1%)
  1351. Language                                 : Chinese
  1352. Service kind                             : Complete Main
  1353. Default                                  : No
  1354. Forced                                   : No
  1355. Audio #75
  1356. ID                                       : 76
  1357. Format                                   : AAC LC
  1358. Format/Info                              : Advanced Audio Codec Low Complexity
  1359. Codec ID                                 : A_AAC-2
  1360. Duration                                 : 1 h 36 min
  1361. Bit rate                                 : 125 kb/s
  1362. Channel(s)                               : 2 channels
  1363. Channel layout                           : L R
  1364. Sampling rate                            : 48.0 kHz
  1365. Frame rate                               : 46.875 FPS (1024 SPF)
  1366. Compression mode                         : Lossy
  1367. Stream size                              : 86.8 MiB (0%)
  1368. Language                                 : Chinese
  1369. Default                                  : No
  1370. Forced                                   : No
  1371. Audio #76
  1372. ID                                       : 77
  1373. Format                                   : AAC LC
  1374. Format/Info                              : Advanced Audio Codec Low Complexity
  1375. Codec ID                                 : A_AAC-2
  1376. Duration                                 : 1 h 36 min
  1377. Bit rate                                 : 61.4 kb/s
  1378. Channel(s)                               : 2 channels
  1379. Channel layout                           : L R
  1380. Sampling rate                            : 48.0 kHz
  1381. Frame rate                               : 46.875 FPS (1024 SPF)
  1382. Compression mode                         : Lossy
  1383. Stream size                              : 42.5 MiB (0%)
  1384. Language                                 : Chinese
  1385. Default                                  : No
  1386. Forced                                   : No
  1387. Text #1
  1388. ID                                       : 78
  1389. Format                                   : UTF-8
  1390. Codec ID                                 : S_TEXT/UTF8
  1391. Codec ID/Info                            : UTF-8 Plain Text
  1392. Duration                                 : 1 h 35 min
  1393. Bit rate                                 : 95 b/s
  1394. Count of elements                        : 1688
  1395. Stream size                              : 67.0 KiB (0%)
  1396. Title                                    : SDH
  1397. Language                                 : English
  1398. Default                                  : No
  1399. Forced                                   : No
  1400. Text #2
  1401. ID                                       : 79
  1402. Format                                   : UTF-8
  1403. Codec ID                                 : S_TEXT/UTF8
  1404. Codec ID/Info                            : UTF-8 Plain Text
  1405. Duration                                 : 1 h 35 min
  1406. Bit rate                                 : 77 b/s
  1407. Count of elements                        : 1499
  1408. Stream size                              : 54.7 KiB (0%)
  1409. Language                                 : Danish
  1410. Default                                  : No
  1411. Forced                                   : No
  1412. Text #3
  1413. ID                                       : 80
  1414. Format                                   : UTF-8
  1415. Codec ID                                 : S_TEXT/UTF8
  1416. Codec ID/Info                            : UTF-8 Plain Text
  1417. Duration                                 : 1 h 35 min
  1418. Bit rate                                 : 85 b/s
  1419. Count of elements                        : 1487
  1420. Stream size                              : 59.8 KiB (0%)
  1421. Language                                 : German
  1422. Default                                  : No
  1423. Forced                                   : No
  1424. Text #4
  1425. ID                                       : 81
  1426. Format                                   : UTF-8
  1427. Codec ID                                 : S_TEXT/UTF8
  1428. Codec ID/Info                            : UTF-8 Plain Text
  1429. Duration                                 : 1 h 35 min
  1430. Bit rate                                 : 80 b/s
  1431. Count of elements                        : 1514
  1432. Stream size                              : 56.2 KiB (0%)
  1433. Title                                    : Latin America
  1434. Language                                 : Spanish
  1435. Default                                  : No
  1436. Forced                                   : No
  1437. Text #5
  1438. ID                                       : 82
  1439. Format                                   : UTF-8
  1440. Codec ID                                 : S_TEXT/UTF8
  1441. Codec ID/Info                            : UTF-8 Plain Text
  1442. Duration                                 : 1 h 35 min
  1443. Bit rate                                 : 83 b/s
  1444. Count of elements                        : 1511
  1445. Stream size                              : 58.8 KiB (0%)
  1446. Language                                 : Spanish
  1447. Default                                  : No
  1448. Forced                                   : No
  1449. Text #6
  1450. ID                                       : 83
  1451. Format                                   : UTF-8
  1452. Codec ID                                 : S_TEXT/UTF8
  1453. Codec ID/Info                            : UTF-8 Plain Text
  1454. Duration                                 : 1 h 35 min
  1455. Bit rate                                 : 75 b/s
  1456. Count of elements                        : 1502
  1457. Stream size                              : 52.7 KiB (0%)
  1458. Language                                 : Finnish
  1459. Default                                  : No
  1460. Forced                                   : No
  1461. Text #7
  1462. ID                                       : 84
  1463. Format                                   : UTF-8
  1464. Codec ID                                 : S_TEXT/UTF8
  1465. Codec ID/Info                            : UTF-8 Plain Text
  1466. Duration                                 : 1 h 35 min
  1467. Bit rate                                 : 83 b/s
  1468. Count of elements                        : 1511
  1469. Stream size                              : 58.5 KiB (0%)
  1470. Language                                 : French
  1471. Default                                  : No
  1472. Forced                                   : No
  1473. Text #8
  1474. ID                                       : 85
  1475. Format                                   : UTF-8
  1476. Codec ID                                 : S_TEXT/UTF8
  1477. Codec ID/Info                            : UTF-8 Plain Text
  1478. Duration                                 : 1 h 35 min
  1479. Bit rate                                 : 79 b/s
  1480. Count of elements                        : 1488
  1481. Stream size                              : 56.0 KiB (0%)
  1482. Language                                 : Italian
  1483. Default                                  : No
  1484. Forced                                   : No
  1485. Text #9
  1486. ID                                       : 86
  1487. Format                                   : UTF-8
  1488. Codec ID                                 : S_TEXT/UTF8
  1489. Codec ID/Info                            : UTF-8 Plain Text
  1490. Duration                                 : 1 h 36 min
  1491. Bit rate                                 : 63 b/s
  1492. Count of elements                        : 1491
  1493. Stream size                              : 44.4 KiB (0%)
  1494. Language                                 : Japanese
  1495. Default                                  : No
  1496. Forced                                   : No
  1497. Text #10
  1498. ID                                       : 87
  1499. Format                                   : UTF-8
  1500. Codec ID                                 : S_TEXT/UTF8
  1501. Codec ID/Info                            : UTF-8 Plain Text
  1502. Duration                                 : 1 h 35 min
  1503. Bit rate                                 : 86 b/s
  1504. Count of elements                        : 1527
  1505. Stream size                              : 60.4 KiB (0%)
  1506. Language                                 : Korean
  1507. Default                                  : No
  1508. Forced                                   : No
  1509. Text #11
  1510. ID                                       : 88
  1511. Format                                   : UTF-8
  1512. Codec ID                                 : S_TEXT/UTF8
  1513. Codec ID/Info                            : UTF-8 Plain Text
  1514. Duration                                 : 1 h 35 min
  1515. Bit rate                                 : 81 b/s
  1516. Count of elements                        : 1502
  1517. Stream size                              : 57.5 KiB (0%)
  1518. Language                                 : Norwegian Bokmal
  1519. Default                                  : No
  1520. Forced                                   : No
  1521. Text #12
  1522. ID                                       : 89
  1523. Format                                   : UTF-8
  1524. Codec ID                                 : S_TEXT/UTF8
  1525. Codec ID/Info                            : UTF-8 Plain Text
  1526. Duration                                 : 1 h 35 min
  1527. Bit rate                                 : 75 b/s
  1528. Count of elements                        : 1369
  1529. Stream size                              : 52.7 KiB (0%)
  1530. Language                                 : Dutch
  1531. Default                                  : No
  1532. Forced                                   : No
  1533. Text #13
  1534. ID                                       : 90
  1535. Format                                   : UTF-8
  1536. Codec ID                                 : S_TEXT/UTF8
  1537. Codec ID/Info                            : UTF-8 Plain Text
  1538. Duration                                 : 1 h 36 min
  1539. Bit rate                                 : 74 b/s
  1540. Count of elements                        : 1511
  1541. Stream size                              : 52.7 KiB (0%)
  1542. Language                                 : Polish
  1543. Default                                  : No
  1544. Forced                                   : No
  1545. Text #14
  1546. ID                                       : 91
  1547. Format                                   : UTF-8
  1548. Codec ID                                 : S_TEXT/UTF8
  1549. Codec ID/Info                            : UTF-8 Plain Text
  1550. Duration                                 : 1 h 35 min
  1551. Bit rate                                 : 82 b/s
  1552. Count of elements                        : 1499
  1553. Stream size                              : 57.9 KiB (0%)
  1554. Title                                    : Brazil
  1555. Language                                 : Portuguese
  1556. Default                                  : No
  1557. Forced                                   : No
  1558. Text #15
  1559. ID                                       : 92
  1560. Format                                   : UTF-8
  1561. Codec ID                                 : S_TEXT/UTF8
  1562. Codec ID/Info                            : UTF-8 Plain Text
  1563. Duration                                 : 1 h 35 min
  1564. Bit rate                                 : 78 b/s
  1565. Count of elements                        : 1464
  1566. Stream size                              : 55.4 KiB (0%)
  1567. Language                                 : Portuguese
  1568. Default                                  : No
  1569. Forced                                   : No
  1570. Text #16
  1571. ID                                       : 93
  1572. Format                                   : UTF-8
  1573. Codec ID                                 : S_TEXT/UTF8
  1574. Codec ID/Info                            : UTF-8 Plain Text
  1575. Duration                                 : 1 h 35 min
  1576. Bit rate                                 : 80 b/s
  1577. Count of elements                        : 1502
  1578. Stream size                              : 56.8 KiB (0%)
  1579. Language                                 : Swedish
  1580. Default                                  : No
  1581. Forced                                   : No
  1582. Text #17
  1583. ID                                       : 94
  1584. Format                                   : UTF-8
  1585. Codec ID                                 : S_TEXT/UTF8
  1586. Codec ID/Info                            : UTF-8 Plain Text
  1587. Duration                                 : 1 h 36 min
  1588. Bit rate                                 : 75 b/s
  1589. Count of elements                        : 1520
  1590. Stream size                              : 53.4 KiB (0%)
  1591. Title                                    : Traditional
  1592. Language                                 : Chinese
  1593. Default                                  : No
  1594. Forced                                   : No
  1595. Text #18
  1596. ID                                       : 95
  1597. Format                                   : UTF-8
  1598. Codec ID                                 : S_TEXT/UTF8
  1599. Codec ID/Info                            : UTF-8 Plain Text
  1600. Duration                                 : 1 h 36 min
  1601. Bit rate                                 : 73 b/s
  1602. Count of elements                        : 1496
  1603. Stream size                              : 51.5 KiB (0%)
  1604. Title                                    : Traditional, Hong Kong
  1605. Language                                 : Chinese
  1606. Default                                  : No
  1607. Forced                                   : No





此处一般会放置磁力链或种子下载链接,不过此链接需要注册会员才能看到,点击“立即注册”
磁力链下载【下载链接仅对注册会员开放,登陆后可见】
BT9527电影天堂 1、BT9527电影天堂提供的BT文件均来源于互联网抓取,只供网友学习交流、技术提升使用。
2、我们遵守BitTorrent点对点协议原则,任何版权问题请联系原资源发布商,我们不处理任何版权纠纷,谢谢!如有争议请联系邮箱:BT9527#hotmail.com(#换成@)
3、如果您发现某页面或地址有错误,请联系站长邮箱BT9527#hotmail.com(#换成@),我们会尽快处理。您的热心是对BT9527电影天堂最大的支持。
4、本站建议去正规影院观看电影以支持电影行业发展。
最新回复 (0)

你可以在 登录 or 注册 后,对此帖发表评论!

返回
发新帖