最佳拍档2:大显神通[国粤多音轨/简繁英字幕].Aces.Go.Places.II.1983.1080p.BluRay.DTS.2Audio.x265-10bit-ENTHD 6.89GB

版主小s 3月前 137

✔资源类型:暂未分类   ✔电影年份:更 早   ✔电影地区:香港   ✔电影分类:喜剧

◎译  名 最佳拍档2:大显神通 / Aces Go Places II / Mad Mission II
◎片  名 最佳拍檔2:大顯神通
◎年  代 1983
◎产  地 中国香港
◎类  别 喜剧 / 动作
◎语  言 粤语
◎上映日期 1983-02-05
◎IMDb链接 https://www.imdb.com/title/tt0086646/
◎豆瓣评分 7.6/10 (14780人评价)
◎豆瓣链接 https://movie.douban.com/subject/1307582/
◎片  长 Norway: 100 分钟
◎导  演 曾志伟 Eric Tsang (id:1002862)
◎编  剧 黄百鸣 Raymond Wong (id:1275277)
◎演  员 许冠杰 Samuel Hui (id:1102963)
       麦嘉 Karl Maka (id:1274986)
       张艾嘉 Sylvia Chang (id:1012646)
       仓田保昭 Yasuaki Kurata (id:1032379)
       徐克 Hark Tsui (id:1007152)
       叶夏利 Ha-lei Yip (id:1053166)
       曹达华 Tat-wah Cho (id:1070438)
       黄百鸣 Raymond Wong (id:1275277)
       李家鼎 Steve Lee (id:1328058)
       施明 Ming Si (id:1346323)
       韩国材 Kwok Choi Hon (id:1343053)
       关淑怡 Shirley Kwan (id:1023458)
       汪庭欢 Sue Wang (id:1441086)
       曾志伟 Eric Tsang (id:1002862)
       黎永强  (id:1424904)
       乔·迪米克 Joe Dimmick (id:1466263)
       楼南光 Billy Lau (id:1289501)
         (id:1380452)
       西瓜刨 Gwa-pau Sai (id:1220481)
       伍国健 Kwok-kin Ng (id:1418713)
       岑潜波 Chien-Po Tsen (id:1373123)
       冯永 Wellington W.Fung (id:1470497)
       黎永强  (id:1424904)
       施南生 Nansun Shi (id:1314820)
       石天 Dean Shek (id:1146001)
       麦嘉 Karl Maka (id:1274986)
       Kevan Lind Kevan Lind (id:1026176)
       黄岳泰 Arthur Wong (id:1301185)
       黄锐民 Oliver Wong (id:1290844)
       施南生 Nansun Shi (id:1314820)

◎简  介
  金刚(许冠杰 饰)成功降服白手袜之后,白手袜之兄黑手袜受黑手党指派继续交易钻石并向金刚复仇,金刚与黑手袜的高级机器人大战数合终于侥幸胜利,却马上又落入了牛牛、悠悠兄妹犯罪团伙的骗局,卷入银行抢劫案成为嫌犯,金刚逃亡路上将拍档光头神探(麦嘉 饰)与何东诗(张艾嘉 饰)的婚礼搅得一塌糊涂。所幸光头神探义字当先合力与金刚对抗牛牛、黑手袜,却不料金刚再次被悠悠戏弄,光头神探也只落得被严妻整治。最佳拍档被牛牛团伙胁迫,不得不出面抢夺钻石,而黑手袜方面再次出动高级机器人应战,早有准备的金刚取出机器人特工队,混战一触即发……                                    
                                本片是最佳拍档系列的第二集。

◎获奖情况 (共1项)
  第3届香港电影金像奖 (1984)
  最佳原创电影歌曲(提名)
   └──许冠杰 (id:1102963)

  1. ##### MediaInfo ######
  2. General
  3. Unique ID                                : 93653284514141009502362104951849613173 (0x4674F76CC7AA241D62B21F24911FF775)
  4. Complete name                            : Aces.Go.Places.II.1983.1080p.BluRay.DTS.2Audio.x265-10bit-ENTHD.mkv
  5. Format                                   : Matroska
  6. Format version                           : Version 4
  7. File size                                : 6.89 GiB
  8. Duration                                 : 1 h 41 min
  9. Overall bit rate                         : 9 691 kb/s
  10. Movie name                               : Aces Go Places II 1983 1080p BluRay DTS 2Audio x265-10bit-HDS
  11. Encoded date                             : UTC 2022-06-15 16:06:30
  12. Writing application                      : mkvmerge v67.0.0 ('Under Stars') 64-bit
  13. Writing library                          : libebml v1.4.2 + libmatroska v1.6.4 / Lavf59.17.101
  14. Video
  15. ID                                       : 1
  16. Format                                   : HEVC
  17. Format/Info                              : High Efficiency Video Coding
  18. Format profile                           : Main 10@L5.1@High
  19. Codec ID                                 : V_MPEGH/ISO/HEVC
  20. Duration                                 : 1 h 41 min
  21. Bit rate                                 : 7 502 kb/s
  22. Width                                    : 1 920 pixels
  23. Height                                   : 816 pixels
  24. Display aspect ratio                     : 2.35:1
  25. Frame rate mode                          : Constant
  26. Frame rate                               : 23.976 (24000/1001/53354) FPS
  27. Color space                              : YUV
  28. Chroma subsampling                       : 4:2:0
  29. Bit depth                                : 10 bits
  30. Bits/(Pixel*Frame)                       : 0.200
  31. Stream size                              : 5.33 GiB (77%)
  32. Title                                    : GalenMao@HDSky
  33. Default                                  : No
  34. Forced                                   : No
  35. Audio #1
  36. ID                                       : 2
  37. Format                                   : DTS
  38. Format/Info                              : Digital Theater Systems
  39. Codec ID                                 : A_DTS
  40. Duration                                 : 1 h 41 min
  41. Bit rate mode                            : Constant
  42. Bit rate                                 : 1 509 kb/s
  43. Channel(s)                               : 6 channels
  44. Channel layout                           : C L R Ls Rs LFE
  45. Sampling rate                            : 48.0 kHz
  46. Frame rate                               : 93.750 FPS (512 SPF)
  47. Bit depth                                : 24 bits
  48. Compression mode                         : Lossy
  49. Stream size                              : 1.07 GiB (16%)
  50. Title                                    : Cantonese
  51. Language                                 : Chinese
  52. Default                                  : Yes
  53. Forced                                   : No
  54. Audio #2
  55. ID                                       : 3
  56. Format                                   : AC-3
  57. Format/Info                              : Audio Coding 3
  58. Commercial name                          : Dolby Digital
  59. Codec ID                                 : A_AC3
  60. Duration                                 : 1 h 41 min
  61. Bit rate mode                            : Constant
  62. Bit rate                                 : 640 kb/s
  63. Channel(s)                               : 6 channels
  64. Channel layout                           : L R C LFE Ls Rs
  65. Sampling rate                            : 48.0 kHz
  66. Frame rate                               : 31.250 FPS (1536 SPF)
  67. Compression mode                         : Lossy
  68. Stream size                              : 465 MiB (7%)
  69. Title                                    : Mandarin
  70. Language                                 : Chinese
  71. Service kind                             : Complete Main
  72. Default                                  : Yes
  73. Forced                                   : No
  74. Text #1
  75. ID                                       : 4
  76. Format                                   : PGS
  77. Muxing mode                              : zlib
  78. Codec ID                                 : S_HDMV/PGS
  79. Codec ID/Info                            : Picture based subtitle format used on BDs/HD-DVDs
  80. Duration                                 : 1 h 35 min
  81. Bit rate                                 : 35.6 kb/s
  82. Count of elements                        : 2634
  83. Stream size                              : 24.5 MiB (0%)
  84. Title                                    : ENG
  85. Language                                 : English
  86. Default                                  : Yes
  87. Forced                                   : No
  88. Text #2
  89. ID                                       : 5
  90. Format                                   : PGS
  91. Muxing mode                              : zlib
  92. Codec ID                                 : S_HDMV/PGS
  93. Codec ID/Info                            : Picture based subtitle format used on BDs/HD-DVDs
  94. Duration                                 : 1 h 41 min
  95. Bit rate                                 : 24.4 kb/s
  96. Count of elements                        : 2642
  97. Stream size                              : 17.7 MiB (0%)
  98. Title                                    : CHS
  99. Language                                 : Chinese
  100. Default                                  : Yes
  101. Forced                                   : No
  102. Text #3
  103. ID                                       : 6
  104. Format                                   : PGS
  105. Muxing mode                              : zlib
  106. Codec ID                                 : S_HDMV/PGS
  107. Codec ID/Info                            : Picture based subtitle format used on BDs/HD-DVDs
  108. Duration                                 : 1 h 41 min
  109. Bit rate                                 : 25.3 kb/s
  110. Count of elements                        : 2642
  111. Stream size                              : 18.4 MiB (0%)
  112. Title                                    : CHT
  113. Language                                 : Chinese
  114. Default                                  : Yes
  115. Forced                                   : No
  116. Menu
  117. 00:00:00.000                             : en:第 01 章
  118. 00:07:36.331                             : en:第 02 章
  119. 00:11:02.662                             : en:第 03 章
  120. 00:16:13.431                             : en:第 04 章
  121. 00:20:53.419                             : en:第 05 章
  122. 00:23:37.249                             : en:第 06 章
  123. 00:29:18.173                             : en:第 07 章
  124. 00:35:03.184                             : en:第 08 章
  125. 00:39:40.795                             : en:第 09 章
  126. 00:46:15.940                             : en:第 10 章
  127. 00:49:49.695                             : en:第 11 章
  128. 00:54:00.070                             : en:第 12 章
  129. 00:57:01.460                             : en:第 13 章
  130. 01:02:25.951                             : en:第 14 章
  131. 01:10:04.367                             : en:第 15 章
  132. 01:16:24.622                             : en:第 16 章
  133. 01:20:17.563                             : en:第 17 章
  134. 01:23:48.982                             : en:第 18 章
  135. 01:30:59.454                             : en:第 19 章
  136. 01:35:57.794                             : en:第 20 章





此处一般会放置磁力链或种子下载链接,不过此链接需要注册会员才能看到,点击“立即注册”
磁力链下载【下载链接仅对注册会员开放,登陆后可见】
BT9527电影天堂 1、BT9527电影天堂提供的BT文件均来源于互联网抓取,只供网友学习交流、技术提升使用。
2、我们遵守BitTorrent点对点协议原则,任何版权问题请联系原资源发布商,我们不处理任何版权纠纷,谢谢!如有争议请联系邮箱:BT9527#hotmail.com(#换成@)
3、如果您发现某页面或地址有错误,请联系站长邮箱BT9527#hotmail.com(#换成@),我们会尽快处理。您的热心是对BT9527电影天堂最大的支持。
4、本站建议去正规影院观看电影以支持电影行业发展。
最新回复 (0)

你可以在 登录 or 注册 后,对此帖发表评论!

返回