龙的传人[国语音轨/中英字幕].Legend.of.the.Dragon.1990.BluRay.1080p.x265.10bit.2Audio-MiniHD 4.07GB

版主小s 9天前 41

✔资源类型:暂未分类   ✔电影年份:更 早   ✔电影地区:香港   ✔电影分类:喜剧

◎译  名 龙的传人 / Legend of the Dragon
◎片  名 龍的傳人
◎年  代 1991
◎产  地 中国香港
◎类  别 喜剧
◎语  言 粤语
◎上映日期 1991-03-07(中国香港)
◎IMDb链接 https://www.imdb.com/title/tt0100047/
◎豆瓣评分 7.3/10 (55327人评价)
◎豆瓣链接 https://movie.douban.com/subject/1306057/
◎片  长 96 分钟
◎导  演 李修贤 Danny Lee (id:1025452)
◎演  员 周星驰 Stephen Chow (id:1048026)
       梁家仁 Ka-Yan Leung (id:1008125)
       毛舜筠 Teresa Mo (id:1274338)
       元华 Wah Yuen (id:1050240)
       李海生 Hoi Sang Lee (id:1274574)
       龙方 Fong Lung (id:1290470)
       叶子楣 Amy Yip (id:1018379)
       元奎 Corey Yuen (id:1289150)
       成奎安 Fui-On Shing (id:1141665)
       王俊棠 Ricky Wong Chun-Tong (id:1321444)
       梁心 Hsin Liang (id:1427057)
       伍国健 Kwok-kin Ng (id:1418713)
       骆应钧 Ying Kwan Lok (id:1274577)
       吉米·怀特 Jimmy White (id:1046509)
       郭军城 Kwan-Shing Kwok (id:1434911)
       李力持 Lik-Chi Lee (id:1274246)
       黄志明 Wong Chi-Ming (id:1398895)

◎简  介
  周小龙(周星驰 饰)与父亲周飞鸿(元华 饰)生活在大澳,与师妹毛毛(毛舜筠 饰)是一对单纯的欢喜冤家。某天,小龙的师叔毛仁(梁家仁 饰)到大澳躲债,飞鸿托阿仁把儿子小龙带到香港发展,阿仁意外发现了小龙高超的台球技术,变决定利用小龙进行赌博。黑帮龙哥看中了周家大澳的田地,便要求阿仁以地皮为赌注。小龙面对对方的世界级高手,压力巨大因此输掉了比赛。毛毛为了鼓励小龙,把自家的田地也作为赌注,决定要再次把自己的土地赢回来,但压力仍然困扰着小龙,比赛一度落后……
  1. ##### MediaInfo ######
  2. General
  3. Unique ID                                : 207074412825600182228839301862198159167 (0x9BC914CBFED27D329F0074522675273F)
  4. Complete name                            : Legend.of.the.Dragon.1990.BluRay.1080p.x265.10bit.2Audio-MiniHD.mkv
  5. Format                                   : Matroska
  6. Format version                           : Version 4
  7. File size                                : 4.07 GiB
  8. Duration                                 : 1 h 35 min
  9. Overall bit rate                         : 6 091 kb/s
  10. Encoded date                             : UTC 2017-06-09 13:05:20
  11. Writing application                      : mkvmerge v11.0.0 ('Alive') 64bit
  12. Writing library                          : libebml v1.3.4 + libmatroska v1.4.5
  13. Video
  14. ID                                       : 1
  15. Format                                   : HEVC
  16. Format/Info                              : High Efficiency Video Coding
  17. Codec ID                                 : V_MPEGH/ISO/HEVC
  18. Duration                                 : 1 h 35 min
  19. Bit rate                                 : 4 781 kb/s
  20. Width                                    : 1 920 pixels
  21. Height                                   : 1 024 pixels
  22. Display aspect ratio                     : 1.85:1
  23. Frame rate mode                          : Constant
  24. Frame rate                               : 23.976 (24000/1001/53354) FPS
  25. Bits/(Pixel*Frame)                       : 0.101
  26. Stream size                              : 3.19 GiB (78%)
  27. Default                                  : Yes
  28. Forced                                   : No
  29. Audio #1
  30. ID                                       : 2
  31. Format                                   : AC-3
  32. Format/Info                              : Audio Coding 3
  33. Commercial name                          : Dolby Digital
  34. Codec ID                                 : A_AC3
  35. Duration                                 : 1 h 35 min
  36. Bit rate mode                            : Constant
  37. Bit rate                                 : 640 kb/s
  38. Channel(s)                               : 6 channels
  39. Channel layout                           : L R C LFE Ls Rs
  40. Sampling rate                            : 48.0 kHz
  41. Frame rate                               : 31.250 FPS (1536 SPF)
  42. Compression mode                         : Lossy
  43. Delay relative to video                  : 2 s 0 ms
  44. Stream size                              : 437 MiB (10%)
  45. Language                                 : Chinese
  46. Service kind                             : Complete Main
  47. Default                                  : Yes
  48. Forced                                   : No
  49. Audio #2
  50. ID                                       : 3
  51. Format                                   : AC-3
  52. Format/Info                              : Audio Coding 3
  53. Commercial name                          : Dolby Digital
  54. Codec ID                                 : A_AC3
  55. Duration                                 : 1 h 35 min
  56. Bit rate mode                            : Constant
  57. Bit rate                                 : 640 kb/s
  58. Channel(s)                               : 6 channels
  59. Channel layout                           : L R C LFE Ls Rs
  60. Sampling rate                            : 48.0 kHz
  61. Frame rate                               : 31.250 FPS (1536 SPF)
  62. Compression mode                         : Lossy
  63. Delay relative to video                  : 2 s 0 ms
  64. Stream size                              : 437 MiB (10%)
  65. Language                                 : Chinese
  66. Service kind                             : Complete Main
  67. Default                                  : No
  68. Forced                                   : No
  69. Text #1
  70. ID                                       : 4
  71. Format                                   : PGS
  72. Muxing mode                              : zlib
  73. Codec ID                                 : S_HDMV/PGS
  74. Codec ID/Info                            : Picture based subtitle format used on BDs/HD-DVDs
  75. Duration                                 : 1 h 32 min
  76. Bit rate                                 : 18.2 kb/s
  77. Count of elements                        : 2649
  78. Stream size                              : 12.0 MiB (0%)
  79. Language                                 : Chinese
  80. Default                                  : Yes
  81. Forced                                   : No
  82. Text #2
  83. ID                                       : 5
  84. Format                                   : PGS
  85. Muxing mode                              : zlib
  86. Codec ID                                 : S_HDMV/PGS
  87. Codec ID/Info                            : Picture based subtitle format used on BDs/HD-DVDs
  88. Duration                                 : 1 h 32 min
  89. Bit rate                                 : 12.6 kb/s
  90. Count of elements                        : 2649
  91. Stream size                              : 8.29 MiB (0%)
  92. Language                                 : English
  93. Default                                  : No
  94. Forced                                   : No
  95. Menu
  96. 00:00:00.000                             : en:Chapter 01
  97. 00:03:47.310                             : en:Chapter 02
  98. 00:08:47.944                             : en:Chapter 03
  99. 00:12:17.528                             : en:Chapter 04
  100. 00:17:14.241                             : en:Chapter 05
  101. 00:21:06.723                             : en:Chapter 06
  102. 00:24:59.080                             : en:Chapter 07
  103. 00:29:04.701                             : en:Chapter 08
  104. 00:34:14.177                             : en:Chapter 09
  105. 00:38:59.628                             : en:Chapter 10
  106. 00:44:47.226                             : en:Chapter 11
  107. 00:48:43.003                             : en:Chapter 12
  108. 00:55:48.470                             : en:Chapter 13
  109. 00:59:07.502                             : en:Chapter 14
  110. 01:07:23.497                             : en:Chapter 15
  111. 01:14:17.786                             : en:Chapter 16
  112. 01:19:16.918                             : en:Chapter 17
  113. 01:22:46.044                             : en:Chapter 18
  114. 01:25:31.376                             : en:Chapter 19
  115. 01:30:28.548                             : en:Chapter 20





此处一般会放置磁力链或种子下载链接,不过此链接需要注册会员才能看到,点击“立即注册”
磁力链下载【下载链接仅对注册会员开放,登陆后可见】
BT9527电影天堂 1、BT9527电影天堂提供的BT文件均来源于互联网抓取,只供网友学习交流、技术提升使用。
2、我们遵守BitTorrent点对点协议原则,任何版权问题请联系原资源发布商,我们不处理任何版权纠纷,谢谢!如有争议请联系邮箱:BT9527#hotmail.com(#换成@)
3、如果您发现某页面或地址有错误,请联系站长邮箱BT9527#hotmail.com(#换成@),我们会尽快处理。您的热心是对BT9527电影天堂最大的支持。
4、本站建议去正规影院观看电影以支持电影行业发展。
最新回复 (0)

你可以在 登录 or 注册 后,对此帖发表评论!

返回
发新帖