鹿鼎记2:神龙教[国语音轨/中英字幕].Royal.Tramp.II.1992.BluRay.1080p.x265.10bit.2Audio-MiniHD 5.69GB

版主小s 12天前 32

✔资源类型:暂未分类   ✔电影年份:更 早   ✔电影地区:香港   ✔电影分类:喜剧

◎译  名 鹿鼎记2:神龙教 / 鹿鼎记II:神龙教 / Royal Tramp II / Royal Tramp2
◎片  名 鹿鼎記II 神龍教
◎年  代 1992
◎产  地 中国香港
◎类  别 喜剧 / 动作 / 武侠 / 古装
◎语  言 粤语
◎上映日期 1992-09-24(中国香港)
◎IMDb链接 https://www.imdb.com/title/tt0104771/
◎豆瓣评分 8.1/10 (203090人评价)
◎豆瓣链接 https://movie.douban.com/subject/1306951/
◎片  长 98分钟(香港)
◎导  演 王晶 Jing Wong (id:1274331)
       程小东 Siu-Tung Ching (id:1280664)
◎编  剧 王晶 Jing Wong (id:1274331)
       金庸 Louis Cha (id:1019677)
◎演  员 周星驰 Stephen Chow (id:1048026)
       邱淑贞 Chingmy Yau (id:1048296)
       林青霞 Brigitte Lin (id:1044746)
       李嘉欣 Michele Reis (id:1139540)
       陈百祥 Pak-cheung Chan (id:1070608)
       刘松仁 Damian Lau (id:1028689)
       温兆伦 Siu-Lun Wan (id:1042785)
       汤镇业 Ken Tong (id:1028943)
       吴君如 Sandra Ng (id:1127819)
       袁洁莹 Fennie Yuen (id:1051082)
       陈德容 Vivian Chan (id:1019966)
       秦沛 Paul Chun (id:1048476)
       尹尚林 Hsiang Lin Yin (id:1406340)
       张敏 Sharla Cheung (id:1005297)
       谭淑梅 Suk-mui Tam (id:1337283)
       罗兰 Lan Law (id:1054340)
       任世官 Shi-Kwan Yen (id:1165667)
       马海伦 Helen Ma (id:1274579)
       郑家生 Ka Sang Cheung (id:1280593)
       郑雷 Lei Cheng (id:1330620)
       杜伟和 Wei Ho Tu (id:1360498)
       萧若元 Stephen Siu (id:1297721)
       向华强 Charles Heung (id:1037691)
       王晶 Jing Wong (id:1274331)
       胡伟立 Wai Lap Wu (id:1275249)
       刘满棠 Moon-Tong Lau (id:1289492)
       敖志君 Peter Ngor (id:1293124)
       钟志文 David Chung (id:1280776)
       莫少奇 Jason Mok (id:1292297)
       奚仲文 Chung-Man Hai (id:1275027)
       程小东 Siu-Tung Ching (id:1280664)
       马玉成 Yuk-Sing Ma (id:1290582)
       萧若元 Stephen Siu (id:1297721)
       元彬 Bun Yuen (id:1278657)

◎简  介
  韦小宝(周星驰 饰)要护送建宁公主(邱淑贞 饰)嫁到云南,在途中遇到了独臂神尼的刺杀。小宝被抓走后,借口拜神尼为师,其实是想追求其徒弟阿珂(李嘉欣 饰)。不料韦小宝被神龙教圣女龙儿(林青霞 饰)抓走,想要报了之前在王宫里埋下的仇恨,却没想到遭到了平西王的陷害。韦小宝极力相救,龙儿以身相许更把绝世武功传于韦小宝。韦小宝与公主之间的事情被平西王发现了,平西王更提前造反,小宝将贪图富贵的冯锡范骗到东郊皇陵,没想大那里竟然饰大清龙脉……

◎获奖情况 (共3项)
  第12届香港电影金像奖 (1993)
  最佳美术指导(提名)
   └──莫少奇 (id:1292297)
  最佳服装造型设计(提名)
  最佳动作设计(提名)
   └──程小东 (id:1280664)

  1. ##### MediaInfo ######
  2. General
  3. Unique ID                                : 230018344687505376760598919309046204157 (0xAD0BEBF9B8D42819B7C8CFF755B246FD)
  4. Complete name                            : Royal.Tramp.II.1992.BluRay.1080p.x265.10bit.2Audio-MiniHD.mkv
  5. Format                                   : Matroska
  6. Format version                           : Version 4
  7. File size                                : 5.69 GiB
  8. Duration                                 : 1 h 37 min
  9. Overall bit rate                         : 8 339 kb/s
  10. Encoded date                             : UTC 2017-06-15 08:04:01
  11. Writing application                      : mkvmerge v11.0.0 ('Alive') 64bit
  12. Writing library                          : libebml v1.3.4 + libmatroska v1.4.5
  13. Video
  14. ID                                       : 1
  15. Format                                   : HEVC
  16. Format/Info                              : High Efficiency Video Coding
  17. Codec ID                                 : V_MPEGH/ISO/HEVC
  18. Duration                                 : 1 h 37 min
  19. Bit rate                                 : 6 893 kb/s
  20. Width                                    : 1 920 pixels
  21. Height                                   : 1 024 pixels
  22. Display aspect ratio                     : 1.85:1
  23. Frame rate mode                          : Constant
  24. Frame rate                               : 23.976 (24000/1001/53354) FPS
  25. Bits/(Pixel*Frame)                       : 0.146
  26. Stream size                              : 4.70 GiB (83%)
  27. Default                                  : Yes
  28. Forced                                   : No
  29. Audio #1
  30. ID                                       : 2
  31. Format                                   : AC-3
  32. Format/Info                              : Audio Coding 3
  33. Commercial name                          : Dolby Digital
  34. Codec ID                                 : A_AC3
  35. Duration                                 : 1 h 37 min
  36. Bit rate mode                            : Constant
  37. Bit rate                                 : 640 kb/s
  38. Channel(s)                               : 6 channels
  39. Channel layout                           : L R C LFE Ls Rs
  40. Sampling rate                            : 48.0 kHz
  41. Frame rate                               : 31.250 FPS (1536 SPF)
  42. Compression mode                         : Lossy
  43. Stream size                              : 447 MiB (8%)
  44. Language                                 : Chinese
  45. Service kind                             : Complete Main
  46. Default                                  : Yes
  47. Forced                                   : No
  48. Audio #2
  49. ID                                       : 3
  50. Format                                   : AC-3
  51. Format/Info                              : Audio Coding 3
  52. Commercial name                          : Dolby Digital
  53. Codec ID                                 : A_AC3
  54. Duration                                 : 1 h 37 min
  55. Bit rate mode                            : Constant
  56. Bit rate                                 : 640 kb/s
  57. Channel(s)                               : 6 channels
  58. Channel layout                           : L R C LFE Ls Rs
  59. Sampling rate                            : 48.0 kHz
  60. Frame rate                               : 31.250 FPS (1536 SPF)
  61. Compression mode                         : Lossy
  62. Stream size                              : 447 MiB (8%)
  63. Language                                 : Chinese
  64. Service kind                             : Complete Main
  65. Default                                  : No
  66. Forced                                   : No
  67. Text #1
  68. ID                                       : 4
  69. Format                                   : PGS
  70. Muxing mode                              : zlib
  71. Codec ID                                 : S_HDMV/PGS
  72. Codec ID/Info                            : Picture based subtitle format used on BDs/HD-DVDs
  73. Language                                 : Chinese
  74. Default                                  : Yes
  75. Forced                                   : No
  76. Text #2
  77. ID                                       : 5
  78. Format                                   : PGS
  79. Muxing mode                              : zlib
  80. Codec ID                                 : S_HDMV/PGS
  81. Codec ID/Info                            : Picture based subtitle format used on BDs/HD-DVDs
  82. Language                                 : English
  83. Default                                  : No
  84. Forced                                   : No
  85. Menu
  86. 00:00:00.000                             : en:Chapter 01
  87. 00:04:42.991                             : en:Chapter 02
  88. 00:11:08.376                             : en:Chapter 03
  89. 00:15:28.594                             : en:Chapter 04
  90. 00:18:36.323                             : en:Chapter 05
  91. 00:24:43.023                             : en:Chapter 06
  92. 00:28:50.353                             : en:Chapter 07
  93. 00:35:51.065                             : en:Chapter 08
  94. 00:38:49.118                             : en:Chapter 09
  95. 00:45:06.203                             : en:Chapter 10
  96. 00:48:58.894                             : en:Chapter 11
  97. 00:54:10.538                             : en:Chapter 12
  98. 00:58:01.811                             : en:Chapter 13
  99. 01:02:25.616                             : en:Chapter 14
  100. 01:05:13.826                             : en:Chapter 15
  101. 01:13:36.912                             : en:Chapter 16
  102. 01:16:39.219                             : en:Chapter 17
  103. 01:20:41.586                             : en:Chapter 18
  104. 01:28:40.940                             : en:Chapter 19
  105. 01:33:15.965                             : en:Chapter 20
  106. 01:37:45.651                             : en:Chapter 21





此处一般会放置磁力链或种子下载链接,不过此链接需要注册会员才能看到,点击“立即注册”
磁力链下载【下载链接仅对注册会员开放,登陆后可见】
BT9527电影天堂 1、BT9527电影天堂提供的BT文件均来源于互联网抓取,只供网友学习交流、技术提升使用。
2、我们遵守BitTorrent点对点协议原则,任何版权问题请联系原资源发布商,我们不处理任何版权纠纷,谢谢!如有争议请联系邮箱:BT9527#hotmail.com(#换成@)
3、如果您发现某页面或地址有错误,请联系站长邮箱BT9527#hotmail.com(#换成@),我们会尽快处理。您的热心是对BT9527电影天堂最大的支持。
4、本站建议去正规影院观看电影以支持电影行业发展。
最新回复 (0)

你可以在 登录 or 注册 后,对此帖发表评论!

返回
发新帖